osu file format v14

[General]
AudioFilename: audio.mp3
AudioLeadIn: 0
PreviewTime: -1
Countdown: 0
SampleSet: None
StackLeniency: 0.7
Mode: 1
LetterboxInBreaks: 0
WidescreenStoryboard: 0

[Editor]
Bookmarks: 57904
DistanceSpacing: 0.8
BeatDivisor: 8
GridSize: 32
TimelineZoom: 5.499997

[Metadata]
Title:Synthesis.
TitleUnicode:Synthesis.
Artist:tn-shi
ArtistUnicode:tn-shi
Creator:HD Enjoyer
Version:Synthesis.HD_data_reconstruction()
Source:
Tags:
BeatmapID:5291090
BeatmapSetID:2429749

[Difficulty]
HPDrainRate:3
CircleSize:5
OverallDifficulty:8
ApproachRate:5
SliderMultiplier:1.4
SliderTickRate:1

[Events]
//Background and Video events
0,0,"tn-shi - Synthesis. 3-47 screenshot.png",0,0
//Break Periods
//Storyboard Layer 0 (Background)
//Storyboard Layer 1 (Fail)
//Storyboard Layer 2 (Pass)
//Storyboard Layer 3 (Foreground)
//Storyboard Layer 4 (Overlay)
//Storyboard Sound Samples

[TimingPoints]
0,333.333333333333,4,1,0,100,1,0
0,-250,4,1,0,100,0,0
234,-245.11587035599,4,1,0,100,0,0
235,-245.095835547019,4,1,0,100,0,0
484,-240.207073336805,4,1,0,100,0,0
734,-235.491027604351,4,1,0,100,0,0
984,-230.956598759964,4,1,0,100,0,0
1234,-226.593493784713,4,1,0,100,0,0
1484,-222.392183038528,4,1,0,100,0,0
1568,-221.015293900866,4,1,0,100,0,0
1734,-218.343830778753,4,1,0,100,0,0
1984,-214.440233131905,4,1,0,100,0,0
2234,-210.673762602311,4,1,0,100,0,0
2484,-207.037318327752,4,1,0,100,0,0
2656,333.333333333333,4,1,0,100,1,0
2656,-204.677314767414,4,1,0,100,0,0
2900,-201.256753582335,4,1,0,100,0,0
3150,-197.935575431532,4,1,0,100,0,0
3400,-194.722231241274,4,1,0,100,0,0
3650,-191.611553084763,4,1,0,100,0,0
3900,-188.598698072266,4,1,0,100,0,0
3984,-187.607532768167,4,1,0,100,0,0
4150,-185.679123192668,4,1,0,100,0,0
4400,-182.848562456172,4,1,0,100,0,0
4650,-180.103006096279,4,1,0,100,0,0
4900,-177.438681617799,4,1,0,100,0,0
5150,-174.852036502522,4,1,0,100,0,0
5317,-173.165766754252,4,1,0,100,0,0
5566,-170.711052916228,4,1,0,100,0,0
5817,-168.306064603037,4,1,0,100,0,0
6066,-165.986272176247,4,1,0,100,0,0
6316,-163.720619147716,4,1,0,100,0,0
6566,-161.515983948722,4,1,0,100,0,0
6650,-160.788492989088,4,1,0,100,0,0
6816,-159.369934362627,4,1,0,100,0,0
7066,-157.280165744407,4,1,0,100,0,0
7316,-155.244492764878,4,1,0,100,0,0
7566,-153.260841787841,4,1,0,100,0,0
7816,-151.327243824279,4,1,0,100,0,0
7984,-150.055045412465,4,1,0,100,0,0
8233,-148.208328184851,4,1,0,100,0,0
8483,-146.399365311852,4,1,0,100,0,0
8733,-144.634028698903,4,1,0,100,0,0
8983,-142.910758965805,4,1,0,100,0,0
9233,-141.228070175439,4,1,0,100,0,0
9317,-140.671545516384,4,1,0,100,0,0
9483,-139.58454556034,4,1,0,100,0,0
9733,-137.978833544231,4,1,0,100,0,0
9983,-136.409644035028,4,1,0,100,0,0
10233,-134.875744967952,4,1,0,100,0,0
10484,-133.370026908622,4,1,0,100,0,0
10650,-132.39254729685,4,1,0,100,0,0
10899,-130.952900845033,4,1,0,100,0,0
11149,-129.538631012809,4,1,0,100,0,0
11399,-128.154582558711,4,1,0,100,0,0
11649,-126.799797027296,4,1,0,100,0,0
11899,-125.473356068372,4,1,0,100,0,0
11984,-125.028665540893,4,1,0,100,0,0
12149,-124.174379361037,4,1,0,100,0,0
12399,-122.902022665328,4,1,0,100,0,0
12649,-121.655475992454,4,1,0,100,0,0
12899,-120.433961885254,4,1,0,100,0,0
13149,-119.236733801221,4,1,0,100,0,0
13317,-118.44548022041,4,1,0,100,0,0
13566,-117.291858168234,4,1,0,100,0,0
13816,-116.155991555461,4,1,0,100,0,0
14066,-115.041913640636,4,1,0,100,0,0
14316,-113.949003439038,4,1,0,100,0,0
14566,-112.876663341552,4,1,0,100,0,0
14650,-112.520872811873,4,1,0,100,0,0
14816,-111.824318025023,4,1,0,100,0,0
15066,-110.791413422992,4,1,0,100,0,0
15316,-109.777415752961,4,1,0,100,0,0
15566,-108.781810596579,4,1,0,100,0,0
15816,-107.804102029444,4,1,0,100,0,0
15984,-107.156896028017,4,1,0,100,0,0
16233,-106.211812627291,4,1,0,100,0,0
16483,-105.279557623102,4,1,0,100,0,0
16733,-104.363525624293,4,1,0,100,0,0
16983,-103.463296817045,4,1,0,100,0,0
17234,-102.574956813245,4,1,0,100,0,0
17317,-102.284549656337,4,1,0,100,0,0
17483,-101.708640719071,4,1,0,100,0,0
17733,-100.853443201883,4,1,0,100,0,0
17983,-100.012507295923,4,1,0,100,0,0
18233,-99.1854792028446,4,1,0,100,0,0
18483,-98.3720167309112,4,1,0,100,0,0
18650,-97.8360169007651,4,1,0,100,0,0
18899,-97.0475913070214,4,1,0,100,0,0
19149,-96.2686806748319,4,1,0,100,0,0
19399,-95.5021736707168,4,1,0,100,0,0
19649,-94.7477763559095,4,1,0,100,0,0
19899,-94.005204006458,4,1,0,100,0,0
19984,-93.7553738646489,4,1,0,100,0,0
20149,-93.2741807549341,4,1,0,100,0,0
20399,-92.5544392487307,4,1,0,100,0,0
20649,-91.8457203240578,4,1,0,100,0,0
20899,-91.1477726948037,4,1,0,100,0,0
21149,-90.4603526554746,4,1,0,100,0,0
21317,-90.0042021220716,4,1,0,100,0,0
21566,-89.3365211303273,4,1,0,100,0,0
21816,-88.6760509233931,4,1,0,100,0,0
22066,-88.0252748381794,4,1,0,100,0,0
22316,-87.3839809998397,4,1,0,100,0,0
22566,-86.7519636631902,4,1,0,100,0,0
22650,-86.5416528377033,4,1,0,100,0,0
22816,-86.1290229926326,4,1,0,100,0,0
23066,-85.5149648514922,4,1,0,100,0,0
23316,-84.909600600303,4,1,0,100,0,0
23566,-84.3127469036004,4,1,0,100,0,0
23816,-83.724225544806,4,1,0,100,0,0
23984,-66.6666666666667,4,1,0,100,0,0
25155,-50,4,1,0,100,0,0
25447,-66.6666666666667,4,1,0,100,0,0
27822,-50,4,1,0,100,0,0
28114,-66.6666666666667,4,1,0,100,0,0
30489,-50,4,1,0,100,0,0
30780,-66.6666666666667,4,1,0,100,0,0
33155,-50,4,1,0,100,0,0
33447,-66.6666666666667,4,1,0,100,0,0
34322,-40,4,1,0,100,0,0
34655,-66.6666666666667,4,1,0,100,0,0
35822,-50,4,1,0,100,0,0
36114,-66.6666666666667,4,1,0,100,0,0
38484,-66.6666666666667,4,1,0,100,0,0
38566,-64.8929266709929,4,1,0,100,0,0
38650,-63.1711939355654,4,1,0,100,0,0
38734,-61.5384615384615,4,1,0,100,0,0
38817,-60.00600060006,4,1,0,100,0,0
38900,-58.5480093676815,4,1,0,100,0,0
38984,-57.1428571428571,4,1,0,100,0,0
39067,-55.8191459670667,4,1,0,100,0,0
39150,-54.5553737043099,4,1,0,100,0,0
39234,-53.3333333333333,4,1,0,100,0,0
39317,-52.1784503000261,4,1,0,100,0,0
39400,-51.0725229826353,4,1,0,100,0,0
39484,-50,4,1,0,100,0,0
39567,-48.9835904971834,4,1,0,100,0,0
39650,-48.0076812289966,4,1,0,100,0,0
39734,-47.0588235294118,4,1,0,100,0,0
39817,-46.1573967228248,4,1,0,100,0,0
39900,-45.2898550724638,4,1,0,100,0,0
39984,-44.4444444444444,4,1,0,100,0,0
42655,-33.3333333333333,4,1,0,100,0,0
43984,-55.5555555555556,4,1,0,100,0,0
44005,-56.0723867214449,4,1,0,100,0,0
44317,-64.3424725012664,4,1,0,100,0,0
44338,-64.9410480126891,4,1,0,100,0,0
44650,-74.519167816372,4,1,0,100,0,0
44671,-75.2124167272776,4,1,0,100,0,0
44984,-86.3435199113029,4,1,0,100,0,0
45005,-87.1467703084324,4,1,0,100,0,0
45322,-100,4,1,0,100,0,0
45333,-80.0048953834921,4,1,0,100,0,0
45567,-80.6947654569907,4,1,0,100,0,0
45650,-110.570887638038,4,1,0,100,0,0
45816,-82.7786423259681,4,1,0,100,0,0
45984,-121.489089935655,4,1,0,100,0,0
46066,-86.2926556296055,4,1,0,100,0,0
46322,-130.019608452186,4,1,0,100,0,0
46333,-91.7462313628355,4,1,0,100,0,0
46567,-97.6038187564263,4,1,0,100,0,0
46655,-133.333333333333,4,1,0,100,0,0
46816,-105.089433827716,4,1,0,100,0,0
46984,-130.024388859179,4,1,0,100,0,0
47066,-113.318625354017,4,1,0,100,0,0
47316,-121.504428282097,4,1,0,100,0,0
47333,-122.106729766306,4,1,0,100,0,0
47566,-128.254818947806,4,1,0,100,0,0
47650,-110.595836017841,4,1,0,100,0,0
47816,-132.471495294636,4,1,0,100,0,0
47989,-100,4,1,0,100,0,0
47999,-133.319727064502,4,1,0,100,0,0
48234,-131.445726856967,4,1,0,100,0,0
48317,-91.2739535028711,4,1,0,100,0,0
48483,-126.264300807586,4,1,0,100,0,0
48651,-84.9703710349393,4,1,0,100,0,0
48733,-118.875430357623,4,1,0,100,0,0
48983,-81.2423423253042,4,1,0,100,0,0
48999,-109.872939815933,4,1,0,100,0,0
49234,-102.502355656336,4,1,0,100,0,0
49322,-80,4,1,0,100,0,0
49483,-95.3659781581029,4,1,0,100,0,0
49651,-81.2423423253042,4,1,0,100,0,0
49733,-89.4692049237001,4,1,0,100,0,0
49984,-84.9854137635777,4,1,0,100,0,0
49999,-84.6597973737981,4,1,0,100,0,0
50233,-81.9390361565632,4,1,0,100,0,0
50317,-91.2739535028711,4,1,0,100,0,0
50483,-80.3100131169291,4,1,0,100,0,0
50655,-100,4,1,0,100,0,0
50666,-80.0048953834921,4,1,0,100,0,0
50900,-80.6947654569907,4,1,0,100,0,0
50983,-110.562580300628,4,1,0,100,0,0
51149,-82.7786423259681,4,1,0,100,0,0
51317,-121.473723385459,4,1,0,100,0,0
51399,-86.2926556296055,4,1,0,100,0,0
51649,-130.005291993849,4,1,0,100,0,0
51666,-91.7462313628355,4,1,0,100,0,0
51900,-97.6038187564263,4,1,0,100,0,0
51983,-133.333302475403,4,1,0,100,0,0
51984,-133.333333333333,4,1,0,100,0,0
52149,-105.089433827716,4,1,0,100,0,0
52317,-130.038683232292,4,1,0,100,0,0
52399,-113.318625354017,4,1,0,100,0,0
52649,-121.519807494039,4,1,0,100,0,0
52666,-122.106729766306,4,1,0,100,0,0
52899,-128.254818947806,4,1,0,100,0,0
52983,-110.60416924854,4,1,0,100,0,0
53149,-132.471495294636,4,1,0,100,0,0
53322,-100,4,1,0,100,0,0
53333,-131.885280870143,4,1,0,100,0,0
53484,-97.2431426344682,4,1,0,100,0,0
53566,-117.140568412373,4,1,0,100,0,0
53650,-94.5781189002658,4,1,0,100,0,0
53816,-91.9861322081771,4,1,0,100,0,0
53838,-101.690843937521,4,1,0,100,0,0
53984,-89.4352330794594,4,1,0,100,0,0
54066,-90.321855347179,4,1,0,100,0,0
54150,-86.9841911615051,4,1,0,100,0,0
54316,-84.6003219480512,4,1,0,100,0,0
54338,-78.4092635091494,4,1,0,100,0,0
54484,-82.2542412686493,4,1,0,100,0,0
54566,-69.6431446758716,4,1,0,100,0,0
54650,-66.6666666666667,4,1,0,100,0,0
54718,-68.3906838222203,4,1,0,100,0,0
54775,-69.2482888549581,4,1,0,100,0,0
54817,-70.1379630514617,4,1,0,100,0,0
54859,-71.0390674246384,4,1,0,100,0,0
54984,-73.7900079151231,4,1,0,100,0,0
55025,-74.7153193554689,4,1,0,100,0,0
55067,-75.6752317636052,4,1,0,100,0,0
55150,-77.6086202492693,4,1,0,100,0,0
55234,-79.6155991401981,4,1,0,100,0,0
55275,-80.6139622898423,4,1,0,100,0,0
55317,-81.6496580927726,4,1,0,100,0,0
55400,-83.7356841958456,4,1,0,100,0,0
55484,-85.9011105371304,4,1,0,100,0,0
55525,-86.978292699922,4,1,0,100,0,0
55567,-88.0957548632562,4,1,0,100,0,0
55650,-90.3464690549295,4,1,0,100,0,0
55734,-92.6828519938454,4,1,0,100,0,0
55817,-95.05075962607,4,1,0,100,0,0
55859,-96.2719336015671,4,1,0,100,0,0
55900,-97.4791637410219,4,1,0,100,0,0
55942,-98.7315368770394,4,1,0,100,0,0
55989,-66.6666666666667,4,1,0,100,0,0
56155,-61.4311454924054,4,1,0,100,0,0
56234,-62.7943920588116,4,1,0,100,0,0
56317,-64.1711212454304,4,1,0,100,0,0
56400,-65.5780343894241,4,1,0,100,0,0
56572,-68.5029712877646,4,1,0,100,0,0
56650,-70.0048576322274,4,1,0,100,0,0
56734,-71.5583673549248,4,1,0,100,0,0
56817,-73.1272414160359,4,1,0,100,0,0
56905,-62.5,4,1,0,100,0,0
56942,-65.6532164298613,4,1,0,100,0,0
56984,-68.9655172413793,4,1,0,100,0,0
57030,-67.3837399175364,4,1,0,100,0,0
57095,-70.3299961076476,4,1,0,100,0,0
57150,-73.3489990594737,4,1,0,100,0,0
57206,-76.5560775443115,4,1,0,100,0,0
57262,-79.9033808793831,4,1,0,100,0,0
57322,-47.6190476190476,4,1,0,100,0,0
57484,-61.4471992620284,4,1,0,100,0,0
57650,-64.1711212454304,4,1,0,100,0,0
57734,-65.5951718633875,4,1,0,100,0,0
57900,-68.5029712877646,4,1,0,100,0,0
57984,-70.0231519656297,4,1,0,100,0,0
58067,-71.5583673549248,4,1,0,100,0,0
58150,-73.1272414160359,4,1,0,100,0,0
58317,-76.3888909711515,4,1,0,100,0,0
58400,-78.0636713501848,4,1,0,100,0,0
58484,-79.7960178834651,4,1,0,100,0,0
58650,-45.4545454545455,4,1,0,100,0,0
58817,-61.445189302544,4,1,0,100,0,0
58900,-62.7913171936353,4,1,0,100,0,0
58984,-64.183691903233,4,1,0,100,0,0
59067,-65.5898143158232,4,1,0,100,0,0
59234,-68.513035468226,4,1,0,100,0,0
59317,-70.0140042014005,4,1,0,100,0,0
59484,-55.5555555555556,4,1,0,100,0,0
59539,-57.1804805931234,4,1,0,100,0,0
59595,-58.8837892245399,4,1,0,100,0,0
59650,-60.6060606060606,4,1,0,100,0,0
59817,-79.7777798385067,4,1,0,100,0,0
59900,-81.5255341500962,4,1,0,100,0,0
59989,-43.4782608695652,4,1,0,100,0,0
60067,-60.1131998289137,4,1,0,100,0,0
60317,-64.1711212454304,4,1,0,100,0,0
60400,-65.5780343894241,4,1,0,100,0,0
60484,-67.0333064586077,4,1,0,100,0,0
60650,-70.0048576322274,4,1,0,100,0,0
60734,-71.5583673549248,4,1,0,100,0,0
60817,-73.1272414160359,4,1,0,100,0,0
60900,-74.7305120950494,4,1,0,100,0,0
60984,-76.3888909711515,4,1,0,100,0,0
61067,-78.0636713501848,4,1,0,100,0,0
61150,-79.7751702792891,4,1,0,100,0,0
61234,-81.5454974658652,4,1,0,100,0,0
61322,-41.6666666666667,4,1,0,100,0,0
61484,-61.4471992620284,4,1,0,100,0,0
61567,-62.7943920588116,4,1,0,100,0,0
61650,-64.1711212454304,4,1,0,100,0,0
61734,-65.5951718633875,4,1,0,100,0,0
61905,-68.5029712877646,4,1,0,100,0,0
61983,-70.0048576322274,4,1,0,100,0,0
62067,-71.5583673549248,4,1,0,100,0,0
62150,-73.1272414160359,4,1,0,100,0,0
62238,-62.5,4,1,0,100,0,0
62275,-65.6532164298613,4,1,0,100,0,0
62317,-68.9655172413793,4,1,0,100,0,0
62363,-67.3837399175364,4,1,0,100,0,0
62428,-70.3299961076476,4,1,0,100,0,0
62483,-73.3489990594737,4,1,0,100,0,0
62539,-76.5560775443115,4,1,0,100,0,0
62595,-79.9033808793831,4,1,0,100,0,0
62655,-40,4,1,0,100,0,0
62817,-61.445189302544,4,1,0,100,0,0
62984,-64.183691903233,4,1,0,100,0,0
63067,-65.5898143158232,4,1,0,100,0,0
63234,-68.513035468226,4,1,0,100,0,0
63317,-70.0140042014005,4,1,0,100,0,0
63400,-71.5478558322976,4,1,0,100,0,0
63484,-73.1344036137308,4,1,0,100,0,0
63650,-76.3739298715349,4,1,0,100,0,0
63734,-78.0674940963111,4,1,0,100,0,0
63817,-79.7777798385067,4,1,0,100,0,0
63989,-38.4615384615385,4,1,0,100,0,0
64150,-61.4311454924054,4,1,0,100,0,0
64317,-64.1711212454304,4,1,0,100,0,0
64400,-65.5780343894241,4,1,0,100,0,0
64650,-70.0048576322274,4,1,0,100,0,0
64900,-74.7305120950494,4,1,0,100,0,0
64984,-76.3888909711515,4,1,0,100,0,0
65067,-78.0636713501848,4,1,0,100,0,0
65234,-81.5454974658652,4,1,0,100,0,0
65322,-37.037037037037,4,1,0,100,0,0
65400,-56.2619556655789,4,1,0,100,0,0
65442,-58.7976889280106,4,1,0,100,0,0
65484,-61.4477080004916,4,1,0,100,0,0
65650,-64.1711212454304,4,1,0,100,0,0
65817,-67.0333064586077,4,1,0,100,0,0
65900,-68.5029712877646,4,1,0,100,0,0
65984,-70.0231519656297,4,1,0,100,0,0
66067,-71.5583673549248,4,1,0,100,0,0
66150,-69.5507024620949,4,1,0,100,0,0
66192,-72.1033037742814,4,1,0,100,0,0
66234,-74.7495888772612,4,1,0,100,0,0
66317,-76.3888909711515,4,1,0,100,0,0
66400,-73.8989062961868,4,1,0,100,0,0
66442,-76.7907328592657,4,1,0,100,0,0
66484,-79.7957229492499,4,1,0,100,0,0
66567,-81.5454974658652,4,1,0,100,0,0
66650,-35.7142857142857,4,1,0,100,0,0
66817,-57.8655552779376,4,1,0,100,0,0
66900,-59.0491252055666,4,1,0,100,0,0
66984,-60.271604777233,4,1,0,100,0,0
67150,-62.7623853757682,4,1,0,100,0,0
67234,-64.0617396629627,4,1,0,100,0,0
67317,-65.3720450460613,4,1,0,100,0,0
67400,-66.7091511405677,4,1,0,100,0,0
67484,-68.0902143524045,4,1,0,100,0,0
67650,-70.904106325016,4,1,0,100,0,0
67734,-72.372016666242,4,1,0,100,0,0
67900,-75.3628581355442,4,1,0,100,0,0
67989,-34.4827586206897,4,1,0,100,0,0
68067,-56.6927383535296,4,1,0,100,0,0
68150,-57.8531984763918,4,1,0,100,0,0
68317,-60.2605758192543,4,1,0,100,0,0
68400,-61.4940670431723,4,1,0,100,0,0
68484,-62.7681285339813,4,1,0,100,0,0
68567,-64.0529475825189,4,1,0,100,0,0
68650,-65.3640659652256,4,1,0,100,0,0
68734,-66.71830781868,4,1,0,100,0,0
68817,-68.0839842339842,4,1,0,100,0,0
68900,-69.4776150763758,4,1,0,100,0,0
68984,-70.9170832738511,4,1,0,100,0,0
69150,-73.8500416921605,4,1,0,100,0,0
69322,-33.3333333333333,4,1,0,100,0,0
69484,-56.8343279340722,4,1,0,100,0,0
69525,-58.5536346797657,4,1,0,100,0,0
69567,-60.3688183145242,4,1,0,100,0,0
69609,-62.2402732917179,4,1,0,100,0,0
69650,-64.1231163834562,4,1,0,100,0,0
69734,-61.5090812890809,4,1,0,100,0,0
69900,-64.0529475825189,4,1,0,100,0,0
69984,-65.3800251009143,4,1,0,100,0,0
70067,-66.71830781868,4,1,0,100,0,0
70150,-68.0839842339842,4,1,0,100,0,0
70234,-69.4945785664824,4,1,0,100,0,0
70317,-70.9170832738511,4,1,0,100,0,0
70400,-72.3687056431184,4,1,0,100,0,0
70484,-73.8680727436041,4,1,0,100,0,0
70567,-75.3800997731875,4,1,0,100,0,0
70655,-33.3333333333333,4,1,0,100,0,0
70817,-57.8655552779376,4,1,0,100,0,0
70984,-60.271604777233,4,1,0,100,0,0
71067,-61.5043875365383,4,1,0,100,0,0
71150,-62.7623853757682,4,1,0,100,0,0
71234,-64.0617396629627,4,1,0,100,0,0
71317,-65.3720450460613,4,1,0,100,0,0
71567,-50,4,1,0,100,0,0
71989,-33.3333333333333,4,1,0,100,0,0
72150,-57.8531984763918,4,1,0,100,0,0
72317,-60.2605758192543,4,1,0,100,0,0
72484,-62.7681285339813,4,1,0,100,0,0
72567,-64.0529475825189,4,1,0,100,0,0
72650,-65.3640659652256,4,1,0,100,0,0
72734,-66.71830781868,4,1,0,100,0,0
72817,-68.0839842339842,4,1,0,100,0,0
72984,-70.9170832738511,4,1,0,100,0,0
73067,-72.3687056431184,4,1,0,100,0,0
73234,-75.3800997731875,4,1,0,100,0,0
73322,-33.3333333333333,4,1,0,100,0,0
73400,-56.6927383535296,4,1,0,100,0,0
73484,-57.8673237764458,4,1,0,100,0,0
73650,-60.2605758192543,4,1,0,100,0,0
73734,-61.5090812890809,4,1,0,100,0,0
73817,-62.7681285339813,4,1,0,100,0,0
73900,-64.0529475825189,4,1,0,100,0,0
73984,-65.3800251009143,4,1,0,100,0,0
74067,-66.71830781868,4,1,0,100,0,0
74150,-68.0839842339842,4,1,0,100,0,0
74234,-69.4945785664824,4,1,0,100,0,0
74317,-70.9170832738511,4,1,0,100,0,0
74400,-72.3687056431184,4,1,0,100,0,0
74484,-73.8680727436041,4,1,0,100,0,0
74567,-75.3800997731875,4,1,0,100,0,0
74655,-33.3333333333333,4,1,0,100,0,0
74817,-50,4,1,0,100,0,0
74984,-49.0536796857031,4,1,0,100,0,0
75067,-48.5900369901594,4,1,0,100,0,0
75317,-47.2198338941012,4,1,0,100,0,0
75484,-46.3261321330669,4,1,0,100,0,0
75567,-45.8882695116711,4,1,0,100,0,0
75650,-45.4545454545455,4,1,0,100,0,0
75822,-1818.18181818182,4,1,0,100,0,0
75989,-55.5555555555556,4,1,0,100,0,0
76489,-62.7681285339813,4,1,0,100,0,0
76734,-66.71830781868,4,1,0,100,0,0
76817,-68.0839842339842,4,1,0,100,0,0
76900,-69.4776150763758,4,1,0,100,0,0
76984,-70.9170832738511,4,1,0,100,0,0
77025,-71.6304737528814,4,1,0,100,0,0
77067,-72.3687056431184,4,1,0,100,0,0
77150,-73.8500416921605,4,1,0,100,0,0
77192,-74.6111487045275,4,1,0,100,0,0
77234,-75.3800997731875,4,1,0,100,0,0
77322,-33.3333333333333,4,1,0,100,0,0
77572,-100.432351019658,4,1,0,100,0,0
77655,-99.246210005167,4,1,0,100,0,0
77817,-101.713770102976,4,1,0,100,0,0
77989,-97.1524473546905,4,1,0,100,0,0
78067,-103.793888257125,4,1,0,100,0,0
78322,-94.1869639101755,4,1,0,100,0,0
78338,-106.839294970042,4,1,0,100,0,0
78489,-66.6666666666667,4,1,0,100,0,0
78525,-71.9759519719161,4,1,0,100,0,0
78567,-77.8534332890053,4,1,0,100,0,0
78609,-84.2108636124822,4,1,0,100,0,0
78650,-111.103840291041,4,1,0,100,0,0
78655,-90.9173561232839,4,1,0,100,0,0
78822,-89.3265995847276,4,1,0,100,0,0
78900,-114.806420849705,4,1,0,100,0,0
78989,-87.8516964262441,4,1,0,100,0,0
79155,-86.5424785761818,4,1,0,100,0,0
79171,-118.700341460548,4,1,0,100,0,0
79322,-85.4197205688095,4,1,0,100,0,0
79338,-120.833907814447,4,1,0,100,0,0
79489,-84.5200618273777,4,1,0,100,0,0
79567,-123.179484862225,4,1,0,100,0,0
79655,-83.8673056816056,4,1,0,100,0,0
79822,-83.4674836685376,4,1,0,100,0,0
79838,-124.769920123486,4,1,0,100,0,0
79989,-83.3333333333333,4,1,0,100,0,0
80005,-124.990432848153,4,1,0,100,0,0
80234,-123.668062620761,4,1,0,100,0,0
80322,-84.4025414910118,4,1,0,100,0,0
80484,-119.94399387984,4,1,0,100,0,0
80655,-87.6036724198329,4,1,0,100,0,0
80734,-114.527136788573,4,1,0,100,0,0
80989,-92.8951686244218,4,1,0,100,0,0
81005,-107.745411882025,4,1,0,100,0,0
81155,-66.6666666666667,4,1,0,100,0,0
81192,-73.8235907659403,4,1,0,100,0,0
81234,-81.7488383036553,4,1,0,100,0,0
81275,-90.30536983501,4,1,0,100,0,0
81322,-100,4,1,0,100,0,0
81338,-99.5123892924669,4,1,0,100,0,0
81400,-100,4,1,0,100,0,0
81489,-104.069101883651,4,1,0,100,0,0
81567,-94.5116131876214,4,1,0,100,0,0
81655,-108.281621920858,4,1,0,100,0,0
81822,-112.503471616837,4,1,0,100,0,0
81838,-89.6684998883042,4,1,0,100,0,0
81989,-116.482868271171,4,1,0,100,0,0
82005,-87.3394057362917,4,1,0,100,0,0
82155,-119.94399387984,4,1,0,100,0,0
82234,-85.0017254723767,4,1,0,100,0,0
82322,-122.669049775092,4,1,0,100,0,0
82489,-124.406849830861,4,1,0,100,0,0
82505,-83.5360789265651,4,1,0,100,0,0
82655,-125,4,1,0,100,0,0
82671,-83.3375827548316,4,1,0,100,0,0
82900,-83.9355566731366,4,1,0,100,0,0
82989,-122.65717267322,4,1,0,100,0,0
83150,-85.7410783975107,4,1,0,100,0,0
83322,-116.465916753275,4,1,0,100,0,0
83400,-88.7393548565036,4,1,0,100,0,0
83655,-108.291195475113,4,1,0,100,0,0
83671,-93.2861560611946,4,1,0,100,0,0
83822,-66.6666666666667,4,1,0,100,0,0
83859,-73.8217342409057,4,1,0,100,0,0
83900,-81.5465454001671,4,1,0,100,0,0
83942,-90.2986110419264,4,1,0,100,0,0
83989,-99.9900009999,4,1,0,100,0,0
84005,-100.512614333099,4,1,0,100,0,0
84072,-100,4,1,0,100,0,0
84155,-96.2463907603465,4,1,0,100,0,0
84234,-106.17544009909,4,1,0,100,0,0
84322,-92.8850083596508,4,1,0,100,0,0
84405,-97.0873786407767,4,1,0,100,0,0
84489,-89.9928005759539,4,1,0,100,0,0
84505,-113.029789170709,4,1,0,100,0,0
84655,-87.61326288901,4,1,0,100,0,0
84671,-116.936559906976,4,1,0,100,0,0
84822,-85.7410783975107,4,1,0,100,0,0
84900,-121.411236904777,4,1,0,100,0,0
84989,-84.4017399951006,4,1,0,100,0,0
85155,-83.6020666116542,4,1,0,100,0,0
85171,-124.54068567883,4,1,0,100,0,0
85322,-83.3333333333333,4,1,0,100,0,0
85338,-124.990432848153,4,1,0,100,0,0
85567,-123.668062620761,4,1,0,100,0,0
85655,-84.4025414910118,4,1,0,100,0,0
85817,-119.94399387984,4,1,0,100,0,0
85989,-87.6164636623553,4,1,0,100,0,0
86067,-114.527136788573,4,1,0,100,0,0
86322,-92.8951686244218,4,1,0,100,0,0
86338,-107.745411882025,4,1,0,100,0,0
86484,-62.5,4,1,0,100,0,0
86567,-66.3162192201762,4,1,0,100,0,0
86655,-70.3654549065356,4,1,0,100,0,0
86671,-71.4285714285714,4,1,0,100,0,0
86734,-66.6666666666667,4,1,0,100,0,0
86817,-69.6535042712606,4,1,0,100,0,0
86900,-72.7741598589978,4,1,0,100,0,0
86984,-76.0747893085935,4,1,0,100,0,0
87005,-76.9230769230769,4,1,0,100,0,0
87068,-71.4692131076086,4,1,0,100,0,0
87151,-74.9243525529179,4,1,0,100,0,0
87234,-78.5465287972551,4,1,0,100,0,0
87317,-82.3438171419708,4,1,0,100,0,0
87338,-83.3333333333333,4,1,0,100,0,0
87401,-76.9705096747938,4,1,0,100,0,0
87484,-81.0111276319233,4,1,0,100,0,0
87567,-85.2638605087078,4,1,0,100,0,0
87650,-89.7398434185428,4,1,0,100,0,0
87671,-90.9090909090909,4,1,0,100,0,0
87734,-83.3333333333333,4,1,0,100,0,0
87817,-88.1190561394946,4,1,0,100,0,0
87900,-93.1796166589848,4,1,0,100,0,0
87989,-100,4,1,0,100,0,0
88010,-99.9969383708117,4,1,0,100,0,0
88234,-99.5710375532817,4,1,0,100,0,0
88317,-100.765899126676,4,1,0,100,0,0
88484,-98.3418363508694,4,1,0,100,0,0
88650,-103.012887104368,4,1,0,100,0,0
88734,-96.4712967661929,4,1,0,100,0,0
88984,-106.582409801548,4,1,0,100,0,0
89005,-93.9799380970647,4,1,0,100,0,0
89150,-71.4285714285714,4,1,0,100,0,0
89192,-79.823469379213,4,1,0,100,0,0
89234,-89.2050076922782,4,1,0,100,0,0
89275,-99.4257453131284,4,1,0,100,0,0
89317,-111.111111111111,4,1,0,100,0,0
89338,-90.7050564556301,4,1,0,100,0,0
89484,-113.57858967929,4,1,0,100,0,0
89567,-88.5711730325396,4,1,0,100,0,0
89650,-116.041740696566,4,1,0,100,0,0
89817,-118.422975936893,4,1,0,100,0,0
89838,-86.3849226512987,4,1,0,100,0,0
89984,-120.591233971479,4,1,0,100,0,0
90005,-85.2893537776821,4,1,0,100,0,0
90150,-122.41981521976,4,1,0,100,0,0
90234,-84.1592615697923,4,1,0,100,0,0
90317,-123.823555957524,4,1,0,100,0,0
90484,-124.702719587723,4,1,0,100,0,0
90505,-83.4345829624525,4,1,0,100,0,0
90650,-125,4,1,0,100,0,0
90671,-83.3375827548316,4,1,0,100,0,0
90900,-83.9355566731366,4,1,0,100,0,0
90984,-122.65717267322,4,1,0,100,0,0
91150,-85.7410783975107,4,1,0,100,0,0
91317,-116.465916753275,4,1,0,100,0,0
91400,-88.7390185464549,4,1,0,100,0,0
91489,-94.0568194404603,4,1,0,100,0,0
91525,-96.7669877006118,4,1,0,100,0,0
91567,-99.6242479081987,4,1,0,100,0,0
91650,-108.295429932857,4,1,0,100,0,0
91671,-93.2861560611946,4,1,0,100,0,0
91817,-71.4285714285714,4,1,0,100,0,0
91859,-77.7341413929286,4,1,0,100,0,0
91900,-84.4261314195828,4,1,0,100,0,0
91942,-91.8790997183896,4,1,0,100,0,0
91984,-99.9900009999,4,1,0,100,0,0
92005,-100.509042473962,4,1,0,100,0,0
92072,-100,4,1,0,100,0,0
92150,-96.248730827202,4,1,0,100,0,0
92234,-106.17544009909,4,1,0,100,0,0
92317,-92.888123662987,4,1,0,100,0,0
92405,-100,4,1,0,100,0,0
92484,-89.9928222855473,4,1,0,100,0,0
92505,-113.029789170709,4,1,0,100,0,0
92650,-87.61326288901,4,1,0,100,0,0
92671,-116.936559906976,4,1,0,100,0,0
92739,-100,4,1,0,100,0,0
92817,-85.7410783975107,4,1,0,100,0,0
92900,-121.411236904777,4,1,0,100,0,0
92984,-84.4017399951006,4,1,0,100,0,0
93150,-83.6020666116542,4,1,0,100,0,0
93171,-124.54068567883,4,1,0,100,0,0
93322,-83.3333333333333,4,1,0,100,0,0
93343,-124.995219827387,4,1,0,100,0,0
93572,-124.330959885735,4,1,0,100,0,0
93655,-83.8641339984171,4,1,0,100,0,0
93822,-122.421654761269,4,1,0,100,0,0
93989,-85.4197205688095,4,1,0,100,0,0
94072,-119.538275940624,4,1,0,100,0,0
94322,-87.8516964262441,4,1,0,100,0,0
94343,-115.738759594974,4,1,0,100,0,0
94484,-62.5,4,1,0,100,0,0
94525,-68.5586012295876,4,1,0,100,0,0
94567,-75.3744101127529,4,1,0,100,0,0
94609,-82.8678181577837,4,1,0,100,0,0
94655,-90.9008271975275,4,1,0,100,0,0
94676,-110.813814537,4,1,0,100,0,0
94822,-92.548663645331,4,1,0,100,0,0
94905,-107.646267442445,4,1,0,100,0,0
94989,-94.1869639101755,4,1,0,100,0,0
95155,-95.7397641430307,4,1,0,100,0,0
95176,-104.434013354593,4,1,0,100,0,0
95322,-97.1524473546905,4,1,0,100,0,0
95343,-102.836463334076,4,1,0,100,0,0
95489,-98.3430234349927,4,1,0,100,0,0
95572,-101.196496339841,4,1,0,100,0,0
95655,-99.2417685092388,4,1,0,100,0,0
95822,-99.8075052507136,4,1,0,100,0,0
95843,-100.193238697981,4,1,0,100,0,0
95989,-100,4,1,0,100,0,0
96010,-100,4,1,0,100,0,0
96067,-58.8235294117647,4,1,0,100,0,0
96150,-61.8911593442092,4,1,0,100,0,0
96234,-65.1586611071828,4,1,0,100,0,0
96317,-68.5566663130795,4,1,0,100,0,0
96400,-72.1318765011399,4,1,0,100,0,0
96483,-75.8935328595907,4,1,0,100,0,0
96505,-76.9230769230769,4,1,0,100,0,0
96567,-54.054054054054,4,1,0,100,0,0
96650,-56.6080032475629,4,1,0,100,0,0
96734,-59.3156046295297,4,1,0,100,0,0
96817,-62.1181518807421,4,1,0,100,0,0
96901,-65.0893076224837,4,1,0,100,0,0
96984,-68.1646511395908,4,1,0,100,0,0
97005,-68.9655172413793,4,1,0,100,0,0
97067,-50,4,1,0,100,0,0
97150,-53.5366177829498,4,1,0,100,0,0
97234,-57.3706088441903,4,1,0,100,0,0
97317,-61.4285671533307,4,1,0,100,0,0
97338,-62.5,4,1,0,100,0,0
97567,-69.5627687314798,4,1,0,100,0,0
97650,-72.4086667406519,4,1,0,100,0,0
97817,-78.4644406387386,4,1,0,100,0,0
97984,-84.6850670251694,4,1,0,100,0,0
98234,-93.2059699084929,4,1,0,100,0,0
98484,-98.8327061235779,4,1,0,100,0,0
98650,-100,4,1,0,100,0,0
98676,-50,4,1,0,100,0,0
98905,-83.8466893072129,4,1,0,100,0,0
99150,-85.5784395025943,4,1,0,100,0,0
99400,-88.5233324515294,4,1,0,100,0,0
99650,-92.6411488466564,4,1,0,100,0,0
99900,-97.8210452221788,4,1,0,100,0,0
99984,-99.763108326006,4,1,0,100,0,0
100150,-103.824077778512,4,1,0,100,0,0
100400,-110.219329511078,4,1,0,100,0,0
100650,-116.346015503881,4,1,0,100,0,0
100900,-121.356851831065,4,1,0,100,0,0
101150,-124.390704958763,4,1,0,100,0,0
101317,-125,4,1,0,100,0,0
101338,-124.988050253929,4,1,0,100,0,0
101567,-123.340721203247,4,1,0,100,0,0
101817,-118.747587440997,4,1,0,100,0,0
102067,-112.185557254563,4,1,0,100,0,0
102317,-104.789384781905,4,1,0,100,0,0
102567,-97.5181700585383,4,1,0,100,0,0
102650,-95.2514525526399,4,1,0,100,0,0
102817,-91.0151298338988,4,1,0,100,0,0
103067,-85.6316608732973,4,1,0,100,0,0
103317,-81.5178872482246,4,1,0,100,0,0
103567,-78.712808762178,4,1,0,100,0,0
103817,-77.2094437897367,4,1,0,100,0,0
103984,-76.9230769230769,4,1,0,100,0,0
104005,-76.9285123182283,4,1,0,100,0,0
104234,-77.6955085675465,4,1,0,100,0,0
104484,-80.0373722980634,4,1,0,100,0,0
104734,-84.0147812878181,4,1,0,100,0,0
104984,-89.7083549499231,4,1,0,100,0,0
105234,-97.1538584948674,4,1,0,100,0,0
105317,-100,4,1,0,100,0,0
105484,-106.231216433631,4,1,0,100,0,0
105734,-116.489754173894,4,1,0,100,0,0
105984,-126.944952957623,4,1,0,100,0,0
106234,-135.993374643348,4,1,0,100,0,0
106484,-141.698978247189,4,1,0,100,0,0
106650,-142.857142857143,4,1,0,100,0,0
106671,-142.835293146172,4,1,0,100,0,0
106900,-139.847007396304,4,1,0,100,0,0
107150,-131.757284191582,4,1,0,100,0,0
107400,-120.782797091562,4,1,0,100,0,0
107650,-109.168733968412,4,1,0,100,0,0
107900,-98.4610641498189,4,1,0,100,0,0
107984,-95.2194012901964,4,1,0,100,0,0
108150,-89.4289768375644,4,1,0,100,0,0
108400,-82.3106702576175,4,1,0,100,0,0
108650,-77.0763711088117,4,1,0,100,0,0
108900,-73.6042193571806,4,1,0,100,0,0
109150,-71.7746436502915,4,1,0,100,0,0
109317,-71.4285714285714,4,1,0,100,0,0
109989,-71.4285714285714,4,1,0,100,0,0
110012,-75.2413230251647,4,1,0,100,0,0
110039,-79.1105301323603,4,1,0,100,0,0
110067,-83.3333333333333,4,1,0,100,0,0
110239,-83.3333333333333,4,1,0,100,0,0
111989,-76.9230769230769,4,1,0,100,0,0
112150,-62.5,4,1,0,100,0,0
112234,-63.0972228476744,4,1,0,100,0,0
112317,-63.6929409867983,4,1,0,100,0,0
112400,-64.2942834638133,4,1,0,100,0,0
112484,-64.9086517047644,4,1,0,100,0,0
112567,-65.5214720391863,4,1,0,100,0,0
112650,-66.1400781780028,4,1,0,100,0,0
112734,-66.7720840313607,4,1,0,100,0,0
112817,-67.4024975400601,4,1,0,100,0,0
112901,-68.0465665244,4,1,0,100,0,0
112984,-68.6890127709099,4,1,0,100,0,0
113067,-69.3375245281536,4,1,0,100,0,0
113151,-70.000083789744,4,1,0,100,0,0
113234,-70.6609737270779,4,1,0,100,0,0
113317,-71.3281033070755,4,1,0,100,0,0
113400,-72.0015314399096,4,1,0,100,0,0
113484,-72.689546794205,4,1,0,100,0,0
113567,-73.3758286873803,4,1,0,100,0,0
113650,-74.0685899556194,4,1,0,100,0,0
113734,-74.7763572230837,4,1,0,100,0,0
113817,-75.482341264298,4,1,0,100,0,0
113901,-76.203617725082,4,1,0,100,0,0
113984,-76.9230769230769,4,1,0,100,0,0
114150,-66.6666666666667,4,1,0,100,0,0
114192,-69.1096595308807,4,1,0,100,0,0
114234,-71.6421756071138,4,1,0,100,0,0
114275,-74.2038835528289,4,1,0,100,0,0
114317,-76.9230769230769,4,1,0,100,0,0
114373,-67.1272219897908,4,1,0,100,0,0
114428,-68.9675570093283,4,1,0,100,0,0
114484,-70.8931995198438,4,1,0,100,0,0
114539,-72.8367811824854,4,1,0,100,0,0
114595,-74.8704562647438,4,1,0,100,0,0
114650,-76.9230769230769,4,1,0,100,0,0
114901,-71.4916162178531,4,1,0,100,0,0
114942,-74.1249316661101,4,1,0,100,0,0
114984,-76.9230769230769,4,1,0,100,0,0
115067,-66.6666666666667,4,1,0,100,0,0
115150,-68.2692754197967,4,1,0,100,0,0
115234,-69.93042083582,4,1,0,100,0,0
115317,-71.6114874039433,4,1,0,100,0,0
115400,-73.3329653520166,4,1,0,100,0,0
115484,-75.1173217625517,4,1,0,100,0,0
115567,-76.9230769230769,4,1,0,100,0,0
115651,-71.4602756277479,4,1,0,100,0,0
115706,-73.2258519149856,4,1,0,100,0,0
115762,-75.0683554414556,4,1,0,100,0,0
115817,-76.9230769230769,4,1,0,100,0,0
115984,-71.4285714285714,4,1,0,100,0,0
116039,-73.2041267366834,4,1,0,100,0,0
116095,-75.0573190261435,4,1,0,100,0,0
116150,-76.9230769230769,4,1,0,100,0,0
116234,-71.4285714285714,4,1,0,100,0,0
116275,-74.0918471940076,4,1,0,100,0,0
116317,-76.9230769230769,4,1,0,100,0,0
116651,-71.4916162178531,4,1,0,100,0,0
116692,-74.1249316661101,4,1,0,100,0,0
116734,-76.9230769230769,4,1,0,100,0,0
116984,-71.4285714285714,4,1,0,100,0,0
117025,-74.0918471940076,4,1,0,100,0,0
117067,-76.9230769230769,4,1,0,100,0,0
117322,-62.5,4,1,0,100,0,0
117359,-64.1584179554798,4,1,0,100,0,0
117400,-65.8197873367615,4,1,0,100,0,0
117442,-67.5662948110838,4,1,0,100,0,0
117484,-69.3591453150829,4,1,0,100,0,0
117525,-71.1551864895755,4,1,0,100,0,0
117568,-73.0888268329597,4,1,0,100,0,0
117609,-74.9814473632592,4,1,0,100,0,0
117651,-76.9710566214207,4,1,0,100,0,0
117984,-62.5,4,1,0,100,0,0
118039,-65.3272259361683,4,1,0,100,0,0
118095,-68.3372919990173,4,1,0,100,0,0
118150,-71.4285714285714,4,1,0,100,0,0
118484,-64.5161290322581,4,1,0,100,0,0
118525,-67.842812838178,4,1,0,100,0,0
118567,-71.4285714285714,4,1,0,100,0,0
118734,-64.5161290322581,4,1,0,100,0,0
118775,-67.842812838178,4,1,0,100,0,0
118817,-71.4285714285714,4,1,0,100,0,0
119067,-64.5161290322581,4,1,0,100,0,0
119109,-67.9260593434932,4,1,0,100,0,0
119150,-71.4285714285714,4,1,0,100,0,0
119651,-58.8577337896003,4,1,0,100,0,0
119692,-60.2773712061864,4,1,0,100,0,0
119734,-61.7671451519826,4,1,0,100,0,0
119775,-63.2569570208344,4,1,0,100,0,0
119817,-64.8203723552164,4,1,0,100,0,0
119859,-66.4224279850363,4,1,0,100,0,0
119901,-68.0640789171937,4,1,0,100,0,0
119942,-69.7057716385229,4,1,0,100,0,0
119984,-71.4285714285714,4,1,0,100,0,0
121150,-62.5,4,1,0,100,0,0
121192,-64.634563227679,4,1,0,100,0,0
121234,-66.8420282181254,4,1,0,100,0,0
121275,-69.0696353676903,4,1,0,100,0,0
121317,-71.4285714285714,4,1,0,100,0,0
122817,-62.5,4,1,0,100,0,0
122873,-65.3621634599478,4,1,0,100,0,0
122928,-68.3007642031512,4,1,0,100,0,0
122984,-71.4285714285714,4,1,0,100,0,0
123150,-62.5,4,1,0,100,0,0
123206,-65.3621634599478,4,1,0,100,0,0
123262,-68.3553985946389,4,1,0,100,0,0
123317,-71.4285714285714,4,1,0,100,0,0
123484,-62.5,4,1,0,100,0,0
123539,-65.3272259361683,4,1,0,100,0,0
123595,-68.3372919990173,4,1,0,100,0,0
123650,-71.4285714285714,4,1,0,100,0,0
123822,-55.5555555555556,4,1,0,100,0,0
124150,-62.5,4,1,0,100,0,0
124206,-65.3621634599478,4,1,0,100,0,0
124262,-68.3553985946389,4,1,0,100,0,0
124317,-71.4285714285714,4,1,0,100,0,0
124484,-62.5,4,1,0,100,0,0
124539,-65.3272259361683,4,1,0,100,0,0
124595,-68.3372919990173,4,1,0,100,0,0
124650,-71.4285714285714,4,1,0,100,0,0
124817,-62.5,4,1,0,100,0,0
124873,-65.3621634599478,4,1,0,100,0,0
124928,-68.3007642031512,4,1,0,100,0,0
124984,-71.4285714285714,4,1,0,100,0,0
125150,-62.5,4,1,0,100,0,0
125206,-65.3621634599478,4,1,0,100,0,0
125262,-68.3553985946389,4,1,0,100,0,0
125317,-71.4285714285714,4,1,0,100,0,0
125650,-66.6666666666667,4,1,0,100,0,0
125692,-69.0065559342354,4,1,0,100,0,0
125734,-71.4285714285714,4,1,0,100,0,0
125901,-62.5499943083774,4,1,0,100,0,0
125956,-65.3621634599478,4,1,0,100,0,0
126012,-68.3553985946389,4,1,0,100,0,0
126067,-71.4285714285714,4,1,0,100,0,0
126150,-58.8235294117647,4,1,0,100,0,0
126171,-59.2356509384595,4,1,0,100,0,0
126234,-60.4894206797262,4,1,0,100,0,0
126317,-62.1818139048013,4,1,0,100,0,0
126400,-63.921557473062,4,1,0,100,0,0
126484,-65.7318256683528,4,1,0,100,0,0
126505,-66.1923471742497,4,1,0,100,0,0
126567,-67.5708926520151,4,1,0,100,0,0
126650,-69.4614136662935,4,1,0,100,0,0
126734,-71.4285714285714,4,1,0,100,0,0
126901,-62.5499943083774,4,1,0,100,0,0
126956,-65.3621634599478,4,1,0,100,0,0
127012,-68.3553985946389,4,1,0,100,0,0
127067,-62.5,4,1,0,100,0,0
127109,-64.634563227679,4,1,0,100,0,0
127150,-66.7886034175598,4,1,0,100,0,0
127192,-69.0696353676903,4,1,0,100,0,0
127234,-62.5,4,1,0,100,0,0
127289,-65.3272259361683,4,1,0,100,0,0
127345,-68.3372919990173,4,1,0,100,0,0
127400,-71.4285714285714,4,1,0,100,0,0
127734,-66.6666666666667,4,1,0,100,0,0
127775,-68.9778814088867,4,1,0,100,0,0
127818,-71.487970356481,4,1,0,100,0,0
128317,-58.8235294117647,4,1,0,100,0,0
128373,-68.3280759382616,4,1,0,100,0,0
128428,-59.5251330381934,4,1,0,100,0,0
128484,-61.5307424430422,4,1,0,100,0,0
128650,-64.5014288561397,4,1,0,100,0,0
128734,-67.8059815507382,4,1,0,100,0,0
128775,-64.4388153417019,4,1,0,100,0,0
128818,-65.8186881330705,4,1,0,100,0,0
128859,-70.4206827486211,4,1,0,100,0,0
128901,-68.5662808284647,4,1,0,100,0,0
128942,-69.9655548373298,4,1,0,100,0,0
128984,-71.4285714285714,4,1,0,100,0,0
129067,-71.4285714285714,4,1,0,100,0,0
129151,-70.0893895137133,4,1,0,100,0,0
129171,-69.7742551284127,4,1,0,100,0,0
129234,-68.7908132261711,4,1,0,100,0,0
129317,-67.5162962204441,4,1,0,100,0,0
129338,-67.1975885354739,4,1,0,100,0,0
129400,-58.8235294117647,4,1,0,100,0,0
129456,-60.543429670505,4,1,0,100,0,0
129512,-62.3136168965456,4,1,0,100,0,0
129567,-64.1025641025641,4,1,0,100,0,0
129650,-62.6359143954408,4,1,0,100,0,0
129734,-61.4615820225351,4,1,0,100,0,0
129818,-60.3092666750911,4,1,0,100,0,0
129838,-60.0381054649072,4,1,0,100,0,0
129901,-59.191890932961,4,1,0,100,0,0
129921,-58.9257536432319,4,1,0,100,0,0
129984,-58.0952172921485,4,1,0,100,0,0
130067,-57.0188621959119,4,1,0,100,0,0
130088,-56.7497071831612,4,1,0,100,0,0
130151,-55.9498413890922,4,1,0,100,0,0
130171,-55.6982809318511,4,1,0,100,0,0
130239,-49.478007025877,4,1,0,100,0,0
130275,-52.0914668881445,4,1,0,100,0,0
130322,-54.9118664543408,4,1,0,100,0,0
130400,-52.8972821578908,4,1,0,100,0,0
130421,-52.6475828811012,4,1,0,100,0,0
130489,-47.0234176619957,4,1,0,100,0,0
130530,-49.3745235839849,4,1,0,100,0,0
130572,-51.9049102045053,4,1,0,100,0,0
130650,-50,4,1,0,100,0,0
130822,-100,4,1,0,100,0,0
131010,-99.6747698124594,4,1,0,100,0,0
131072,-100,4,1,0,100,0,0
131338,-97.5726537819505,4,1,0,100,0,0
131405,-100,4,1,0,100,0,0
131671,-93.8172500179862,4,1,0,100,0,0
131739,-100,4,1,0,100,0,0
132005,-88.8997900228085,4,1,0,100,0,0
132072,-100,4,1,0,100,0,0
132338,-83.4030631537399,4,1,0,100,0,0
132405,-100,4,1,0,100,0,0
132671,-77.7950766140211,4,1,0,100,0,0
132739,-100,4,1,0,100,0,0
133005,-72.4154259214296,4,1,0,100,0,0
133072,-100,4,1,0,100,0,0
133338,-67.5217517804376,4,1,0,100,0,0
133405,-100,4,1,0,100,0,0
133671,-63.2165894158173,4,1,0,100,0,0
133739,-100,4,1,0,100,0,0
134005,-59.5358005415536,4,1,0,100,0,0
134072,-100,4,1,0,100,0,0
134338,-56.5029099824209,4,1,0,100,0,0
134405,-100,4,1,0,100,0,0
134671,-54.0845748230779,4,1,0,100,0,0
134739,-100,4,1,0,100,0,0
135005,-52.2464344595582,4,1,0,100,0,0
135072,-100,4,1,0,100,0,0
135338,-50.9703422146479,4,1,0,100,0,0
135405,-100,4,1,0,100,0,0
135671,-50.2266965945496,4,1,0,100,0,0
135739,-100,4,1,0,100,0,0
136005,-50.0009564845385,4,1,0,100,0,0
136072,-100,4,1,0,100,0,0
136338,-50.2722872646338,4,1,0,100,0,0
136405,-100,4,1,0,100,0,0
136671,-51.0305635964637,4,1,0,100,0,0
136739,-100,4,1,0,100,0,0
137005,-52.2942468142137,4,1,0,100,0,0
137072,-100,4,1,0,100,0,0
137338,-54.0772804630342,4,1,0,100,0,0
137405,-100,4,1,0,100,0,0
137671,-56.409218387245,4,1,0,100,0,0
137739,-100,4,1,0,100,0,0
138005,-59.3268137180505,4,1,0,100,0,0
138072,-100,4,1,0,100,0,0
138338,-62.8327939098899,4,1,0,100,0,0
138405,-100,4,1,0,100,0,0
138671,-66.9361058678267,4,1,0,100,0,0
138739,-100,4,1,0,100,0,0
139005,-71.6156989719884,4,1,0,100,0,0
139072,-100,4,1,0,100,0,0
139338,-76.746421560909,4,1,0,100,0,0
139405,-100,4,1,0,100,0,0
139671,-82.1557969618073,4,1,0,100,0,0
139739,-100,4,1,0,100,0,0
140005,-87.5619462522248,4,1,0,100,0,0
140072,-100,4,1,0,100,0,0
140338,-92.5180035944824,4,1,0,100,0,0
140405,-100,4,1,0,100,0,0
140671,-96.5465673288456,4,1,0,100,0,0
140739,-100,4,1,0,100,0,0
141005,-99.1648954831329,4,1,0,100,0,0
141072,-100,4,1,0,100,0,0
141322,-100,4,1,0,100,0,0
141343,-100.497335245455,4,1,0,100,0,0
141567,-106.165117841545,4,1,0,100,0,0
141650,-92.8951686244218,4,1,0,100,0,0
141817,-112.503471616837,4,1,0,100,0,0
141984,-87.6036724198329,4,1,0,100,0,0
142067,-118.291415899897,4,1,0,100,0,0
142317,-84.4025414910118,4,1,0,100,0,0
142338,-122.945930040438,4,1,0,100,0,0
142567,-124.850826788779,4,1,0,100,0,0
142650,-83.3333333333333,4,1,0,100,0,0
142817,-124.40018582467,4,1,0,100,0,0
142984,-84.4081651958011,4,1,0,100,0,0
143067,-121.411236904777,4,1,0,100,0,0
143317,-87.61326288901,4,1,0,100,0,0
143338,-115.987407694342,4,1,0,100,0,0
143567,-110.403777922236,4,1,0,100,0,0
143650,-92.888123662987,4,1,0,100,0,0
143817,-104.055537423085,4,1,0,100,0,0
143984,-100.011780887062,4,1,0,100,0,0
144005,-99.4960877804954,4,1,0,100,0,0
144234,-94.5034341625124,4,1,0,100,0,0
144317,-108.291195475113,4,1,0,100,0,0
144484,-89.9928222855473,4,1,0,100,0,0
144650,-116.465916753275,4,1,0,100,0,0
144734,-86.6053716175836,4,1,0,100,0,0
144984,-122.670742827428,4,1,0,100,0,0
145005,-84.2712564056653,4,1,0,100,0,0
145234,-83.3997148607652,4,1,0,100,0,0
145317,-125,4,1,0,100,0,0
145484,-83.6020666116542,4,1,0,100,0,0
145650,-122.670742827428,4,1,0,100,0,0
145734,-85.0084959784917,4,1,0,100,0,0
145984,-116.465916753275,4,1,0,100,0,0
146005,-87.8860162469204,4,1,0,100,0,0
146234,-91.3881397156735,4,1,0,100,0,0
146317,-108.291195475113,4,1,0,100,0,0
146484,-96.248730827202,4,1,0,100,0,0
146650,-100.011780887062,4,1,0,100,0,0
146671,-100.485255926155,4,1,0,100,0,0
146900,-106.150030914259,4,1,0,100,0,0
146984,-92.888123662987,4,1,0,100,0,0
147150,-112.48642468106,4,1,0,100,0,0
147317,-87.61326288901,4,1,0,100,0,0
147400,-118.275073434938,4,1,0,100,0,0
147650,-84.4081651958011,4,1,0,100,0,0
147671,-122.934614035219,4,1,0,100,0,0
147900,-124.847332286568,4,1,0,100,0,0
147984,-83.3333333333333,4,1,0,100,0,0
148150,-124.53939628459,4,1,0,100,0,0
148317,-84.4025414910118,4,1,0,100,0,0
148400,-121.712195893563,4,1,0,100,0,0
148650,-87.6036724198329,4,1,0,100,0,0
148671,-116.363127044626,4,1,0,100,0,0
148900,-110.771975220677,4,1,0,100,0,0
148984,-92.8951686244218,4,1,0,100,0,0
149150,-104.368160607716,4,1,0,100,0,0
149317,-100,4,1,0,100,0,0
149338,-99.7512000080386,4,1,0,100,0,0
149567,-94.6854112255139,4,1,0,100,0,0
149650,-108.281621920858,4,1,0,100,0,0
149817,-90.1031342058282,4,1,0,100,0,0
149984,-116.482868271171,4,1,0,100,0,0
150067,-86.6599221028424,4,1,0,100,0,0
150317,-122.669049775092,4,1,0,100,0,0
150338,-84.2869213324636,4,1,0,100,0,0
150567,-83.4008237196904,4,1,0,100,0,0
150650,-125,4,1,0,100,0,0
150817,-83.6020666116542,4,1,0,100,0,0
150984,-122.692507537488,4,1,0,100,0,0
151067,-85.0084959784917,4,1,0,100,0,0
151317,-116.583456421393,4,1,0,100,0,0
151338,-87.8860162469204,4,1,0,100,0,0
151567,-91.3881397156735,4,1,0,100,0,0
151650,-108.490577448598,4,1,0,100,0,0
151817,-96.248730827202,4,1,0,100,0,0
151984,-100.234291775125,4,1,0,100,0,0
152005,-100.509042473962,4,1,0,100,0,0
152150,-96.5005782099838,4,1,0,100,0,0
152234,-106.17544009909,4,1,0,100,0,0
152317,-93.1341046243198,4,1,0,100,0,0
152484,-90.2219021665063,4,1,0,100,0,0
152505,-113.029789170709,4,1,0,100,0,0
152650,-87.815416748232,4,1,0,100,0,0
152734,-118.295987433689,4,1,0,100,0,0
152817,-85.9067005338873,4,1,0,100,0,0
152984,-84.5219227693304,4,1,0,100,0,0
153005,-122.947427733835,4,1,0,100,0,0
153150,-71.4285714285714,4,1,0,100,0,0
153192,-74.2521240356546,4,1,0,100,0,0
153234,-77.1872909332873,4,1,0,100,0,0
153275,-80.1644536057005,4,1,0,100,0,0
153317,-83.3333333333333,4,1,0,100,0,0
153338,-124.99044002036,4,1,0,100,0,0
153484,-83.6020666116542,4,1,0,100,0,0
153505,-124.241474123425,4,1,0,100,0,0
153650,-84.4017399951006,4,1,0,100,0,0
153734,-121.411236904777,4,1,0,100,0,0
153817,-85.7410783975107,4,1,0,100,0,0
153984,-87.61326288901,4,1,0,100,0,0
154005,-115.987407694342,4,1,0,100,0,0
154150,-89.9928222855473,4,1,0,100,0,0
154234,-110.403777922236,4,1,0,100,0,0
154317,-92.888123662987,4,1,0,100,0,0
154484,-96.248730827202,4,1,0,100,0,0
154505,-103.531540523739,4,1,0,100,0,0
154650,-99.9882218880702,4,1,0,100,0,0
154671,-99.5194082735121,4,1,0,100,0,0
154817,-104.055537423085,4,1,0,100,0,0
154900,-94.5235729935305,4,1,0,100,0,0
154984,-108.291195475113,4,1,0,100,0,0
155150,-112.48642468106,4,1,0,100,0,0
155171,-89.6792717183565,4,1,0,100,0,0
155317,-116.465916753275,4,1,0,100,0,0
155400,-86.6165845633596,4,1,0,100,0,0
155484,-119.947525706838,4,1,0,100,0,0
155650,-122.65717267322,4,1,0,100,0,0
155671,-84.2772774363735,4,1,0,100,0,0
155817,-99.866470337293,4,1,0,100,0,0
155858,-105.631215838302,4,1,0,100,0,0
155900,-111.728728589211,4,1,0,100,0,0
155941,-118.02041444946,4,1,0,100,0,0
155984,-124.833087921616,4,1,0,100,0,0
155984,-125,4,1,0,100,0,0
156005,-83.3375859432925,4,1,0,100,0,0
156150,-124.406849830861,4,1,0,100,0,0
156171,-83.6705398051719,4,1,0,100,0,0
156317,-122.669049775092,4,1,0,100,0,0
156400,-85.0017254723767,4,1,0,100,0,0
156484,-119.94399387984,4,1,0,100,0,0
156650,-116.482868271171,4,1,0,100,0,0
156671,-87.8762339384094,4,1,0,100,0,0
156817,-112.503471616837,4,1,0,100,0,0
156900,-91.3767513822016,4,1,0,100,0,0
156984,-108.281621920858,4,1,0,100,0,0
157150,-104.069615440385,4,1,0,100,0,0
157171,-96.6893990523539,4,1,0,100,0,0
157317,-100,4,1,0,100,0,0
157650,-100,4,1,0,100,0,0
157734,-97.906790637648,4,1,0,100,0,0
157817,-95.8815399721065,4,1,0,100,0,0
157900,-93.8981826239902,4,1,0,100,0,0
157984,-91.9326970742265,4,1,0,100,0,0
158025,-90.988348010755,4,1,0,100,0,0
158068,-90.008353252006,4,1,0,100,0,0
158150,-88.1686870008822,4,1,0,100,0,0
158234,-86.3231317899169,4,1,0,100,0,0
158317,-84.5374948696323,4,1,0,100,0,0
158401,-82.7679481123233,4,1,0,100,0,0
158484,-81.0558519348439,4,1,0,100,0,0
158567,-79.3791713184337,4,1,0,100,0,0
158650,-77.7371736745954,4,1,0,100,0,0
158734,-76.1099718772109,4,1,0,100,0,0
158817,-74.535599249993,4,1,0,100,0,0
158900,-72.9937933037,4,1,0,100,0,0
158984,-66.6666666666667,4,1,0,100,0,0
159025,-69.0650809442758,4,1,0,100,0,0
159067,-71.6114874039433,4,1,0,100,0,0
159109,-74.2517790190205,4,1,0,100,0,0
159150,-76.9230769230769,4,1,0,100,0,0
159234,-67.1051628808776,4,1,0,100,0,0
159317,-57.1428571428571,4,1,0,100,0,0
159359,-58.9138548842847,4,1,0,100,0,0
159400,-60.6956159569702,4,1,0,100,0,0
159442,-62.5767224355213,4,1,0,100,0,0
159484,-64.5161290322581,4,1,0,100,0,0
159567,-61.7071242692654,4,1,0,100,0,0
159650,-51.2820512820513,4,1,0,100,0,0
159692,-52.696877639074,4,1,0,100,0,0
159734,-54.1507378016969,4,1,0,100,0,0
159775,-55.6086633912837,4,1,0,100,0,0
159817,-57.1428571428571,4,1,0,100,0,0
159900,-56.7433118721725,4,1,0,100,0,0
159984,-55.5555555555556,4,1,0,100,0,0
160025,-57.1465145261282,4,1,0,100,0,0
160067,-58.8235294117647,4,1,0,100,0,0
160150,-57.1428571428571,4,1,0,100,0,0
160192,-58.84898863365,4,1,0,100,0,0
160234,-60.6060606060606,4,1,0,100,0,0
160317,-62.5,4,1,0,100,0,0
160359,-64.5748233618609,4,1,0,100,0,0
160401,-66.6666666666667,4,1,0,100,0,0
160484,-64.5161290322581,4,1,0,100,0,0
160525,-66.6769414022472,4,1,0,100,0,0
160567,-68.9655172413793,4,1,0,100,0,0
160650,-71.4285714285714,4,1,0,100,0,0
160692,-74.1249316661101,4,1,0,100,0,0
160734,-76.9230769230769,4,1,0,100,0,0
160817,-76.9230769230769,4,1,0,100,0,0
160900,-75.437134777423,4,1,0,100,0,0
160984,-73.9625125849511,4,1,0,100,0,0
161067,-72.5337603945214,4,1,0,100,0,0
161151,-71.1158924824276,4,1,0,100,0,0
161234,-69.742129158177,4,1,0,100,0,0
161317,-68.3949031606079,4,1,0,100,0,0
161400,-67.0737018616025,4,1,0,100,0,0
161484,-65.7625655149186,4,1,0,100,0,0
161539,-64.9179993918479,4,1,0,100,0,0
161595,-64.0692207303533,4,1,0,100,0,0
161650,-63.2464016548395,4,1,0,100,0,0
161706,-62.4194785111222,4,1,0,100,0,0
161762,-61.6033670794979,4,1,0,100,0,0
161817,-60.8122161185362,4,1,0,100,0,0
161873,-60.0171190440244,4,1,0,100,0,0
161928,-59.2463397237227,4,1,0,100,0,0
161984,-58.471715899818,4,1,0,100,0,0
162039,-57.720783663216,4,1,0,100,0,0
162095,-56.9661059165656,4,1,0,100,0,0
162151,-56.2212953003516,4,1,0,100,0,0
162192,-55.6821695921799,4,1,0,100,0,0
162234,-55.135254602141,4,1,0,100,0,0
162275,-54.6065433189198,4,1,0,100,0,0
162317,-54.0701932213202,4,1,0,100,0,0
162359,-53.5391111998468,4,1,0,100,0,0
162401,-53.0132455110094,4,1,0,100,0,0
162442,-52.5048829168017,4,1,0,100,0,0
162484,-51.9891755058342,4,1,0,100,0,0
162525,-51.4906330778786,4,1,0,100,0,0
162567,-50.9848877148093,4,1,0,100,0,0
162609,-50.4841098255692,4,1,0,100,0,0
162655,-50,4,1,0,100,0,0
162817,-83.1324300701897,4,1,0,100,0,0
162900,-82.8848933390872,4,1,0,100,0,0
162984,-72.2005078618103,4,1,0,100,0,0
163150,-81.5774209811772,4,1,0,100,0,0
163317,-77.6477113086605,4,1,0,100,0,0
163400,-79.5170288265862,4,1,0,100,0,0
163484,-78.6818601552746,4,1,0,100,0,0
163650,-81.772582288803,4,1,0,100,0,0
163671,-76.613427379947,4,1,0,100,0,0
163817,-66.6666666666667,4,1,0,100,0,0
163859,-70.5149689590769,4,1,0,100,0,0
163900,-74.4858190594742,4,1,0,100,0,0
163942,-78.7854782830536,4,1,0,100,0,0
163984,-83.3333333333333,4,1,0,100,0,0
164005,-72.403838579559,4,1,0,100,0,0
164150,-82.9378998872407,4,1,0,100,0,0
164234,-69.3138320766189,4,1,0,100,0,0
164317,-81.7793665167279,4,1,0,100,0,0
164484,-79.9626625865602,4,1,0,100,0,0
164505,-65.6225899117746,4,1,0,100,0,0
164650,-77.6552455141137,4,1,0,100,0,0
164671,-63.4042441417606,4,1,0,100,0,0
164817,-75.0023144112244,4,1,0,100,0,0
164900,-60.4552711230083,4,1,0,100,0,0
164984,-72.1877479472387,4,1,0,100,0,0
165150,-69.3797436269235,4,1,0,100,0,0
165171,-57.1928812844617,4,1,0,100,0,0
165317,-66.6666666666667,4,1,0,100,0,0
165338,-55.558388503221,4,1,0,100,0,0
165484,-64.157792747221,4,1,0,100,0,0
165567,-55.9570377820911,4,1,0,100,0,0
165650,-61.9301124162812,4,1,0,100,0,0
165817,-57.1607189316738,4,1,0,100,0,0
165984,-58.4024482798886,4,1,0,100,0,0
166067,-59.1595699043357,4,1,0,100,0,0
166150,-57.1619220972221,4,1,0,100,0,0
166317,-56.2683609940079,4,1,0,100,0,0
166338,-62.190770707463,4,1,0,100,0,0
166484,-66.6666666666667,4,1,0,100,0,0
166526,-63.6612162685029,4,1,0,100,0,0
166567,-60.8580619450185,4,1,0,100,0,0
166609,-58.1144736474565,4,1,0,100,0,0
166650,-55.5555555555556,4,1,0,100,0,0
166671,-66.9901706174365,4,1,0,100,0,0
166817,-55.7347110744362,4,1,0,100,0,0
166900,-70.7666872761726,4,1,0,100,0,0
166984,-56.2721101305341,4,1,0,100,0,0
167150,-57.1607189316738,4,1,0,100,0,0
167171,-75.3367924314909,4,1,0,100,0,0
167317,-58.4088419260067,4,1,0,100,0,0
167338,-77.9577066046506,4,1,0,100,0,0
167484,-60.0057933944357,4,1,0,100,0,0
167567,-80.9408246031846,4,1,0,100,0,0
167650,-61.9254157753246,4,1,0,100,0,0
167817,-64.165820551468,4,1,0,100,0,0
167838,-83.0271237858869,4,1,0,100,0,0
167984,-66.6745205913746,4,1,0,100,0,0
168005,-83.3269552321019,4,1,0,100,0,0
168150,-69.3703582820566,4,1,0,100,0,0
168234,-82.4453750805076,4,1,0,100,0,0
168317,-72.1941303167421,4,1,0,100,0,0
168484,-79.9626625865602,4,1,0,100,0,0
168650,-77.6439445021836,4,1,0,100,0,0
168734,-76.3514245257156,4,1,0,100,0,0
168817,-75.0023144112244,4,1,0,100,0,0
168984,-81.7804952182853,4,1,0,100,0,0
169005,-71.8302745880167,4,1,0,100,0,0
169151,-66.7558054685461,4,1,0,100,0,0
169193,-70.6092532567906,4,1,0,100,0,0
169234,-74.5854127094937,4,1,0,100,0,0
169276,-78.8908209301484,4,1,0,100,0,0
169317,-83.3333333333333,4,1,0,100,0,0
169338,-66.3383752541677,4,1,0,100,0,0
169484,-82.9334572164464,4,1,0,100,0,0
169567,-63.0077421250809,4,1,0,100,0,0
169650,-81.7804952182853,4,1,0,100,0,0
169817,-79.9650171378921,4,1,0,100,0,0
169838,-59.7789999255361,4,1,0,100,0,0
169984,-77.6439445021836,4,1,0,100,0,0
170005,-58.2262704908611,4,1,0,100,0,0
170150,-75.0074781277849,4,1,0,100,0,0
170234,-56.6678169815845,4,1,0,100,0,0
170317,-72.1941303167421,4,1,0,100,0,0
170484,-69.3703582820567,4,1,0,100,0,0
170505,-55.6907192843767,4,1,0,100,0,0
170650,-66.6745205913746,4,1,0,100,0,0
170671,-55.5583863799701,4,1,0,100,0,0
170817,-55.7345768017929,4,1,0,100,0,0
170900,-55.9567368962384,4,1,0,100,0,0
170984,-61.9254157753247,4,1,0,100,0,0
171150,-57.1595171159698,4,1,0,100,0,0
171317,-58.4088419260067,4,1,0,100,0,0
171400,-59.1568830705066,4,1,0,100,0,0
171484,-60.0024853150995,4,1,0,100,0,0
171567,-60.9214505073833,4,1,0,100,0,0
171650,-56.2721101305341,4,1,0,100,0,0
171671,-62.1858914463323,4,1,0,100,0,0
171817,-50,4,1,0,100,0,0
171900,-51.2910400939417,4,1,0,100,0,0
171984,-52.6315789473684,4,1,0,100,0,0
172067,-50,4,1,0,100,0,0
172150,-51.7799338408995,4,1,0,100,0,0
172234,-53.6458348191957,4,1,0,100,0,0
172317,-55.5555555555556,4,1,0,100,0,0
172400,-52.6315789473684,4,1,0,100,0,0
172484,-54.6357326706445,4,1,0,100,0,0
172567,-56.6909748344917,4,1,0,100,0,0
172650,-58.8235294117647,4,1,0,100,0,0
172734,-55.5555555555556,4,1,0,100,0,0
172817,-57.7710328866151,4,1,0,100,0,0
172900,-60.0748603341545,4,1,0,100,0,0
172984,-62.5,4,1,0,100,0,0
173067,-58.8235294117647,4,1,0,100,0,0
173150,-61.3193895246067,4,1,0,100,0,0
173234,-63.9531583379072,4,1,0,100,0,0
173317,-66.6666666666667,4,1,0,100,0,0
173484,-69.3797436269235,4,1,0,100,0,0
173567,-70.7767452276963,4,1,0,100,0,0
173655,-56.2678266634004,4,1,0,100,0,0
173817,-75.0023144112244,4,1,0,100,0,0
173984,-58.4088419260067,4,1,0,100,0,0
174067,-78.8609439332649,4,1,0,100,0,0
174150,-79.9626625865602,4,1,0,100,0,0
174317,-61.9254157753246,4,1,0,100,0,0
174338,-81.9639533602922,4,1,0,100,0,0
174484,-66.6666666666667,4,1,0,100,0,0
174526,-70.5388121185914,4,1,0,100,0,0
174567,-74.535599249993,4,1,0,100,0,0
174609,-78.8647894746282,4,1,0,100,0,0
174650,-83.3333333333333,4,1,0,100,0,0
174671,-83.3269600135737,4,1,0,100,0,0
174817,-69.3703582820566,4,1,0,100,0,0
174900,-82.4460289852659,4,1,0,100,0,0
174984,-72.1941303167421,4,1,0,100,0,0
175150,-74.9909497873736,4,1,0,100,0,0
175171,-79.6974541854351,4,1,0,100,0,0
175317,-77.6439445021836,4,1,0,100,0,0
175338,-77.3249384628947,4,1,0,100,0,0
175484,-79.9650171378921,4,1,0,100,0,0
175567,-73.6025186148237,4,1,0,100,0,0
175650,-81.7714484488133,4,1,0,100,0,0
175817,-82.9334572164464,4,1,0,100,0,0
175838,-69.0210270158259,4,1,0,100,0,0
175984,-66.6588145920468,4,1,0,100,0,0
176005,-66.3307251869969,4,1,0,100,0,0
176150,-64.165820551468,4,1,0,100,0,0
176234,-63.0022894416749,4,1,0,100,0,0
176317,-81.7793665167279,4,1,0,100,0,0
176484,-59.9952148570316,4,1,0,100,0,0
176650,-77.6552455141137,4,1,0,100,0,0
176734,-57.7369144117224,4,1,0,100,0,0
176817,-57.1607189316738,4,1,0,100,0,0
176900,-56.6723306523278,4,1,0,100,0,0
176984,-72.1877479472387,4,1,0,100,0,0
177005,-56.1808376037769,4,1,0,100,0,0
177151,-66.5939233259078,4,1,0,100,0,0
177193,-63.6093203739969,4,1,0,100,0,0
177234,-60.8248502422725,4,1,0,100,0,0
177276,-58.0988053042954,4,1,0,100,0,0
177317,-55.5555555555556,4,1,0,100,0,0
177338,-55.558388503221,4,1,0,100,0,0
177484,-64.157792747221,4,1,0,100,0,0
177567,-55.9570377820911,4,1,0,100,0,0
177650,-61.9301124162812,4,1,0,100,0,0
177817,-59.9985188590877,4,1,0,100,0,0
177838,-57.298224518383,4,1,0,100,0,0
177984,-58.4024482798886,4,1,0,100,0,0
178005,-58.5906774979469,4,1,0,100,0,0
178150,-57.1619220972221,4,1,0,100,0,0
178234,-60.9254264771157,4,1,0,100,0,0
178317,-56.2683609940079,4,1,0,100,0,0
178484,-55.7327047682923,4,1,0,100,0,0
178505,-64.4676263194949,4,1,0,100,0,0
178650,-66.6588145920468,4,1,0,100,0,0
178671,-66.9901706174365,4,1,0,100,0,0
178817,-69.3703582820566,4,1,0,100,0,0
178900,-70.7666872761726,4,1,0,100,0,0
178984,-56.2721101305341,4,1,0,100,0,0
179150,-74.9909497873736,4,1,0,100,0,0
179317,-58.4088419260067,4,1,0,100,0,0
179400,-78.8500489566255,4,1,0,100,0,0
179484,-60.0057933944357,4,1,0,100,0,0
179650,-61.9254157753246,4,1,0,100,0,0
179671,-81.9564093568123,4,1,0,100,0,0
179817,-69.7241904366554,4,1,0,100,0,0
179859,-72.9219409807048,4,1,0,100,0,0
179900,-76.1849654691112,4,1,0,100,0,0
179942,-79.6790256116748,4,1,0,100,0,0
179984,-83.3333333333333,4,1,0,100,0,0
180005,-83.3269552321019,4,1,0,100,0,0
180150,-69.3703582820566,4,1,0,100,0,0
180234,-82.4453750805076,4,1,0,100,0,0
180317,-72.1941303167421,4,1,0,100,0,0
180484,-75.0074781277849,4,1,0,100,0,0
180505,-79.6949276617673,4,1,0,100,0,0
180650,-77.6439445021836,4,1,0,100,0,0
180671,-77.3363001905144,4,1,0,100,0,0
180817,-79.9650171378921,4,1,0,100,0,0
180900,-73.6136021072514,4,1,0,100,0,0
180984,-81.7804952182853,4,1,0,100,0,0
181150,-82.9334572164464,4,1,0,100,0,0
181171,-69.0302302841336,4,1,0,100,0,0
181322,-62.5,4,1,0,100,0,0
181373,-63.9193598428042,4,1,0,100,0,0
181428,-65.3447448218388,4,1,0,100,0,0
181484,-66.8287081296533,4,1,0,100,0,0
181539,-68.3189708132996,4,1,0,100,0,0
181595,-69.8704780720854,4,1,0,100,0,0
181655,-58.8235294117647,4,1,0,100,0,0
181706,-60.0710105784754,4,1,0,100,0,0
181762,-61.3449473026281,4,1,0,100,0,0
181817,-62.622429108515,4,1,0,100,0,0
181873,-63.9504742242662,4,1,0,100,0,0
181928,-65.2822149933358,4,1,0,100,0,0
181989,-55.5555555555556,4,1,0,100,0,0
182039,-56.6468949937824,4,1,0,100,0,0
182095,-57.7801061958862,4,1,0,100,0,0
182150,-58.9151449513433,4,1,0,100,0,0
182206,-60.093732096142,4,1,0,100,0,0
182262,-61.2958966701235,4,1,0,100,0,0
182322,-52.6315789473684,4,1,0,100,0,0
182373,-53.6252967549936,4,1,0,100,0,0
182428,-54.619530022787,4,1,0,100,0,0
182484,-55.6507816157145,4,1,0,100,0,0
182539,-56.6825681382926,4,1,0,100,0,0
182595,-57.7527712077706,4,1,0,100,0,0
182655,-50,4,1,0,100,0,0
182706,-51.6996116999989,4,1,0,100,0,0
182762,-53.4861495178655,4,1,0,100,0,0
182817,-55.2979180089206,4,1,0,100,0,0
182873,-57.165054380773,4,1,0,100,0,0
182928,-58.9782104193666,4,1,0,100,0,0
182989,-60.7522141410483,4,1,0,100,0,0
183039,-62.3681275588232,4,1,0,100,0,0
183095,-63.8247146576466,4,1,0,100,0,0
183150,-65.0121944295896,4,1,0,100,0,0
183206,-65.9201721151932,4,1,0,100,0,0
183262,-66.4810347189541,4,1,0,100,0,0
183322,-66.6666666666667,4,1,0,100,0,0
183373,-66.4742526068398,4,1,0,100,0,0
183428,-65.9201721151932,4,1,0,100,0,0
183484,-65.0121944295896,4,1,0,100,0,0
183539,-63.8247146576466,4,1,0,100,0,0
183595,-62.3681275588232,4,1,0,100,0,0
183655,-60.7522141410484,4,1,0,100,0,0
183706,-58.9782104193666,4,1,0,100,0,0
183762,-57.1317574408405,4,1,0,100,0,0
183817,-55.2979180089206,4,1,0,100,0,0
183873,-53.4536381804612,4,1,0,100,0,0
183928,-51.6996116999989,4,1,0,100,0,0
183984,-50,4,1,0,100,0,0
184005,-50.0017002128414,4,1,0,100,0,0
184234,-50.2413433310679,4,1,0,100,0,0
184255,-50.283671155623,4,1,0,100,0,0
184484,-50.9699643791051,4,1,0,100,0,0
184505,-51.0537178041544,4,1,0,100,0,0
184734,-52.1992917176782,4,1,0,100,0,0
184755,-52.3259716311985,4,1,0,100,0,0
184984,-53.9504286779636,4,1,0,100,0,0
185005,-54.1220933227752,4,1,0,100,0,0
185234,-56.2497677988906,4,1,0,100,0,0
185255,-56.4687563384438,4,1,0,100,0,0
185317,-57.1391560310291,4,1,0,100,0,0
185484,-59.1246576863874,4,1,0,100,0,0
185505,-59.3931059001222,4,1,0,100,0,0
185734,-62.5960394990644,4,1,0,100,0,0
185755,-62.9150807786848,4,1,0,100,0,0
185817,-63.8817268687196,4,1,0,100,0,0
185989,-66.6666666666667,4,1,0,100,0,0
186039,-69.6444320589256,4,1,0,100,0,0
186095,-72.7272727272727,4,1,0,100,0,0
186150,-75.5492011470679,4,1,0,100,0,0
186234,-78.8073326579562,4,1,0,100,0,0
186317,-80,4,1,0,100,0,0
186338,-79.9218735260861,4,1,0,100,0,0
186400,-78.8108081202525,4,1,0,100,0,0
186421,-78.1617373234508,4,1,0,100,0,0
186484,-75.5611406470203,4,1,0,100,0,0
186567,-71.2152728354596,4,1,0,100,0,0
186588,-70.0543039318605,4,1,0,100,0,0
186650,-66.6928437724101,4,1,0,100,0,0
186671,-65.6124308992547,4,1,0,100,0,0
186734,-62.6642262526028,4,1,0,100,0,0
186817,-59.6456422547339,4,1,0,100,0,0
186900,-57.7805146599121,4,1,0,100,0,0
186984,-57.1428571428571,4,1,0,100,0,0
187067,-57.7673203943631,4,1,0,100,0,0
187150,-59.6234253461367,4,1,0,100,0,0
187234,-62.6802678914404,4,1,0,100,0,0
187317,-66.6666666666667,4,1,0,100,0,0
187400,-71.1945657871389,4,1,0,100,0,0
187484,-75.5968260046406,4,1,0,100,0,0
187505,-76.5559576699348,4,1,0,100,0,0
187539,-77.912345007483,4,1,0,100,0,0
187595,-79.4680974162419,4,1,0,100,0,0
187650,-80,4,1,0,100,0,0
187734,-74.1692933294717,4,1,0,100,0,0
187817,-69.3667126841313,4,1,0,100,0,0
187873,-66.63647916667,4,1,0,100,0,0
187928,-64.3310814236063,4,1,0,100,0,0
187984,-62.3453267964216,4,1,0,100,0,0
188067,-60.0306193958974,4,1,0,100,0,0
188088,-59.5580387867734,4,1,0,100,0,0
188150,-58.4171169604068,4,1,0,100,0,0
188171,-58.1147066805661,4,1,0,100,0,0
188234,-57.455461007231,4,1,0,100,0,0
188317,-57.1428571428571,4,1,0,100,0,0
188400,-60.5001685141996,4,1,0,100,0,0
188484,-64.1689399605676,4,1,0,100,0,0
188567,-67.9192203247779,4,1,0,100,0,0
188588,-68.8647945091339,4,1,0,100,0,0
188650,-71.5889733480669,4,1,0,100,0,0
188706,-73.888909963249,4,1,0,100,0,0
188762,-75.9421854496518,4,1,0,100,0,0
188817,-77.6293266184877,4,1,0,100,0,0
188838,-78.169876310286,4,1,0,100,0,0
188900,-79.3807371354369,4,1,0,100,0,0
188984,-80,4,1,0,100,0,0
189067,-74.2249437054032,4,1,0,100,0,0
189150,-69.4060383943121,4,1,0,100,0,0
189234,-65.4437326640281,4,1,0,100,0,0
189317,-62.3615032630766,4,1,0,100,0,0
189338,-61.7046266769543,4,1,0,100,0,0
189400,-60.039472068649,4,1,0,100,0,0
189484,-58.4055828473549,4,1,0,100,0,0
189567,-57.4564025986567,4,1,0,100,0,0
189650,-57.1428571428571,4,1,0,100,0,0
189734,-60.5424674204513,4,1,0,100,0,0
189817,-64.1689399605676,4,1,0,100,0,0
189900,-67.9192203247779,4,1,0,100,0,0
189984,-71.6316706235567,4,1,0,100,0,0
190067,-74.9522120653237,4,1,0,100,0,0
190150,-58.8235294117647,4,1,0,100,0,0
190206,-63.5510348496881,4,1,0,100,0,0
190262,-68.6584785179266,4,1,0,100,0,0
190317,-74.0740740740741,4,1,0,100,0,0
190400,-74.2328751354521,4,1,0,100,0,0
190484,-69.3667126841313,4,1,0,100,0,0
190567,-65.4594751722275,4,1,0,100,0,0
190650,-62.377707200381,4,1,0,100,0,0
190734,-60.0306193958974,4,1,0,100,0,0
190817,-58.4171169604068,4,1,0,100,0,0
190838,-58.1147066805661,4,1,0,100,0,0
190900,-57.463056604732,4,1,0,100,0,0
190984,-57.1428571428571,4,1,0,100,0,0
191067,-60.505437855537,4,1,0,100,0,0
191150,-64.1353236257953,4,1,0,100,0,0
191171,-65.0806235395674,4,1,0,100,0,0
191234,-67.9361764704781,4,1,0,100,0,0
191317,-71.6103281904093,4,1,0,100,0,0
191400,-74.938416049458,4,1,0,100,0,0
191484,-77.649704327078,4,1,0,100,0,0
191505,-78.1888062137779,4,1,0,100,0,0
191567,-79.3934386578379,4,1,0,100,0,0
191650,-80,4,1,0,100,0,0
191706,-76.0023091953592,4,1,0,100,0,0
191762,-72.4450219540311,4,1,0,100,0,0
191817,-69.3667126841313,4,1,0,100,0,0
191838,-68.2962197663067,4,1,0,100,0,0
191900,-65.4594751722275,4,1,0,100,0,0
191984,-62.3453267964216,4,1,0,100,0,0
192005,-61.6905406621933,4,1,0,100,0,0
192067,-60.0306193958974,4,1,0,100,0,0
192150,-58.4171169604068,4,1,0,100,0,0
192234,-57.455461007231,4,1,0,100,0,0
192275,-57.2227675578599,4,1,0,100,0,0
192317,-57.1428571428571,4,1,0,100,0,0
192400,-57.765453109489,4,1,0,100,0,0
192442,-58.5511535488568,4,1,0,100,0,0
192484,-59.6456422547339,4,1,0,100,0,0
192539,-61.5255974551694,4,1,0,100,0,0
192595,-63.9136920081609,4,1,0,100,0,0
192650,-66.6405101020179,4,1,0,100,0,0
192734,-71.2152728354596,4,1,0,100,0,0
192817,-75.5611406470203,4,1,0,100,0,0
192838,-76.5217827395615,4,1,0,100,0,0
192900,-78.7827901139857,4,1,0,100,0,0
192984,-80,4,1,0,100,0,0
193067,-77.649704327078,4,1,0,100,0,0
193150,-71.6530646193918,4,1,0,100,0,0
193234,-64.1353236257953,4,1,0,100,0,0
193317,-57.1428571428571,4,1,0,100,0,0
193338,-57.1628260274773,4,1,0,100,0,0
193373,-57.2849843916791,4,1,0,100,0,0
193428,-57.7029493519601,4,1,0,100,0,0
193484,-58.4171169604068,4,1,0,100,0,0
193539,-59.4103350811831,4,1,0,100,0,0
193595,-60.7305793705529,4,1,0,100,0,0
193650,-62.3453267964216,4,1,0,100,0,0
193706,-64.3310814236063,4,1,0,100,0,0
193762,-66.6817809554671,4,1,0,100,0,0
193817,-69.3667126841313,4,1,0,100,0,0
193900,-55.5555555555556,4,1,0,100,0,0
193921,-56.0679967715301,4,1,0,100,0,0
193984,-57.6338555858478,4,1,0,100,0,0
194067,-59.7637678296501,4,1,0,100,0,0
194088,-60.3150253510912,4,1,0,100,0,0
194150,-61.9723929431742,4,1,0,100,0,0
194171,-62.5440226943139,4,1,0,100,0,0
194206,-63.5084800108177,4,1,0,100,0,0
194262,-65.0826415075307,4,1,0,100,0,0
194317,-66.6666666666667,4,1,0,100,0,0
194400,-64.0185286879043,4,1,0,100,0,0
194421,-62.7031691035923,4,1,0,100,0,0
194484,-58.9170371583032,4,1,0,100,0,0
194525,-56.5767305028774,4,1,0,100,0,0
194567,-54.2757022793364,4,1,0,100,0,0
194609,-52.0682590126932,4,1,0,100,0,0
194650,-50,4,1,0,100,0,0
194671,-50.0076428363012,4,1,0,100,0,0
194734,-50.1221912142574,4,1,0,100,0,0
194817,-50.4817596367726,4,1,0,100,0,0
194900,-51.0749154991437,4,1,0,100,0,0
194984,-51.9057611094927,4,1,0,100,0,0
195067,-52.9427888978261,4,1,0,100,0,0
195150,-54.176850248534,4,1,0,100,0,0
195234,-55.6001585911763,4,1,0,100,0,0
195317,-57.1428571428571,4,1,0,100,0,0
195400,-58.7736071427421,4,1,0,100,0,0
195484,-60.4524317787355,4,1,0,100,0,0
195567,-62.0667492954036,4,1,0,100,0,0
195650,-63.555353193254,4,1,0,100,0,0
195671,-63.9019205793257,4,1,0,100,0,0
195734,-64.846985921026,4,1,0,100,0,0
195817,-50,4,1,0,100,0,0
195859,-53.7516403846462,4,1,0,100,0,0
195900,-57.6853197894844,4,1,0,100,0,0
195942,-62.0136112959536,4,1,0,100,0,0
195984,-66.6666666666667,4,1,0,100,0,0
196005,-66.653063868466,4,1,0,100,0,0
196067,-66.4554347160379,4,1,0,100,0,0
196150,-65.8375764674334,4,1,0,100,0,0
196234,-64.8444066475634,4,1,0,100,0,0
196317,-63.5679745799096,4,1,0,100,0,0
196400,-62.0797204490844,4,1,0,100,0,0
196484,-60.4449769655094,4,1,0,100,0,0
196505,-60.0260903464898,4,1,0,100,0,0
196567,-58.7848326442501,4,1,0,100,0,0
196650,-57.1524782855194,4,1,0,100,0,0
196671,-56.7513114288364,4,1,0,100,0,0
196734,-55.5901163248741,4,1,0,100,0,0
196817,-54.1828390274995,4,1,0,100,0,0
196901,-52.9333546759517,4,1,0,100,0,0
196984,-51.8973456609156,4,1,0,100,0,0
197067,-51.0765156612954,4,1,0,100,0,0
197151,-50.476738798026,4,1,0,100,0,0
197172,-50.3640368971011,4,1,0,100,0,0
197234,-50.1194804721751,4,1,0,100,0,0
197317,-50,4,1,0,100,0,0
197338,-50.0076543071377,4,1,0,100,0,0
197400,-50.1194804721751,4,1,0,100,0,0
197484,-50.4824802568646,4,1,0,100,0,0
197567,-51.0765156612954,4,1,0,100,0,0
197650,-51.8973456609156,4,1,0,100,0,0
197734,-52.947083543773,4,1,0,100,0,0
197817,-54.1828390274995,4,1,0,100,0,0
197900,-55.5901163248741,4,1,0,100,0,0
197984,-57.1524782855194,4,1,0,100,0,0
198005,-57.5593331979121,4,1,0,100,0,0
198067,-58.7848326442501,4,1,0,100,0,0
198150,-60.4449769655094,4,1,0,100,0,0
198234,-62.0797204490844,4,1,0,100,0,0
198317,-63.5679745799096,4,1,0,100,0,0
198400,-64.8444066475634,4,1,0,100,0,0
198484,-65.8375764674334,4,1,0,100,0,0
198567,-58.8235294117647,4,1,0,100,0,0
198609,-62.6696639019051,4,1,0,100,0,0
198650,-66.6666666666667,4,1,0,100,0,0
198734,-66.4506695125321,4,1,0,100,0,0
198755,-66.3303998717341,4,1,0,100,0,0
198817,-65.8290367827186,4,1,0,100,0,0
198838,-65.6122755024927,4,1,0,100,0,0
198900,-64.846985921026,4,1,0,100,0,0
198984,-63.555353193254,4,1,0,100,0,0
199067,-62.0667492954036,4,1,0,100,0,0
199150,-60.4524317787355,4,1,0,100,0,0
199234,-58.7736071427421,4,1,0,100,0,0
199255,-58.355763330541,4,1,0,100,0,0
199317,-57.1428571428571,4,1,0,100,0,0
199373,-56.0891897308281,4,1,0,100,0,0
199428,-55.1082609625038,4,1,0,100,0,0
199484,-54.176850248534,4,1,0,100,0,0
199539,-53.3381692479268,4,1,0,100,0,0
199595,-52.5698984503331,4,1,0,100,0,0
199650,-55.5555555555556,4,1,0,100,0,0
199692,-54.824358532797,4,1,0,100,0,0
199734,-54.1027851935882,4,1,0,100,0,0
199775,-53.4075536656697,4,1,0,100,0,0
199817,-52.704627669473,4,1,0,100,0,0
199859,-52.0109532663977,4,1,0,100,0,0
199900,-51.3426021939251,4,1,0,100,0,0
199942,-50.6668541523574,4,1,0,100,0,0
199984,-50,4,1,0,100,0,0
200005,-50.3112454548295,4,1,0,100,0,0
200067,-51.252712955889,4,1,0,100,0,0
200150,-52.5665806319538,4,1,0,100,0,0
200234,-53.9597528387166,4,1,0,100,0,0
200317,-55.4000000875627,4,1,0,100,0,0
200400,-56.9041418674043,4,1,0,100,0,0
200484,-58.4916804628211,4,1,0,100,0,0
200567,-60.1245480605679,4,1,0,100,0,0
200650,-61.8204098853764,4,1,0,100,0,0
200734,-63.599272011481,4,1,0,100,0,0
200817,-65.4164185890405,4,1,0,100,0,0
200838,-65.8851791755133,4,1,0,100,0,0
200900,-67.2893908458306,4,1,0,100,0,0
200984,-69.2373431277663,4,1,0,100,0,0
201067,-71.2083203388435,4,1,0,100,0,0
201150,-73.2183668554664,4,1,0,100,0,0
201234,-75.2839354409772,4,1,0,100,0,0
201317,-77.3459080339014,4,1,0,100,0,0
201400,-79.4172339773858,4,1,0,100,0,0
201484,-81.5095970390682,4,1,0,100,0,0
201505,-82.0303178339431,4,1,0,100,0,0
201567,-83.5582070889351,4,1,0,100,0,0
201650,-85.571584219285,4,1,0,100,0,0
201734,-87.5550253120729,4,1,0,100,0,0
201817,-89.4419166140463,4,1,0,100,0,0
201838,-89.9054326837584,4,1,0,100,0,0
201900,-91.2360522044867,4,1,0,100,0,0
201921,-91.6728212938908,4,1,0,100,0,0
201984,-86.3259668508287,4,1,0,100,0,0
202025,-90.2629686502735,4,1,0,100,0,0
202067,-94.4822373393802,4,1,0,100,0,0
202150,-95.8698275326439,4,1,0,100,0,0
202171,-96.1943783360744,4,1,0,100,0,0
202234,-82.5900231252065,4,1,0,100,0,0
202275,-86.356138914172,4,1,0,100,0,0
202317,-90.3922459327851,4,1,0,100,0,0
202359,-94.6169922313674,4,1,0,100,0,0
202400,-98.9315393747527,4,1,0,100,0,0
202484,-99.5243486307053,4,1,0,100,0,0
202505,-99.6366039367123,4,1,0,100,0,0
202567,-99.8805901373959,4,1,0,100,0,0
202650,-100,4,1,0,100,0,0
202671,-98.9041190978781,4,1,0,100,0,0
202706,-97.104273763191,4,1,0,100,0,0
202762,-94.2923998307675,4,1,0,100,0,0
202817,-91.6100078444576,4,1,0,100,0,0
202873,-88.9572328117629,4,1,0,100,0,0
202928,-86.4266134951813,4,1,0,100,0,0
202984,-83.9239353726159,4,1,0,100,0,0
203039,-81.5365012622621,4,1,0,100,0,0
203095,-79.1754274026347,4,1,0,100,0,0
203150,-86.9565217391304,4,1,0,100,0,0
203171,-85.9915220561914,4,1,0,100,0,0
203206,-84.4069284650554,4,1,0,100,0,0
203262,-81.9320900884072,4,1,0,100,0,0
203317,-79.5720886498919,4,1,0,100,0,0
203373,-77.2390093365944,4,1,0,100,0,0
203428,-75.0141890867123,4,1,0,100,0,0
203484,-72.814748859222,4,1,0,100,0,0
203539,-70.7173666019469,4,1,0,100,0,0
203595,-68.6439105960877,4,1,0,100,0,0
203650,-76.9230769230769,4,1,0,100,0,0
203671,-76.3991867216682,4,1,0,100,0,0
203706,-75.5339532508197,4,1,0,100,0,0
203762,-74.1699152180611,4,1,0,100,0,0
203817,-72.8542143491903,4,1,0,100,0,0
203873,-71.5385686701002,4,1,0,100,0,0
203928,-70.2695452839968,4,1,0,100,0,0
203984,-69.000575129691,4,1,0,100,0,0
204039,-67.7765732364191,4,1,0,100,0,0
204095,-66.5526226864257,4,1,0,100,0,0
204150,-65.3720450460613,4,1,0,100,0,0
204206,-64.1915169274558,4,1,0,100,0,0
204262,-63.0323075030694,4,1,0,100,0,0
204317,-61.9141767689988,4,1,0,100,0,0
204373,-60.796092937223,4,1,0,100,0,0
204428,-59.7176304357319,4,1,0,100,0,0
204484,-58.6392131725699,4,1,0,100,0,0
204539,-57.5990115828253,4,1,0,100,0,0
204595,-56.5588536264771,4,1,0,100,0,0
204650,-66.6666666666667,4,1,0,100,0,0
204671,-66.0655625762465,4,1,0,100,0,0
204706,-65.0757424788855,4,1,0,100,0,0
204762,-63.5227838876733,4,1,0,100,0,0
204817,-62.0336346872313,4,1,0,100,0,0
204873,-60.5532725390328,4,1,0,100,0,0
204928,-59.1337368721909,4,1,0,100,0,0
204984,-57.722577487633,4,1,0,100,0,0
205025,-56.710806435979,4,1,0,100,0,0
205067,-55.6927440010058,4,1,0,100,0,0
205109,-54.6929576440261,4,1,0,100,0,0
205150,-53.7342902788098,4,1,0,100,0,0
205192,-52.7696617390171,4,1,0,100,0,0
205234,-51.8223500413183,4,1,0,100,0,0
205275,-50.9139991692229,4,1,0,100,0,0
205317,-50,4,1,0,100,0,0
205489,-66.6666666666667,4,1,0,100,0,0
205567,-67.7340646738814,4,1,0,100,0,0
205650,-53.763440860215,4,1,0,100,0,0
205692,-55.9223723990201,4,1,0,100,0,0
205734,-58.1679982660652,4,1,0,100,0,0
205775,-60.447110048456,4,1,0,100,0,0
205817,-62.8744318534821,4,1,0,100,0,0
205859,-65.3992255002627,4,1,0,100,0,0
205900,-67.9616679057087,4,1,0,100,0,0
205942,-70.6907452475574,4,1,0,100,0,0
205984,-73.5294117647059,4,1,0,100,0,0
206150,-75.728986501583,4,1,0,100,0,0
206317,-78.1883506779152,4,1,0,100,0,0
206489,-57.1428571428571,4,1,0,100,0,0
206650,-66.6666666666667,4,1,0,100,0,0
206817,-68.5552397709973,4,1,0,100,0,0
206989,-57.1428571428571,4,1,0,100,0,0
207150,-72.4822780373633,4,1,0,100,0,0
207322,-57.1428571428571,4,1,0,100,0,0
207484,-76.6470881708735,4,1,0,100,0,0
207567,-73.0460189919649,4,1,0,100,0,0
207609,-75.9042178768701,4,1,0,100,0,0
207650,-78.8022064617809,4,1,0,100,0,0
207822,-57.1428571428571,4,1,0,100,0,0
207989,-66.6666666666667,4,1,0,100,0,0
208067,-58.8235294117647,4,1,0,100,0,0
208150,-62.5989663791124,4,1,0,100,0,0
208234,-66.6666666666667,4,1,0,100,0,0
208317,-58.8235294117647,4,1,0,100,0,0
208400,-62.5989663791124,4,1,0,100,0,0
208484,-66.6666666666667,4,1,0,100,0,0
208567,-58.8235294117647,4,1,0,100,0,0
208650,-66.6666666666667,4,1,0,100,0,0
208734,-58.8235294117647,4,1,0,100,0,0
208817,-62.622429108515,4,1,0,100,0,0
208900,-66.6666666666667,4,1,0,100,0,0
208984,-58.8235294117647,4,1,0,100,0,0
209067,-62.622429108515,4,1,0,100,0,0
209150,-66.6666666666667,4,1,0,100,0,0
209234,-58.8235294117647,4,1,0,100,0,0
209317,-66.6666666666667,4,1,0,100,0,0
209400,-58.8235294117647,4,1,0,100,0,0
209484,-62.6459006319872,4,1,0,100,0,0
209567,-66.6666666666667,4,1,0,100,0,0
209650,-58.8235294117647,4,1,0,100,0,0
209734,-62.6459006319872,4,1,0,100,0,0
209817,-66.6666666666667,4,1,0,100,0,0
209900,-58.8235294117647,4,1,0,100,0,0
209984,-66.6666666666667,4,1,0,100,0,0
210039,-50.3232443083924,4,1,0,100,0,0
210095,-51.6372544549695,4,1,0,100,0,0
210150,-52.9611920524406,4,1,0,100,0,0
210206,-54.3440826964788,4,1,0,100,0,0
210262,-55.7630825453754,4,1,0,100,0,0
210317,-57.1928030506956,4,1,0,100,0,0
210373,-58.6861869640866,4,1,0,100,0,0
210428,-60.1908535114092,4,1,0,100,0,0
210484,-61.7625207067997,4,1,0,100,0,0
210539,-63.3460619725274,4,1,0,100,0,0
210595,-65.0001160646583,4,1,0,100,0,0
210650,-66.6666666666667,4,1,0,100,0,0
210817,-66.6666666666667,4,1,0,100,0,0
210984,-55.5555555555556,4,1,0,100,0,0
211025,-57.3014620087338,4,1,0,100,0,0
211067,-59.1468570439191,4,1,0,100,0,0
211109,-61.0516830729484,4,1,0,100,0,0
211150,-62.9703125671285,4,1,0,100,0,0
211192,-64.998273078114,4,1,0,100,0,0
211234,-67.0915441087151,4,1,0,100,0,0
211275,-69.1999841853509,4,1,0,100,0,0
211317,-71.4285714285714,4,1,0,100,0,0
211484,-71.8171605407715,4,1,0,100,0,0
211572,-57.1428571428571,4,1,0,100,0,0
211650,-73.1596739616963,4,1,0,100,0,0
211822,-57.1428571428571,4,1,0,100,0,0
212234,-78.0853363164296,4,1,0,100,0,0
212400,-79.5450238227702,4,1,0,100,0,0
212489,-57.1428571428571,4,1,0,100,0,0
212817,-83.3333333333333,4,1,0,100,0,0
212989,-66.6666666666667,4,1,0,100,0,0
213067,-58.8235294117647,4,1,0,100,0,0
213150,-60.0584957621497,4,1,0,100,0,0
213234,-61.334741301037,4,1,0,100,0,0
213317,-62.622429108515,4,1,0,100,0,0
213400,-63.9371511848976,4,1,0,100,0,0
213484,-65.295818313226,4,1,0,100,0,0
213567,-66.6666666666667,4,1,0,100,0,0
213650,-58.8235294117647,4,1,0,100,0,0
213734,-62.6459006319872,4,1,0,100,0,0
213817,-66.6666666666667,4,1,0,100,0,0
213900,-58.8235294117647,4,1,0,100,0,0
213984,-66.6666666666667,4,1,0,100,0,0
214067,-58.8235294117647,4,1,0,100,0,0
214150,-60.3073811243652,4,1,0,100,0,0
214234,-61.8472244540576,4,1,0,100,0,0
214317,-63.4073503227952,4,1,0,100,0,0
214400,-65.0068311140503,4,1,0,100,0,0
214484,-66.6666666666667,4,1,0,100,0,0
214567,-50,4,1,0,100,0,0
214650,-44.6428571428571,4,1,0,100,0,0
214706,-46.1397893287232,4,1,0,100,0,0
214762,-47.6869155682968,4,1,0,100,0,0
214817,-49.2569003899438,4,1,0,100,0,0
214873,-50.9085473563052,4,1,0,100,0,0
214928,-52.5845971844185,4,1,0,100,0,0
214984,-54.3478260869565,4,1,0,100,0,0
215067,-55.3421026963754,4,1,0,100,0,0
215150,-56.282564028973,4,1,0,100,0,0
215234,-57.2506291347992,4,1,0,100,0,0
215317,-50,4,1,0,100,0,0
215373,-51.9119309764142,4,1,0,100,0,0
215428,-53.8608672507971,4,1,0,100,0,0
215484,-55.9204324610638,4,1,0,100,0,0
215539,-58.0198604201597,4,1,0,100,0,0
215595,-60.2384597878504,4,1,0,100,0,0
215650,-62.5,4,1,0,100,0,0
215734,-63.3674039402031,4,1,0,100,0,0
215817,-64.4442439995665,4,1,0,100,0,0
215900,-65.5393834438083,4,1,0,100,0,0
215984,-66.6666666666667,4,1,0,100,0,0
216150,-67.5994088027441,4,1,0,100,0,0
216322,-50,4,1,0,100,0,0
216484,-69.5158619634977,4,1,0,100,0,0
216655,-50,4,1,0,100,0,0
216817,-71.4806636880766,4,1,0,100,0,0
216984,-72.4868259679209,4,1,0,100,0,0
217155,-50,4,1,0,100,0,0
217317,-74.535599249993,4,1,0,100,0,0
217484,-75.584762822371,4,1,0,100,0,0
217655,-50,4,1,0,100,0,0
217817,-77.7210964324364,4,1,0,100,0,0
217989,-50,4,1,0,100,0,0
218150,-62.5,4,1,0,100,0,0
218192,-67.1895504808077,4,1,0,100,0,0
218234,-72.2309711010082,4,1,0,100,0,0
218275,-77.5170141199421,4,1,0,100,0,0
218317,-83.3333333333333,4,1,0,100,0,0
218655,-66.6666666666667,4,1,0,100,0,0
218734,-55.5555555555556,4,1,0,100,0,0
218817,-60.8580619450185,4,1,0,100,0,0
218900,-66.6666666666667,4,1,0,100,0,0
218984,-55.5555555555556,4,1,0,100,0,0
219067,-60.8580619450185,4,1,0,100,0,0
219150,-66.6666666666667,4,1,0,100,0,0
219234,-55.5555555555556,4,1,0,100,0,0
219317,-66.6666666666667,4,1,0,100,0,0
219400,-55.5555555555556,4,1,0,100,0,0
219484,-60.8912917820828,4,1,0,100,0,0
219567,-66.6666666666667,4,1,0,100,0,0
219650,-55.5555555555556,4,1,0,100,0,0
219734,-60.8912917820828,4,1,0,100,0,0
219817,-66.6666666666667,4,1,0,100,0,0
219900,-55.5555555555556,4,1,0,100,0,0
219984,-66.6666666666667,4,1,0,100,0,0
220067,-55.5555555555556,4,1,0,100,0,0
220150,-60.8248502422725,4,1,0,100,0,0
220234,-66.6666666666667,4,1,0,100,0,0
220317,-55.5555555555556,4,1,0,100,0,0
220400,-60.8248502422725,4,1,0,100,0,0
220484,-66.6666666666667,4,1,0,100,0,0
220567,-55.5555555555556,4,1,0,100,0,0
220650,-66.6666666666667,4,1,0,100,0,0
220706,-56.0433201388884,4,1,0,100,0,0
220762,-58.0375806872146,4,1,0,100,0,0
220817,-60.0652897274627,4,1,0,100,0,0
220873,-62.202669121303,4,1,0,100,0,0
220928,-64.3758974504537,4,1,0,100,0,0
220984,-66.6666666666667,4,1,0,100,0,0
221039,-56.0433201388884,4,1,0,100,0,0
221095,-58.0375806872146,4,1,0,100,0,0
221150,-60.0652897274627,4,1,0,100,0,0
221206,-62.202669121303,4,1,0,100,0,0
221262,-64.4161055972609,4,1,0,100,0,0
221317,-66.6666666666667,4,1,0,100,0,0
221484,-67.6047127735317,4,1,0,100,0,0
221655,-55.5555555555556,4,1,0,100,0,0
221817,-69.514771147022,4,1,0,100,0,0
221989,-55.5555555555556,4,1,0,100,0,0
222150,-71.4787950332771,4,1,0,100,0,0
222239,-55.5555555555556,4,1,0,100,0,0
222400,-72.9896701288525,4,1,0,100,0,0
222489,-55.5555555555556,4,1,0,100,0,0
222817,-75.5812047361222,4,1,0,100,0,0
222905,-55.5555555555556,4,1,0,100,0,0
223067,-77.1787940614071,4,1,0,100,0,0
223155,-55.5555555555556,4,1,0,100,0,0
223484,-79.9190656012618,4,1,0,100,0,0
223567,-80.4759930987278,4,1,0,100,0,0
223655,-55.5555555555556,4,1,0,100,0,0
223817,-55.5555555555556,4,1,0,100,0,0
223873,-59.0580754028526,4,1,0,100,0,0
223928,-62.7129089195617,4,1,0,100,0,0
223989,-66.6666666666667,4,1,0,100,0,0
224067,-55.5555555555556,4,1,0,100,0,0
224150,-60.8248502422725,4,1,0,100,0,0
224234,-66.6666666666667,4,1,0,100,0,0
224317,-55.5555555555556,4,1,0,100,0,0
224400,-60.8248502422725,4,1,0,100,0,0
224484,-66.6666666666667,4,1,0,100,0,0
224567,-55.5555555555556,4,1,0,100,0,0
224650,-60.8248502422725,4,1,0,100,0,0
224734,-66.6666666666667,4,1,0,100,0,0
224817,-55.5555555555556,4,1,0,100,0,0
224873,-59.0580754028526,4,1,0,100,0,0
224928,-62.7129089195617,4,1,0,100,0,0
224984,-66.6666666666667,4,1,0,100,0,0
225067,-55.5555555555556,4,1,0,100,0,0
225150,-59.0222373977559,4,1,0,100,0,0
225234,-62.7509878818068,4,1,0,100,0,0
225317,-66.6666666666667,4,1,0,100,0,0
225400,-55.5555555555556,4,1,0,100,0,0
225484,-60.8912917820828,4,1,0,100,0,0
225567,-66.6666666666667,4,1,0,100,0,0
225650,-55.5555555555556,4,1,0,100,0,0
225734,-60.8912917820828,4,1,0,100,0,0
225817,-66.6666666666667,4,1,0,100,0,0
225900,-55.5555555555556,4,1,0,100,0,0
225984,-66.6666666666667,4,1,0,100,0,0
226067,-55.5555555555556,4,1,0,100,0,0
226150,-60.8248502422725,4,1,0,100,0,0
226234,-66.6666666666667,4,1,0,100,0,0
226317,-55.5555555555556,4,1,0,100,0,0
226400,-60.8248502422725,4,1,0,100,0,0
226484,-66.6666666666667,4,1,0,100,0,0
226567,-55.5555555555556,4,1,0,100,0,0
226650,-66.6666666666667,4,1,0,100,0,0
226671,-67.2458676050499,4,1,0,100,0,0
226900,-73.8980992598918,4,1,0,100,0,0
226921,-74.5401269864328,4,1,0,100,0,0
227150,-81.9139361133724,4,1,0,100,0,0
227171,-82.6256055433253,4,1,0,100,0,0
227400,-90.7992627251164,4,1,0,100,0,0
227421,-91.5881279977398,4,1,0,100,0,0
227650,-100.648393943785,4,1,0,100,0,0
227671,-101.52282860707,4,1,0,100,0,0
227900,-111.565875090098,4,1,0,100,0,0
227921,-112.535160983253,4,1,0,100,0,0
227984,-115.493838968219,4,1,0,100,0,0
228150,-123.667591671371,4,1,0,100,0,0
228171,-124.742017448526,4,1,0,100,0,0
228400,-137.081999468441,4,1,0,100,0,0
228421,-138.272969809354,4,1,0,100,0,0
228650,-151.951488051949,4,1,0,100,0,0
228671,-153.271644718975,4,1,0,100,0,0
228900,-168.433892201268,4,1,0,100,0,0
228921,-169.897248227546,4,1,0,100,0,0
229150,-186.704167269289,4,1,0,100,0,0
229171,-188.326255702525,4,1,0,100,0,0
229317,-200,4,1,0,100,0,0

[HitObjects]
249,187,0,5,0,0:0:0:0:
249,187,239,1,8,0:0:0:0:
245,179,489,1,0,0:0:0:0:
245,179,739,1,0,0:0:0:0:
249,187,989,1,8,0:0:0:0:
249,187,1239,1,0,0:0:0:0:
244,186,1489,1,0,0:0:0:0:
244,186,1739,1,8,0:0:0:0:
249,187,1989,1,0,0:0:0:0:
249,187,2239,1,8,0:0:0:0:
244,186,2489,1,8,0:0:0:0:
251,190,2656,1,0,0:0:0:0:
251,192,2905,1,8,0:0:0:0:
251,192,3155,1,0,0:0:0:0:
256,193,3405,1,0,0:0:0:0:
256,193,3655,1,8,0:0:0:0:
256,193,3905,1,0,0:0:0:0:
256,193,4155,1,0,0:0:0:0:
256,193,4405,1,8,0:0:0:0:
256,193,4655,1,0,0:0:0:0:
256,193,4905,1,8,0:0:0:0:
256,193,5155,1,8,0:0:0:0:
251,190,5322,1,0,0:0:0:0:
251,192,5571,1,8,0:0:0:0:
251,192,5822,1,0,0:0:0:0:
256,193,6071,1,0,0:0:0:0:
256,193,6321,1,8,0:0:0:0:
256,193,6571,1,0,0:0:0:0:
256,193,6821,1,0,0:0:0:0:
256,193,7071,1,8,0:0:0:0:
256,193,7321,1,8,0:0:0:0:
256,193,7571,1,8,0:0:0:0:
256,193,7821,1,8,0:0:0:0:
251,190,7989,1,0,0:0:0:0:
251,192,8238,1,8,0:0:0:0:
251,192,8488,1,0,0:0:0:0:
256,193,8738,1,0,0:0:0:0:
256,193,8988,1,8,0:0:0:0:
256,193,9238,1,0,0:0:0:0:
256,193,9488,1,0,0:0:0:0:
256,193,9738,1,8,0:0:0:0:
256,193,9988,1,0,0:0:0:0:
256,193,10238,1,8,0:0:0:0:
256,193,10489,1,8,0:0:0:0:
251,190,10655,1,8,0:0:0:0:
251,192,10904,1,0,0:0:0:0:
251,192,11154,1,8,0:0:0:0:
256,193,11404,1,8,0:0:0:0:
256,193,11654,1,0,0:0:0:0:
256,193,11904,1,8,0:0:0:0:
256,193,12154,1,8,0:0:0:0:
256,193,12404,1,0,0:0:0:0:
256,193,12654,1,8,0:0:0:0:
256,193,12904,1,0,0:0:0:0:
256,193,13154,1,0,0:0:0:0:
251,190,13322,1,8,0:0:0:0:
251,192,13571,1,0,0:0:0:0:
251,192,13821,1,8,0:0:0:0:
256,193,14071,1,8,0:0:0:0:
256,193,14321,1,0,0:0:0:0:
256,193,14571,1,8,0:0:0:0:
256,193,14821,1,8,0:0:0:0:
256,193,15071,1,0,0:0:0:0:
256,193,15321,1,8,0:0:0:0:
256,193,15571,1,0,0:0:0:0:
256,193,15821,1,0,0:0:0:0:
251,190,15989,1,8,0:0:0:0:
251,192,16238,1,0,0:0:0:0:
251,192,16488,1,8,0:0:0:0:
256,193,16738,1,8,0:0:0:0:
256,193,16988,1,0,0:0:0:0:
256,193,17239,1,8,0:0:0:0:
256,193,17488,1,8,0:0:0:0:
256,193,17738,1,0,0:0:0:0:
256,193,17988,1,8,0:0:0:0:
256,193,18238,1,0,0:0:0:0:
256,193,18488,1,0,0:0:0:0:
251,190,18655,1,8,0:0:0:0:
251,192,18904,1,0,0:0:0:0:
251,192,19154,1,8,0:0:0:0:
256,193,19404,1,8,0:0:0:0:
256,193,19654,1,0,0:0:0:0:
256,193,19904,1,8,0:0:0:0:
256,193,20154,1,8,0:0:0:0:
256,193,20404,1,0,0:0:0:0:
256,193,20654,1,8,0:0:0:0:
256,193,20904,1,0,0:0:0:0:
256,193,21154,1,0,0:0:0:0:
251,190,21322,1,8,0:0:0:0:
251,192,21571,1,0,0:0:0:0:
251,192,21821,1,8,0:0:0:0:
256,193,22071,1,8,0:0:0:0:
256,193,22321,1,0,0:0:0:0:
256,193,22571,1,8,0:0:0:0:
256,193,22821,1,8,0:0:0:0:
256,193,23071,1,0,0:0:0:0:
256,193,23321,1,8,0:0:0:0:
256,193,23571,1,0,0:0:0:0:
256,193,23821,1,0,0:0:0:0:
251,190,23989,5,8,0:0:0:0:
251,192,24238,1,0,0:0:0:0:
251,192,24488,1,8,0:0:0:0:
256,193,24738,1,8,0:0:0:0:
256,193,24988,1,0,0:0:0:0:
256,193,25155,1,8,0:0:0:0:
251,192,25239,1,8,0:0:0:0:
251,192,25322,1,8,0:0:0:0:
256,193,25488,1,0,0:0:0:0:
256,193,25738,1,8,0:0:0:0:
256,193,25988,1,0,0:0:0:0:
256,193,26238,1,8,0:0:0:0:
256,193,26488,1,0,0:0:0:0:
251,190,26655,1,8,0:0:0:0:
251,192,26904,1,0,0:0:0:0:
251,192,27154,1,8,0:0:0:0:
256,193,27404,1,0,0:0:0:0:
256,193,27654,1,8,0:0:0:0:
254,195,27822,1,0,0:0:0:0:
256,193,27904,1,0,0:0:0:0:
255,197,27989,1,0,0:0:0:0:
256,193,28154,1,8,0:0:0:0:
256,193,28404,1,0,0:0:0:0:
256,193,28654,1,0,0:0:0:0:
256,193,28904,1,8,0:0:0:0:
256,193,29154,1,0,0:0:0:0:
251,190,29322,1,8,0:0:0:0:
251,192,29571,1,0,0:0:0:0:
251,192,29821,1,0,0:0:0:0:
256,193,30071,1,8,0:0:0:0:
256,193,30321,1,0,0:0:0:0:
260,180,30489,1,8,0:0:0:0:
256,193,30571,1,8,0:0:0:0:
260,182,30655,1,8,0:0:0:0:
256,193,30821,1,0,0:0:0:0:
256,193,31071,1,0,0:0:0:0:
256,193,31321,1,8,0:0:0:0:
256,193,31571,1,8,0:0:0:0:
256,193,31821,1,0,0:0:0:0:
251,190,31990,1,8,0:0:0:0:
251,192,32239,1,0,0:0:0:0:
251,192,32489,1,8,0:0:0:0:
256,193,32739,1,0,0:0:0:0:
256,193,32989,1,8,0:0:0:0:
262,178,33155,1,0,0:0:0:0:
256,193,33239,1,0,0:0:0:0:
262,180,33322,1,0,0:0:0:0:
256,193,33489,1,8,0:0:0:0:
256,193,33739,1,0,0:0:0:0:
262,181,33905,1,0,0:0:0:0:
256,193,33989,1,8,0:0:0:0:
256,193,34322,1,8,0:0:0:0:
251,190,34655,1,0,0:0:0:0:
251,192,34904,1,8,0:0:0:0:
251,192,35154,1,8,0:0:0:0:
256,193,35404,1,0,0:0:0:0:
256,193,35655,1,8,0:0:0:0:
262,181,35822,1,0,0:0:0:0:
256,193,35904,1,0,0:0:0:0:
262,182,35989,1,0,0:0:0:0:
256,193,36154,1,8,0:0:0:0:
256,193,36404,1,0,0:0:0:0:
256,193,36654,1,8,0:0:0:0:
256,193,36904,1,8,0:0:0:0:
256,193,37154,1,0,0:0:0:0:
251,190,37322,1,8,0:0:0:0:
251,192,37571,1,0,0:0:0:0:
251,192,37821,1,8,0:0:0:0:
256,193,38071,1,0,0:0:0:0:
256,193,38321,1,8,0:0:0:0:
262,179,38489,1,0,0:0:0:0:
256,193,38571,1,0,0:0:0:0:
448,64,38655,1,8,0:0:0:0:
64,64,38739,1,0,0:0:0:0:
64,64,38822,1,0,0:0:0:0:
64,64,38905,1,0,0:0:0:0:
256,193,38989,1,8,0:0:0:0:
64,64,39072,1,0,0:0:0:0:
64,64,39155,1,0,0:0:0:0:
448,64,39239,1,8,0:0:0:0:
64,64,39322,1,0,0:0:0:0:
448,64,39405,1,8,0:0:0:0:
448,64,39489,1,8,0:0:0:0:
448,64,39572,1,8,0:0:0:0:
256,193,39655,1,0,0:0:0:0:
448,64,39739,1,8,0:0:0:0:
448,64,39822,1,8,0:0:0:0:
448,64,39905,1,8,0:0:0:0:
256,192,39989,12,0,42322,0:0:0:0:
256,192,42655,12,0,43655,0:0:0:0:
256,178,43989,5,0,0:0:0:0:
251,170,44010,1,8,0:0:0:0:
256,178,44322,1,0,0:0:0:0:
251,170,44343,1,8,0:0:0:0:
256,178,44655,1,0,0:0:0:0:
251,168,44676,1,8,0:0:0:0:
256,178,44989,1,0,0:0:0:0:
251,168,45010,1,8,0:0:0:0:
251,190,45322,5,0,0:0:0:0:
448,64,45343,1,8,0:0:0:0:
251,192,45572,1,8,0:0:0:0:
242,193,45655,1,0,0:0:0:0:
251,192,45821,1,8,0:0:0:0:
252,192,45989,1,0,0:0:0:0:
256,193,46071,1,8,0:0:0:0:
256,193,46321,1,0,0:0:0:0:
251,190,46343,1,8,0:0:0:0:
258,195,46572,1,8,0:0:0:0:
256,193,46655,1,0,0:0:0:0:
256,193,46821,1,8,0:0:0:0:
252,192,46989,1,0,0:0:0:0:
256,193,47071,1,8,0:0:0:0:
256,193,47321,1,0,0:0:0:0:
253,185,47343,1,8,0:0:0:0:
256,193,47571,1,8,0:0:0:0:
256,193,47655,1,0,0:0:0:0:
256,193,47821,1,8,0:0:0:0:
251,190,47989,1,0,0:0:0:0:
252,184,48010,1,8,0:0:0:0:
251,192,48239,1,8,0:0:0:0:
242,193,48322,1,0,0:0:0:0:
251,192,48488,1,8,0:0:0:0:
252,192,48656,1,0,0:0:0:0:
256,193,48738,1,8,0:0:0:0:
256,193,48988,1,0,0:0:0:0:
252,184,49010,1,8,0:0:0:0:
258,195,49239,1,8,0:0:0:0:
256,193,49322,1,0,0:0:0:0:
256,193,49488,1,8,0:0:0:0:
252,192,49656,1,0,0:0:0:0:
256,193,49738,1,8,0:0:0:0:
256,193,49989,1,0,0:0:0:0:
252,184,50010,1,8,0:0:0:0:
256,193,50238,1,8,0:0:0:0:
256,193,50322,1,0,0:0:0:0:
256,193,50488,1,8,0:0:0:0:
251,190,50655,1,0,0:0:0:0:
252,192,50676,1,8,0:0:0:0:
251,192,50905,1,8,0:0:0:0:
242,193,50988,1,0,0:0:0:0:
251,192,51154,1,8,0:0:0:0:
252,192,51322,1,0,0:0:0:0:
256,193,51404,1,8,0:0:0:0:
256,193,51654,1,0,0:0:0:0:
251,183,51676,1,8,0:0:0:0:
258,195,51905,1,8,0:0:0:0:
256,193,51988,1,0,0:0:0:0:
256,193,52154,1,8,0:0:0:0:
252,192,52322,1,0,0:0:0:0:
256,193,52404,1,8,0:0:0:0:
256,193,52654,1,0,0:0:0:0:
251,183,52676,1,8,0:0:0:0:
256,193,52904,1,8,0:0:0:0:
256,193,52988,1,0,0:0:0:0:
256,193,53154,1,8,0:0:0:0:
251,190,53322,1,0,0:0:0:0:
251,183,53343,1,8,0:0:0:0:
256,193,53489,1,0,0:0:0:0:
251,192,53571,1,8,0:0:0:0:
256,193,53655,1,0,0:0:0:0:
251,192,53821,1,0,0:0:0:0:
251,184,53843,1,8,0:0:0:0:
256,193,53989,1,0,0:0:0:0:
256,193,54071,1,8,0:0:0:0:
256,193,54155,1,0,0:0:0:0:
256,193,54321,1,0,0:0:0:0:
251,183,54343,1,8,0:0:0:0:
256,193,54489,1,0,0:0:0:0:
256,193,54571,1,8,0:0:0:0:
256,193,54655,1,0,0:0:0:0:
253,189,54739,1,0,0:0:0:0:
253,190,54780,1,0,0:0:0:0:
253,190,54822,1,0,0:0:0:0:
256,193,54864,1,8,0:0:0:0:
256,193,54989,1,8,0:0:0:0:
256,193,55030,1,0,0:0:0:0:
256,193,55072,1,8,0:0:0:0:
247,195,55155,1,8,0:0:0:0:
246,189,55239,1,8,0:0:0:0:
246,188,55280,1,0,0:0:0:0:
246,188,55322,1,8,0:0:0:0:
250,194,55405,1,8,0:0:0:0:
250,194,55489,1,0,0:0:0:0:
249,192,55530,1,0,0:0:0:0:
253,190,55572,1,0,0:0:0:0:
247,190,55655,1,8,0:0:0:0:
247,190,55739,1,0,0:0:0:0:
247,190,55822,1,8,0:0:0:0:
242,190,55864,1,0,0:0:0:0:
242,189,55905,1,0,0:0:0:0:
242,189,55947,1,0,0:0:0:0:
448,320,55989,1,12,0:0:0:0:
250,194,56155,5,0,0:0:0:0:
448,64,56239,1,8,0:0:0:0:
448,64,56322,1,8,0:0:0:0:
247,190,56405,1,0,0:0:0:0:
247,190,56572,1,0,0:0:0:0:
448,64,56655,1,8,0:0:0:0:
251,193,56739,1,0,0:0:0:0:
448,64,56822,1,8,0:0:0:0:
448,64,56905,1,8,0:0:0:0:
448,64,56947,1,8,0:0:0:0:
250,194,56989,1,0,0:0:0:0:
250,194,57044,1,0,0:0:0:0:
448,64,57100,1,8,0:0:0:0:
448,64,57155,1,8,0:0:0:0:
448,64,57211,1,8,0:0:0:0:
247,190,57267,1,0,0:0:0:0:
448,320,57329,1,12,0:0:0:0:
247,186,57489,1,0,0:0:0:0:
448,64,57655,1,8,0:0:0:0:
240,201,57739,1,0,0:0:0:0:
240,200,57905,1,0,0:0:0:0:
448,64,57989,1,8,0:0:0:0:
448,64,58072,1,8,0:0:0:0:
245,206,58155,1,0,0:0:0:0:
244,198,58322,1,0,0:0:0:0:
240,191,58405,1,0,0:0:0:0:
448,64,58489,1,8,0:0:0:0:
448,320,58655,1,12,0:0:0:0:
448,64,58822,1,8,0:0:0:0:
243,188,58905,1,0,0:0:0:0:
448,64,58989,1,8,0:0:0:0:
243,189,59072,1,0,0:0:0:0:
243,189,59239,1,0,0:0:0:0:
243,189,59322,1,0,0:0:0:0:
243,185,59489,1,0,0:0:0:0:
448,64,59544,1,8,0:0:0:0:
448,64,59600,1,8,0:0:0:0:
248,181,59655,1,0,0:0:0:0:
256,167,59822,1,0,0:0:0:0:
258,164,59905,1,0,0:0:0:0:
448,320,59989,1,12,0:0:0:0:
257,173,60072,1,0,0:0:0:0:
257,173,60322,1,0,0:0:0:0:
448,64,60405,1,8,0:0:0:0:
257,173,60489,1,0,0:0:0:0:
257,174,60655,1,0,0:0:0:0:
257,174,60739,1,0,0:0:0:0:
448,64,60822,1,8,0:0:0:0:
448,64,60905,1,8,0:0:0:0:
257,173,60989,1,0,0:0:0:0:
257,173,61072,1,0,0:0:0:0:
448,64,61155,1,8,0:0:0:0:
64,64,61239,1,0,0:0:0:0:
448,320,61322,1,12,0:0:0:0:
448,64,61489,1,8,0:0:0:0:
448,64,61572,1,8,0:0:0:0:
448,64,61655,1,8,0:0:0:0:
448,64,61739,1,8,0:0:0:0:
251,179,61905,1,0,0:0:0:0:
251,178,61989,1,0,0:0:0:0:
251,178,62072,1,0,0:0:0:0:
254,181,62155,1,0,0:0:0:0:
448,64,62239,1,8,0:0:0:0:
448,64,62280,1,8,0:0:0:0:
253,180,62322,1,0,0:0:0:0:
253,180,62378,1,0,0:0:0:0:
448,64,62433,1,8,0:0:0:0:
253,180,62489,1,0,0:0:0:0:
448,64,62544,1,8,0:0:0:0:
251,179,62600,1,0,0:0:0:0:
448,320,62655,1,12,0:0:0:0:
251,178,62822,1,0,0:0:0:0:
254,181,62989,1,0,0:0:0:0:
448,64,63072,1,8,0:0:0:0:
253,180,63239,1,0,0:0:0:0:
448,64,63322,1,8,0:0:0:0:
448,64,63405,1,8,0:0:0:0:
251,184,63489,1,0,0:0:0:0:
254,181,63655,1,0,0:0:0:0:
254,181,63739,1,0,0:0:0:0:
448,64,63822,1,8,0:0:0:0:
448,320,63989,1,12,0:0:0:0:
448,64,64155,1,8,0:0:0:0:
448,64,64322,1,8,0:0:0:0:
254,181,64405,1,0,0:0:0:0:
252,185,64655,1,0,0:0:0:0:
252,184,64905,1,0,0:0:0:0:
448,64,64989,1,8,0:0:0:0:
254,181,65072,1,0,0:0:0:0:
256,177,65239,1,0,0:0:0:0:
448,320,65322,1,12,0:0:0:0:
64,64,65405,1,0,0:0:0:0:
64,64,65447,1,0,0:0:0:0:
448,64,65489,1,8,0:0:0:0:
256,181,65655,1,0,0:0:0:0:
64,64,65822,1,0,0:0:0:0:
448,64,65905,1,8,0:0:0:0:
448,64,65989,1,8,0:0:0:0:
64,64,66072,1,0,0:0:0:0:
448,64,66155,1,8,0:0:0:0:
448,64,66197,1,8,0:0:0:0:
448,64,66239,1,8,0:0:0:0:
256,181,66322,1,0,0:0:0:0:
448,64,66405,1,8,0:0:0:0:
256,181,66447,1,0,0:0:0:0:
448,64,66489,1,8,0:0:0:0:
254,181,66572,1,0,0:0:0:0:
448,320,66655,1,12,0:0:0:0:
250,192,66822,1,0,0:0:0:0:
250,192,66905,1,0,0:0:0:0:
448,64,66989,1,8,0:0:0:0:
448,64,67155,1,8,0:0:0:0:
448,64,67239,1,8,0:0:0:0:
250,193,67322,1,0,0:0:0:0:
250,193,67405,1,0,0:0:0:0:
448,64,67489,1,8,0:0:0:0:
248,184,67655,1,0,0:0:0:0:
448,64,67739,1,8,0:0:0:0:
64,64,67905,1,0,0:0:0:0:
448,320,67989,1,12,0:0:0:0:
260,188,68072,1,0,0:0:0:0:
448,64,68155,1,8,0:0:0:0:
260,188,68322,1,0,0:0:0:0:
260,188,68405,1,0,0:0:0:0:
448,64,68489,1,8,0:0:0:0:
260,188,68572,1,0,0:0:0:0:
448,64,68655,1,8,0:0:0:0:
263,192,68739,1,0,0:0:0:0:
263,192,68822,1,0,0:0:0:0:
263,192,68905,1,0,0:0:0:0:
448,64,68989,1,8,0:0:0:0:
263,192,69155,1,0,0:0:0:0:
448,320,69322,1,12,0:0:0:0:
448,64,69489,1,8,0:0:0:0:
448,64,69530,1,8,0:0:0:0:
263,192,69572,1,0,0:0:0:0:
263,192,69614,1,0,0:0:0:0:
448,64,69655,1,8,0:0:0:0:
263,192,69739,1,0,0:0:0:0:
263,192,69905,1,0,0:0:0:0:
448,64,69989,1,8,0:0:0:0:
263,192,70072,1,0,0:0:0:0:
448,64,70155,1,8,0:0:0:0:
263,192,70239,1,0,0:0:0:0:
263,192,70322,1,0,0:0:0:0:
448,64,70405,1,8,0:0:0:0:
448,64,70489,1,8,0:0:0:0:
263,192,70572,1,0,0:0:0:0:
448,320,70655,1,12,0:0:0:0:
448,64,70822,1,8,0:0:0:0:
448,64,70989,1,8,0:0:0:0:
273,196,71072,1,0,0:0:0:0:
273,196,71155,1,0,0:0:0:0:
273,196,71239,1,0,0:0:0:0:
448,64,71322,1,8,0:0:0:0:
274,199,71572,1,0,0:0:0:0:
448,64,71655,1,8,0:0:0:0:
64,64,71822,1,0,0:0:0:0:
448,320,71989,1,12,0:0:0:0:
260,193,72155,1,0,0:0:0:0:
448,64,72322,1,8,0:0:0:0:
448,64,72489,1,8,0:0:0:0:
260,192,72572,1,0,0:0:0:0:
260,192,72655,1,0,0:0:0:0:
260,192,72739,1,0,0:0:0:0:
448,64,72822,1,8,0:0:0:0:
268,200,72989,1,0,0:0:0:0:
448,64,73072,1,8,0:0:0:0:
64,64,73239,1,0,0:0:0:0:
448,320,73322,1,12,0:0:0:0:
269,197,73405,1,0,0:0:0:0:
448,64,73489,1,8,0:0:0:0:
268,200,73655,1,0,0:0:0:0:
448,64,73739,1,8,0:0:0:0:
268,200,73822,1,0,0:0:0:0:
448,64,73905,1,8,0:0:0:0:
267,200,73989,1,0,0:0:0:0:
267,200,74072,1,0,0:0:0:0:
269,197,74155,1,0,0:0:0:0:
448,64,74239,1,8,0:0:0:0:
448,64,74322,1,8,0:0:0:0:
268,200,74405,1,0,0:0:0:0:
268,200,74489,1,0,0:0:0:0:
268,200,74572,1,0,0:0:0:0:
448,320,74655,1,12,0:0:0:0:
448,64,74822,1,8,0:0:0:0:
262,195,74989,1,0,0:0:0:0:
262,195,75072,1,0,0:0:0:0:
448,64,75322,1,8,0:0:0:0:
262,195,75489,1,0,0:0:0:0:
262,195,75572,1,0,0:0:0:0:
448,64,75655,1,8,0:0:0:0:
0,384,75822,6,4,L|512:384,1,11.549999803305
448,64,76489,1,8,0:0:0:0:
448,64,76739,1,8,0:0:0:0:
258,201,76822,1,0,0:0:0:0:
64,64,76905,1,0,0:0:0:0:
448,64,76989,1,8,0:0:0:0:
448,64,77030,1,8,0:0:0:0:
448,64,77072,1,8,0:0:0:0:
64,64,77155,1,0,0:0:0:0:
64,64,77197,1,0,0:0:0:0:
64,64,77239,1,0,0:0:0:0:
448,320,77322,1,12,0:0:0:0:
258,201,77572,5,8,0:0:0:0:
257,191,77655,1,0,0:0:0:0:
258,201,77822,1,8,0:0:0:0:
257,191,77989,1,0,0:0:0:0:
258,201,78072,1,8,0:0:0:0:
258,201,78322,1,0,0:0:0:0:
253,195,78343,1,8,0:0:0:0:
256,190,78489,1,0,0:0:0:0:
256,190,78530,1,0,0:0:0:0:
256,190,78572,1,0,0:0:0:0:
256,190,78614,1,0,0:0:0:0:
64,64,78655,1,0,0:0:0:0:
448,64,78676,1,8,0:0:0:0:
253,179,78822,1,0,0:0:0:0:
253,195,78905,1,8,0:0:0:0:
254,181,78989,1,0,0:0:0:0:
255,184,79155,1,0,0:0:0:0:
253,195,79176,1,8,0:0:0:0:
246,182,79322,1,0,0:0:0:0:
256,193,79343,1,8,0:0:0:0:
253,179,79489,1,0,0:0:0:0:
258,191,79572,1,8,0:0:0:0:
254,182,79655,1,0,0:0:0:0:
254,181,79822,1,0,0:0:0:0:
258,190,79843,1,8,0:0:0:0:
258,187,79989,1,0,0:0:0:0:
256,190,80010,1,8,0:0:0:0:
258,201,80239,1,8,0:0:0:0:
252,197,80322,1,0,0:0:0:0:
258,201,80489,1,8,0:0:0:0:
252,198,80655,1,0,0:0:0:0:
258,201,80739,1,8,0:0:0:0:
247,200,80989,1,0,0:0:0:0:
253,195,81010,1,8,0:0:0:0:
251,195,81155,1,8,0:0:0:0:
251,195,81197,1,0,0:0:0:0:
251,195,81239,1,0,0:0:0:0:
251,195,81280,1,0,0:0:0:0:
64,64,81322,1,0,0:0:0:0:
448,64,81343,1,8,0:0:0:0:
252,198,81447,1,0,0:0:0:0:
249,196,81489,1,0,0:0:0:0:
253,195,81572,1,8,0:0:0:0:
247,200,81655,1,0,0:0:0:0:
238,196,81822,1,0,0:0:0:0:
253,195,81843,1,8,0:0:0:0:
251,195,81989,1,0,0:0:0:0:
256,193,82010,1,8,0:0:0:0:
260,179,82155,1,0,0:0:0:0:
258,191,82239,1,8,0:0:0:0:
261,181,82322,1,0,0:0:0:0:
260,184,82489,1,0,0:0:0:0:
258,190,82510,1,8,0:0:0:0:
263,179,82656,1,0,0:0:0:0:
448,320,82676,1,8,0:0:0:0:
258,201,82905,1,8,0:0:0:0:
258,191,82989,1,0,0:0:0:0:
258,201,83155,1,8,0:0:0:0:
259,193,83322,1,0,0:0:0:0:
258,201,83405,1,8,0:0:0:0:
257,181,83655,1,0,0:0:0:0:
448,64,83676,1,8,0:0:0:0:
254,193,83822,1,0,0:0:0:0:
254,193,83864,1,0,0:0:0:0:
448,64,83905,1,8,0:0:0:0:
254,193,83947,1,0,0:0:0:0:
64,64,83989,1,0,0:0:0:0:
448,64,84010,1,8,0:0:0:0:
259,193,84072,1,8,0:0:0:0:
254,193,84155,1,0,0:0:0:0:
253,195,84238,1,8,0:0:0:0:
254,193,84322,1,0,0:0:0:0:
257,193,84405,1,0,0:0:0:0:
253,195,84489,1,0,0:0:0:0:
253,195,84509,1,8,0:0:0:0:
254,193,84656,1,0,0:0:0:0:
256,193,84676,1,8,0:0:0:0:
249,184,84822,1,0,0:0:0:0:
258,191,84905,1,8,0:0:0:0:
249,184,84989,1,0,0:0:0:0:
248,183,85156,1,0,0:0:0:0:
258,190,85176,1,8,0:0:0:0:
248,183,85322,1,0,0:0:0:0:
448,320,85343,1,8,0:0:0:0:
258,201,85572,1,8,0:0:0:0:
263,201,85655,1,0,0:0:0:0:
258,201,85822,1,8,0:0:0:0:
262,203,85989,1,0,0:0:0:0:
258,201,86072,1,8,0:0:0:0:
262,209,86322,1,0,0:0:0:0:
253,195,86343,1,8,0:0:0:0:
264,202,86489,1,0,0:0:0:0:
264,202,86572,1,0,0:0:0:0:
269,202,86655,1,0,0:0:0:0:
263,197,86676,1,8,0:0:0:0:
269,202,86739,1,0,0:0:0:0:
266,201,86822,1,8,0:0:0:0:
267,200,86905,1,0,0:0:0:0:
269,202,86989,1,0,0:0:0:0:
263,197,87010,1,8,0:0:0:0:
269,202,87073,1,8,0:0:0:0:
266,201,87156,1,8,0:0:0:0:
267,200,87239,1,0,0:0:0:0:
269,202,87322,1,0,0:0:0:0:
264,202,87343,1,8,0:0:0:0:
269,202,87406,1,0,0:0:0:0:
266,201,87489,1,8,0:0:0:0:
267,200,87572,1,8,0:0:0:0:
269,202,87655,1,0,0:0:0:0:
267,200,87676,1,8,0:0:0:0:
269,202,87739,1,8,0:0:0:0:
266,201,87822,1,8,0:0:0:0:
267,200,87905,1,8,0:0:0:0:
448,320,87989,1,0,0:0:0:0:
267,200,88010,1,8,0:0:0:0:
258,201,88239,1,8,0:0:0:0:
263,195,88322,1,0,0:0:0:0:
258,201,88489,1,8,0:0:0:0:
263,195,88655,1,0,0:0:0:0:
258,201,88739,1,8,0:0:0:0:
262,197,88989,1,0,0:0:0:0:
253,195,89010,1,8,0:0:0:0:
258,206,89155,1,0,0:0:0:0:
448,64,89197,1,8,0:0:0:0:
258,201,89239,1,0,0:0:0:0:
258,201,89280,1,0,0:0:0:0:
64,64,89322,1,0,0:0:0:0:
448,64,89343,1,8,0:0:0:0:
258,201,89489,1,0,0:0:0:0:
253,195,89572,1,8,0:0:0:0:
254,201,89655,1,0,0:0:0:0:
254,201,89822,1,0,0:0:0:0:
253,195,89843,1,8,0:0:0:0:
258,201,89989,1,0,0:0:0:0:
256,193,90010,1,8,0:0:0:0:
258,201,90155,1,0,0:0:0:0:
258,191,90239,1,8,0:0:0:0:
253,201,90322,1,0,0:0:0:0:
254,201,90489,1,0,0:0:0:0:
258,190,90510,1,8,0:0:0:0:
258,201,90656,1,0,0:0:0:0:
448,320,90676,1,8,0:0:0:0:
258,201,90905,1,8,0:0:0:0:
247,183,90989,1,0,0:0:0:0:
258,201,91155,1,8,0:0:0:0:
247,183,91322,1,0,0:0:0:0:
258,201,91405,1,8,0:0:0:0:
258,201,91489,1,8,0:0:0:0:
258,201,91530,1,0,0:0:0:0:
258,201,91572,1,0,0:0:0:0:
247,184,91655,1,0,0:0:0:0:
253,195,91675,1,8,0:0:0:0:
261,194,91822,1,0,0:0:0:0:
448,64,91864,1,8,0:0:0:0:
448,64,91905,1,8,0:0:0:0:
261,194,91947,1,0,0:0:0:0:
64,64,91989,1,0,0:0:0:0:
448,64,92010,1,8,0:0:0:0:
448,64,92072,1,8,0:0:0:0:
261,191,92155,1,0,0:0:0:0:
253,195,92238,1,8,0:0:0:0:
261,191,92322,1,0,0:0:0:0:
64,64,92405,1,0,0:0:0:0:
261,191,92489,1,0,0:0:0:0:
253,195,92509,1,8,0:0:0:0:
261,194,92656,1,0,0:0:0:0:
256,193,92676,1,8,0:0:0:0:
261,191,92822,1,0,0:0:0:0:
258,191,92905,1,8,0:0:0:0:
260,191,92989,1,0,0:0:0:0:
261,191,93156,1,0,0:0:0:0:
258,190,93176,1,8,0:0:0:0:
261,194,93322,1,0,0:0:0:0:
448,320,93343,1,8,0:0:0:0:
258,201,93572,1,8,0:0:0:0:
270,208,93655,1,0,0:0:0:0:
258,201,93822,1,8,0:0:0:0:
267,205,93989,1,0,0:0:0:0:
258,201,94072,1,8,0:0:0:0:
267,205,94322,1,0,0:0:0:0:
253,195,94343,1,8,0:0:0:0:
448,64,94489,1,8,0:0:0:0:
267,196,94530,1,0,0:0:0:0:
267,196,94572,1,0,0:0:0:0:
448,64,94614,1,8,0:0:0:0:
64,64,94655,1,0,0:0:0:0:
448,64,94676,1,8,0:0:0:0:
262,193,94822,1,0,0:0:0:0:
253,195,94905,1,8,0:0:0:0:
262,193,94989,1,0,0:0:0:0:
262,194,95156,1,0,0:0:0:0:
253,195,95176,1,8,0:0:0:0:
262,195,95322,1,0,0:0:0:0:
256,193,95343,1,8,0:0:0:0:
262,193,95489,1,0,0:0:0:0:
258,191,95572,1,8,0:0:0:0:
262,196,95655,1,0,0:0:0:0:
262,194,95822,1,0,0:0:0:0:
258,190,95843,1,8,0:0:0:0:
262,195,95989,1,0,0:0:0:0:
262,195,96010,1,8,0:0:0:0:
264,205,96072,1,0,0:0:0:0:
263,205,96155,1,8,0:0:0:0:
263,205,96239,1,8,0:0:0:0:
263,205,96322,1,0,0:0:0:0:
264,205,96405,1,0,0:0:0:0:
263,205,96488,1,0,0:0:0:0:
269,213,96510,1,8,0:0:0:0:
263,205,96572,1,0,0:0:0:0:
263,205,96655,1,8,0:0:0:0:
264,205,96739,1,8,0:0:0:0:
263,205,96822,1,8,0:0:0:0:
263,205,96906,1,0,0:0:0:0:
263,205,96989,1,0,0:0:0:0:
269,213,97010,1,8,0:0:0:0:
264,205,97072,1,0,0:0:0:0:
263,205,97155,1,0,0:0:0:0:
263,205,97239,1,8,0:0:0:0:
263,205,97322,1,0,0:0:0:0:
269,214,97343,1,8,0:0:0:0:
269,214,97572,1,8,0:0:0:0:
269,214,97655,1,0,0:0:0:0:
269,214,97822,1,0,0:0:0:0:
269,215,97989,1,0,0:0:0:0:
269,214,98239,1,8,0:0:0:0:
269,214,98489,1,0,0:0:0:0:
255,213,98655,1,4,0:0:0:0:
269,215,98676,1,12,0:0:0:0:
253,209,98905,5,0,0:0:0:0:
246,209,99155,1,8,0:0:0:0:
246,209,99405,1,8,0:0:0:0:
246,209,99655,1,0,0:0:0:0:
249,215,99905,1,8,0:0:0:0:
249,215,100155,1,0,0:0:0:0:
253,216,100405,1,8,0:0:0:0:
254,211,100655,1,8,0:0:0:0:
254,211,100905,1,0,0:0:0:0:
272,210,101155,1,8,0:0:0:0:
253,209,101322,1,0,0:0:0:0:
256,196,101343,1,8,0:0:0:0:
246,209,101572,1,0,0:0:0:0:
246,209,101822,1,8,0:0:0:0:
246,209,102072,1,8,0:0:0:0:
249,215,102322,1,0,0:0:0:0:
249,215,102572,1,8,0:0:0:0:
253,216,102822,1,8,0:0:0:0:
254,211,103072,1,0,0:0:0:0:
254,211,103322,1,8,0:0:0:0:
272,210,103572,1,0,0:0:0:0:
260,213,103822,1,8,0:0:0:0:
253,209,103989,1,8,0:0:0:0:
256,204,104010,1,0,0:0:0:0:
246,209,104239,1,8,0:0:0:0:
246,209,104489,1,0,0:0:0:0:
246,209,104739,1,0,0:0:0:0:
249,215,104989,1,8,0:0:0:0:
249,215,105239,1,0,0:0:0:0:
253,216,105489,1,0,0:0:0:0:
254,211,105739,1,8,0:0:0:0:
254,211,105989,1,0,0:0:0:0:
272,210,106239,1,8,0:0:0:0:
260,213,106489,1,8,0:0:0:0:
253,209,106655,1,8,0:0:0:0:
255,203,106676,1,0,0:0:0:0:
246,209,106905,1,8,0:0:0:0:
246,209,107155,1,0,0:0:0:0:
246,209,107405,1,0,0:0:0:0:
249,215,107655,1,8,0:0:0:0:
249,215,107905,1,0,0:0:0:0:
253,216,108155,1,0,0:0:0:0:
254,211,108405,1,8,0:0:0:0:
254,211,108655,1,0,0:0:0:0:
272,210,108905,1,8,0:0:0:0:
260,213,109155,1,8,0:0:0:0:
262,199,109322,1,8,0:0:0:0:
260,206,109343,1,0,0:0:0:0:
259,190,109989,5,0,0:0:0:0:
259,190,110017,1,0,0:0:0:0:
274,200,110044,1,0,0:0:0:0:
259,190,110072,1,8,0:0:0:0:
259,190,110239,1,0,0:0:0:0:
282,204,110489,1,8,0:0:0:0:
263,193,110572,1,8,0:0:0:0:
263,193,110655,1,0,0:0:0:0:
265,195,110822,1,0,0:0:0:0:
256,184,111072,1,8,0:0:0:0:
256,186,111093,1,0,0:0:0:0:
256,184,111322,1,8,0:0:0:0:
254,188,111739,1,4,0:0:0:0:
256,184,111989,1,12,0:0:0:0:
259,179,112155,1,0,0:0:0:0:
259,179,112239,1,0,0:0:0:0:
259,179,112322,1,8,0:0:0:0:
261,183,112405,1,0,0:0:0:0:
261,179,112489,1,0,0:0:0:0:
261,179,112572,1,0,0:0:0:0:
261,179,112655,1,8,0:0:0:0:
261,183,112739,1,0,0:0:0:0:
258,186,112822,1,8,0:0:0:0:
261,179,112843,1,0,0:0:0:0:
261,179,112906,1,0,0:0:0:0:
261,179,112989,1,8,0:0:0:0:
261,183,113072,1,0,0:0:0:0:
261,179,113156,1,8,0:0:0:0:
263,177,113176,1,0,0:0:0:0:
261,179,113239,1,0,0:0:0:0:
261,179,113322,1,8,0:0:0:0:
261,183,113405,1,0,0:0:0:0:
261,183,113489,1,8,0:0:0:0:
261,179,113510,1,0,0:0:0:0:
261,179,113572,1,0,0:0:0:0:
261,179,113655,1,8,0:0:0:0:
261,183,113739,1,0,0:0:0:0:
261,179,113822,1,0,0:0:0:0:
261,179,113906,1,0,0:0:0:0:
258,181,113989,1,8,0:0:0:0:
261,179,114010,1,0,0:0:0:0:
261,183,114072,1,0,0:0:0:0:
261,179,114155,1,8,0:0:0:0:
261,183,114197,1,8,0:0:0:0:
261,179,114239,1,0,0:0:0:0:
261,183,114280,1,0,0:0:0:0:
261,179,114322,1,8,0:0:0:0:
261,183,114378,1,0,0:0:0:0:
261,179,114433,1,8,0:0:0:0:
261,179,114489,1,8,0:0:0:0:
254,172,114544,1,0,0:0:0:0:
253,168,114600,1,0,0:0:0:0:
261,179,114655,1,8,0:0:0:0:
266,176,114683,1,0,0:0:0:0:
258,181,114739,1,0,0:0:0:0:
261,183,114822,1,8,0:0:0:0:
261,179,114906,1,0,0:0:0:0:
265,188,114947,1,0,0:0:0:0:
261,179,114989,1,8,0:0:0:0:
261,179,115072,1,0,0:0:0:0:
261,183,115155,1,0,0:0:0:0:
261,179,115239,1,8,0:0:0:0:
261,179,115322,1,8,0:0:0:0:
261,179,115405,1,0,0:0:0:0:
261,183,115489,1,8,0:0:0:0:
261,182,115510,1,0,0:0:0:0:
261,179,115572,1,0,0:0:0:0:
261,179,115656,1,8,0:0:0:0:
261,179,115711,1,0,0:0:0:0:
267,165,115767,1,0,0:0:0:0:
261,183,115822,1,8,0:0:0:0:
261,179,115843,1,0,0:0:0:0:
261,179,115905,1,0,0:0:0:0:
261,179,115989,1,8,0:0:0:0:
261,179,116044,1,0,0:0:0:0:
261,179,116100,1,0,0:0:0:0:
261,183,116155,1,8,0:0:0:0:
261,179,116176,1,0,0:0:0:0:
448,64,116239,1,8,0:0:0:0:
250,180,116280,1,0,0:0:0:0:
261,179,116322,1,8,0:0:0:0:
261,179,116405,1,0,0:0:0:0:
261,183,116489,1,8,0:0:0:0:
261,179,116573,1,0,0:0:0:0:
261,179,116656,1,0,0:0:0:0:
254,178,116697,1,0,0:0:0:0:
261,179,116739,1,8,0:0:0:0:
261,183,116794,1,8,0:0:0:0:
261,179,116822,1,0,0:0:0:0:
261,179,116906,1,8,0:0:0:0:
258,173,116989,1,8,0:0:0:0:
261,179,117030,1,0,0:0:0:0:
261,179,117072,1,8,0:0:0:0:
261,183,117155,1,0,0:0:0:0:
261,179,117239,1,0,0:0:0:0:
261,179,117322,1,8,0:0:0:0:
259,173,117364,1,8,0:0:0:0:
261,179,117405,1,0,0:0:0:0:
271,187,117447,1,0,0:0:0:0:
261,179,117489,1,8,0:0:0:0:
261,183,117530,1,0,0:0:0:0:
261,179,117573,1,0,0:0:0:0:
261,183,117614,1,0,0:0:0:0:
261,179,117656,1,8,0:0:0:0:
253,166,117822,1,8,0:0:0:0:
275,178,117843,1,0,0:0:0:0:
261,179,117989,1,8,0:0:0:0:
261,179,118044,1,0,0:0:0:0:
272,179,118100,1,0,0:0:0:0:
261,183,118155,1,8,0:0:0:0:
258,170,118322,1,8,0:0:0:0:
261,179,118343,1,0,0:0:0:0:
261,183,118489,1,0,0:0:0:0:
272,168,118530,1,0,0:0:0:0:
258,170,118572,1,8,0:0:0:0:
261,179,118656,1,0,0:0:0:0:
261,179,118739,1,8,0:0:0:0:
274,170,118780,1,0,0:0:0:0:
261,183,118822,1,0,0:0:0:0:
261,179,118906,1,8,0:0:0:0:
261,179,118989,1,8,0:0:0:0:
261,179,119072,1,0,0:0:0:0:
261,179,119114,1,0,0:0:0:0:
261,183,119155,1,8,0:0:0:0:
260,190,119176,1,0,0:0:0:0:
261,179,119239,1,8,0:0:0:0:
260,189,119260,1,0,0:0:0:0:
261,179,119322,1,0,0:0:0:0:
261,179,119405,1,8,0:0:0:0:
260,189,119426,1,0,0:0:0:0:
261,183,119489,1,8,0:0:0:0:
260,189,119510,1,0,0:0:0:0:
261,179,119573,1,0,0:0:0:0:
261,179,119656,1,8,0:0:0:0:
261,179,119697,1,0,0:0:0:0:
260,170,119739,1,0,0:0:0:0:
260,165,119780,1,0,0:0:0:0:
261,183,119822,1,8,0:0:0:0:
260,165,119864,1,0,0:0:0:0:
261,179,119906,1,8,0:0:0:0:
260,164,119947,1,8,0:0:0:0:
261,179,119989,1,8,0:0:0:0:
269,168,120239,1,0,0:0:0:0:
269,167,120322,1,8,0:0:0:0:
269,167,120489,1,0,0:0:0:0:
269,167,120655,1,8,0:0:0:0:
270,167,120739,1,0,0:0:0:0:
269,168,120989,1,8,0:0:0:0:
258,161,121010,1,0,0:0:0:0:
269,167,121155,1,8,0:0:0:0:
269,167,121197,1,0,0:0:0:0:
274,164,121239,1,0,0:0:0:0:
274,163,121280,1,0,0:0:0:0:
269,167,121322,1,8,0:0:0:0:
64,64,121343,1,0,0:0:0:0:
270,167,121489,1,8,0:0:0:0:
269,168,121572,1,0,0:0:0:0:
269,168,121655,1,8,0:0:0:0:
269,167,121822,1,8,0:0:0:0:
260,167,121843,1,0,0:0:0:0:
269,167,121989,1,8,0:0:0:0:
264,165,122010,1,0,0:0:0:0:
270,167,122155,1,8,0:0:0:0:
270,167,122239,1,0,0:0:0:0:
269,168,122322,1,8,0:0:0:0:
269,167,122489,1,8,0:0:0:0:
265,159,122510,1,0,0:0:0:0:
259,174,122655,1,8,0:0:0:0:
265,158,122676,1,0,0:0:0:0:
258,174,122822,1,0,0:0:0:0:
258,174,122878,1,0,0:0:0:0:
271,179,122933,1,0,0:0:0:0:
258,174,122989,1,8,0:0:0:0:
264,183,123010,1,0,0:0:0:0:
257,173,123155,1,0,0:0:0:0:
257,173,123211,1,0,0:0:0:0:
271,174,123267,1,8,0:0:0:0:
259,174,123322,1,8,0:0:0:0:
259,174,123343,1,0,0:0:0:0:
258,174,123489,1,0,0:0:0:0:
258,174,123544,1,8,0:0:0:0:
266,177,123600,1,8,0:0:0:0:
258,174,123655,1,8,0:0:0:0:
262,170,123676,1,0,0:0:0:0:
259,177,123822,1,8,0:0:0:0:
257,173,123843,1,0,0:0:0:0:
257,173,123989,1,8,0:0:0:0:
268,179,124010,1,0,0:0:0:0:
268,179,124155,1,8,0:0:0:0:
268,179,124211,1,8,0:0:0:0:
258,174,124267,1,8,0:0:0:0:
268,179,124322,1,8,0:0:0:0:
261,165,124343,1,0,0:0:0:0:
268,179,124489,1,8,0:0:0:0:
268,179,124544,1,8,0:0:0:0:
270,174,124600,1,0,0:0:0:0:
268,179,124655,1,8,0:0:0:0:
262,169,124676,1,0,0:0:0:0:
268,179,124822,1,8,0:0:0:0:
268,179,124878,1,0,0:0:0:0:
264,182,124933,1,0,0:0:0:0:
268,179,124989,1,8,0:0:0:0:
262,168,125010,1,0,0:0:0:0:
268,179,125155,1,0,0:0:0:0:
268,179,125211,1,0,0:0:0:0:
268,179,125267,1,0,0:0:0:0:
265,171,125322,1,8,0:0:0:0:
270,174,125343,1,0,0:0:0:0:
262,168,125405,1,8,0:0:0:0:
268,179,125489,1,0,0:0:0:0:
268,179,125572,1,0,0:0:0:0:
268,179,125655,1,8,0:0:0:0:
264,182,125697,1,8,0:0:0:0:
261,183,125739,1,8,0:0:0:0:
261,179,125823,1,0,0:0:0:0:
261,179,125906,1,8,0:0:0:0:
256,187,125961,1,0,0:0:0:0:
261,179,126017,1,0,0:0:0:0:
261,183,126072,1,0,0:0:0:0:
257,181,126155,1,8,0:0:0:0:
261,179,126176,1,0,0:0:0:0:
261,179,126239,1,0,0:0:0:0:
261,179,126322,1,8,0:0:0:0:
261,183,126405,1,0,0:0:0:0:
264,182,126489,1,8,0:0:0:0:
261,179,126510,1,0,0:0:0:0:
261,179,126572,1,0,0:0:0:0:
64,64,126655,1,0,0:0:0:0:
448,64,126739,1,8,0:0:0:0:
261,179,126822,1,8,0:0:0:0:
264,179,126843,1,0,0:0:0:0:
261,179,126906,1,0,0:0:0:0:
255,181,126961,1,8,0:0:0:0:
261,179,127017,1,8,0:0:0:0:
261,183,127072,1,0,0:0:0:0:
262,185,127114,1,8,0:0:0:0:
261,183,127155,1,8,0:0:0:0:
254,157,127197,1,8,0:0:0:0:
261,179,127239,1,0,0:0:0:0:
261,179,127294,1,8,0:0:0:0:
249,168,127350,1,8,0:0:0:0:
261,183,127405,1,0,0:0:0:0:
261,179,127489,1,8,0:0:0:0:
262,184,127510,1,0,0:0:0:0:
260,174,127572,1,0,0:0:0:0:
261,179,127655,1,8,0:0:0:0:
261,183,127739,1,0,0:0:0:0:
256,183,127780,1,8,0:0:0:0:
261,179,127823,1,0,0:0:0:0:
261,179,127906,1,0,0:0:0:0:
261,183,127988,1,8,0:0:0:0:
261,189,128009,1,0,0:0:0:0:
261,179,128072,1,0,0:0:0:0:
261,183,128155,1,8,0:0:0:0:
261,179,128239,1,0,0:0:0:0:
261,179,128322,1,8,0:0:0:0:
261,179,128433,1,8,0:0:0:0:
64,64,128544,1,0,0:0:0:0:
261,179,128655,1,8,0:0:0:0:
64,64,128767,1,0,0:0:0:0:
261,179,128878,1,0,0:0:0:0:
261,179,128989,1,8,0:0:0:0:
261,183,129072,1,0,0:0:0:0:
261,179,129156,1,8,0:0:0:0:
261,183,129176,1,0,0:0:0:0:
261,179,129239,1,0,0:0:0:0:
261,179,129322,1,8,0:0:0:0:
261,179,129343,1,0,0:0:0:0:
261,183,129405,1,0,0:0:0:0:
261,179,129461,1,0,0:0:0:0:
252,187,129517,1,8,0:0:0:0:
261,179,129572,1,0,0:0:0:0:
261,179,129655,1,8,0:0:0:0:
261,183,129739,1,0,0:0:0:0:
261,179,129823,1,8,0:0:0:0:
261,183,129843,1,0,0:0:0:0:
261,179,129906,1,8,0:0:0:0:
264,183,129926,1,0,0:0:0:0:
261,179,129989,1,0,0:0:0:0:
261,183,130072,1,8,0:0:0:0:
257,197,130093,1,0,0:0:0:0:
261,179,130156,1,8,0:0:0:0:
261,183,130176,1,0,0:0:0:0:
261,179,130239,1,0,0:0:0:0:
269,193,130280,1,0,0:0:0:0:
261,179,130322,1,0,0:0:0:0:
261,183,130405,1,8,0:0:0:0:
255,194,130426,1,0,0:0:0:0:
261,179,130489,1,8,0:0:0:0:
269,182,130530,1,8,0:0:0:0:
261,179,130572,1,8,0:0:0:0:
261,179,130655,1,8,0:0:0:0:
262,189,130676,1,0,0:0:0:0:
264,194,130822,5,0,0:0:0:0:
264,186,130989,1,0,0:0:0:0:
258,184,131010,1,8,0:0:0:0:
264,194,131155,1,0,0:0:0:0:
264,186,131322,1,0,0:0:0:0:
269,175,131343,1,8,0:0:0:0:
264,194,131489,1,0,0:0:0:0:
264,186,131656,1,0,0:0:0:0:
270,174,131676,1,8,0:0:0:0:
264,194,131822,1,0,0:0:0:0:
264,186,131989,1,0,0:0:0:0:
250,187,132010,1,0,0:0:0:0:
264,194,132155,1,8,0:0:0:0:
264,186,132322,1,8,0:0:0:0:
241,186,132343,1,8,0:0:0:0:
264,194,132488,1,8,0:0:0:0:
264,186,132655,1,8,0:0:0:0:
241,187,132676,1,0,0:0:0:0:
264,194,132822,1,8,0:0:0:0:
264,186,132989,1,8,0:0:0:0:
241,187,133010,1,0,0:0:0:0:
264,194,133155,1,8,0:0:0:0:
264,186,133322,1,8,0:0:0:0:
241,187,133343,1,8,0:0:0:0:
264,194,133489,1,0,0:0:0:0:
264,186,133656,1,0,0:0:0:0:
240,188,133676,1,8,0:0:0:0:
264,194,133822,1,0,0:0:0:0:
264,186,133989,1,0,0:0:0:0:
267,177,134010,1,0,0:0:0:0:
264,194,134155,1,0,0:0:0:0:
264,186,134322,1,0,0:0:0:0:
240,190,134343,1,0,0:0:0:0:
264,194,134488,1,0,0:0:0:0:
264,186,134655,1,0,0:0:0:0:
240,191,134676,1,8,0:0:0:0:
264,194,134822,1,8,0:0:0:0:
264,186,134989,1,8,0:0:0:0:
267,180,135010,1,0,0:0:0:0:
264,194,135155,1,8,0:0:0:0:
264,186,135322,1,8,0:0:0:0:
267,182,135343,1,8,0:0:0:0:
264,194,135489,1,8,0:0:0:0:
264,186,135656,1,8,0:0:0:0:
240,191,135676,1,0,0:0:0:0:
264,194,135822,1,8,0:0:0:0:
264,186,135989,1,8,0:0:0:0:
240,192,136010,1,8,0:0:0:0:
264,194,136155,1,0,0:0:0:0:
264,186,136322,1,0,0:0:0:0:
269,184,136343,1,0,0:0:0:0:
264,194,136488,1,0,0:0:0:0:
264,186,136655,1,0,0:0:0:0:
269,184,136676,1,8,0:0:0:0:
264,194,136822,1,0,0:0:0:0:
264,186,136989,1,0,0:0:0:0:
269,186,137010,1,8,0:0:0:0:
264,194,137155,1,0,0:0:0:0:
264,186,137322,1,0,0:0:0:0:
269,188,137343,1,8,0:0:0:0:
264,194,137489,1,8,0:0:0:0:
264,186,137656,1,8,0:0:0:0:
270,191,137676,1,8,0:0:0:0:
264,194,137822,1,8,0:0:0:0:
264,186,137989,1,8,0:0:0:0:
270,191,138010,1,0,0:0:0:0:
264,194,138155,1,8,0:0:0:0:
264,186,138322,1,8,0:0:0:0:
270,191,138343,1,0,0:0:0:0:
264,194,138488,1,8,0:0:0:0:
264,186,138655,1,8,0:0:0:0:
270,192,138676,1,8,0:0:0:0:
264,194,138822,1,0,0:0:0:0:
264,186,138989,1,0,0:0:0:0:
270,194,139010,1,8,0:0:0:0:
264,194,139155,1,0,0:0:0:0:
264,186,139322,1,0,0:0:0:0:
264,186,139343,1,0,0:0:0:0:
264,194,139489,1,0,0:0:0:0:
264,186,139656,1,0,0:0:0:0:
264,186,139676,1,8,0:0:0:0:
264,194,139822,1,0,0:0:0:0:
264,186,139989,1,0,0:0:0:0:
264,186,140010,1,8,0:0:0:0:
264,194,140155,1,8,0:0:0:0:
264,186,140322,1,8,0:0:0:0:
264,186,140343,1,8,0:0:0:0:
264,194,140488,1,8,0:0:0:0:
264,186,140655,1,8,0:0:0:0:
264,186,140676,1,8,0:0:0:0:
264,194,140822,1,8,0:0:0:0:
264,186,140989,1,8,0:0:0:0:
264,186,141010,1,8,0:0:0:0:
264,194,141155,1,8,0:0:0:0:
264,186,141322,1,8,0:0:0:0:
262,190,141343,1,0,0:0:0:0:
64,64,141572,1,0,0:0:0:0:
264,186,141655,1,8,0:0:0:0:
264,186,141822,1,0,0:0:0:0:
264,186,141989,1,8,0:0:0:0:
268,178,142072,1,0,0:0:0:0:
269,186,142322,1,8,0:0:0:0:
265,197,142343,1,0,0:0:0:0:
264,186,142572,1,0,0:0:0:0:
264,186,142655,1,8,0:0:0:0:
262,178,142822,1,0,0:0:0:0:
269,186,142989,1,8,0:0:0:0:
259,179,143072,1,0,0:0:0:0:
269,186,143322,1,8,0:0:0:0:
267,173,143343,1,0,0:0:0:0:
269,161,143572,1,0,0:0:0:0:
269,186,143655,1,8,0:0:0:0:
269,161,143822,1,0,0:0:0:0:
264,186,143989,1,8,0:0:0:0:
262,190,144010,1,0,0:0:0:0:
258,186,144239,1,0,0:0:0:0:
264,186,144322,1,8,0:0:0:0:
264,186,144489,1,0,0:0:0:0:
264,186,144656,1,8,0:0:0:0:
268,178,144739,1,0,0:0:0:0:
269,186,144989,1,8,0:0:0:0:
265,197,145010,1,0,0:0:0:0:
264,186,145239,1,0,0:0:0:0:
264,186,145322,1,8,0:0:0:0:
262,178,145489,1,0,0:0:0:0:
269,186,145656,1,8,0:0:0:0:
259,179,145739,1,0,0:0:0:0:
269,186,145989,1,8,0:0:0:0:
267,173,146010,1,0,0:0:0:0:
269,161,146239,1,0,0:0:0:0:
269,186,146322,1,8,0:0:0:0:
269,161,146489,1,0,0:0:0:0:
264,186,146655,1,8,0:0:0:0:
262,190,146676,1,0,0:0:0:0:
258,186,146905,1,0,0:0:0:0:
264,186,146988,1,8,0:0:0:0:
264,186,147155,1,0,0:0:0:0:
264,186,147322,1,8,0:0:0:0:
268,178,147405,1,0,0:0:0:0:
269,186,147655,1,8,0:0:0:0:
265,197,147676,1,0,0:0:0:0:
264,186,147905,1,0,0:0:0:0:
264,186,147988,1,8,0:0:0:0:
262,178,148155,1,0,0:0:0:0:
269,186,148322,1,8,0:0:0:0:
259,179,148405,1,0,0:0:0:0:
269,186,148655,1,8,0:0:0:0:
267,173,148676,1,0,0:0:0:0:
269,161,148905,1,0,0:0:0:0:
269,186,148988,1,8,0:0:0:0:
269,161,149155,1,0,0:0:0:0:
264,186,149322,1,8,0:0:0:0:
262,190,149343,1,0,0:0:0:0:
258,186,149572,1,0,0:0:0:0:
264,186,149655,1,8,0:0:0:0:
264,186,149822,1,0,0:0:0:0:
264,186,149989,1,8,0:0:0:0:
268,178,150072,1,0,0:0:0:0:
269,186,150322,1,8,0:0:0:0:
265,197,150343,1,0,0:0:0:0:
264,186,150572,1,0,0:0:0:0:
264,186,150655,1,8,0:0:0:0:
262,178,150822,1,0,0:0:0:0:
269,186,150989,1,8,0:0:0:0:
259,179,151072,1,0,0:0:0:0:
269,186,151322,1,8,0:0:0:0:
267,173,151343,1,0,0:0:0:0:
269,161,151572,1,0,0:0:0:0:
269,186,151655,1,8,0:0:0:0:
269,161,151822,1,0,0:0:0:0:
264,186,151989,1,8,0:0:0:0:
262,190,152010,1,0,0:0:0:0:
258,184,152155,1,8,0:0:0:0:
258,186,152239,1,0,0:0:0:0:
264,186,152322,1,8,0:0:0:0:
264,186,152489,1,8,0:0:0:0:
258,183,152510,1,0,0:0:0:0:
264,186,152656,1,8,0:0:0:0:
268,178,152739,1,0,0:0:0:0:
263,177,152822,1,8,0:0:0:0:
269,186,152989,1,8,0:0:0:0:
265,197,153010,1,0,0:0:0:0:
448,64,153155,1,8,0:0:0:0:
264,186,153197,1,0,0:0:0:0:
264,186,153239,1,0,0:0:0:0:
264,186,153280,1,0,0:0:0:0:
264,186,153322,1,8,0:0:0:0:
268,172,153343,1,0,0:0:0:0:
263,164,153489,1,8,0:0:0:0:
262,178,153510,1,0,0:0:0:0:
269,186,153656,1,8,0:0:0:0:
259,179,153739,1,0,0:0:0:0:
263,191,153822,1,8,0:0:0:0:
269,186,153989,1,8,0:0:0:0:
267,173,154010,1,0,0:0:0:0:
265,182,154155,1,8,0:0:0:0:
269,161,154239,1,0,0:0:0:0:
269,186,154322,1,8,0:0:0:0:
265,182,154490,1,8,0:0:0:0:
269,161,154510,1,0,0:0:0:0:
264,186,154655,1,8,0:0:0:0:
262,190,154676,1,0,0:0:0:0:
258,184,154821,1,8,0:0:0:0:
258,186,154905,1,0,0:0:0:0:
264,186,154988,1,8,0:0:0:0:
264,186,155155,1,8,0:0:0:0:
258,183,155176,1,0,0:0:0:0:
264,186,155322,1,8,0:0:0:0:
268,178,155405,1,0,0:0:0:0:
263,177,155488,1,8,0:0:0:0:
269,186,155655,1,8,0:0:0:0:
265,197,155676,1,0,0:0:0:0:
448,64,155821,1,8,0:0:0:0:
264,186,155863,1,0,0:0:0:0:
264,186,155905,1,0,0:0:0:0:
264,186,155946,1,0,0:0:0:0:
264,186,155988,1,8,0:0:0:0:
268,172,156009,1,0,0:0:0:0:
263,164,156155,1,8,0:0:0:0:
262,178,156176,1,0,0:0:0:0:
269,186,156322,1,8,0:0:0:0:
259,179,156405,1,0,0:0:0:0:
263,191,156488,1,8,0:0:0:0:
269,186,156655,1,8,0:0:0:0:
267,173,156676,1,0,0:0:0:0:
265,182,156821,1,8,0:0:0:0:
269,161,156905,1,0,0:0:0:0:
269,186,156988,1,8,0:0:0:0:
265,182,157156,1,8,0:0:0:0:
269,161,157176,1,0,0:0:0:0:
260,174,157322,1,8,0:0:0:0:
260,174,157343,1,0,0:0:0:0:
260,172,157489,1,0,0:0:0:0:
256,182,157655,1,0,0:0:0:0:
256,182,157739,1,0,0:0:0:0:
257,181,157822,1,0,0:0:0:0:
257,181,157905,1,8,0:0:0:0:
256,182,157989,1,0,0:0:0:0:
257,185,158030,1,8,0:0:0:0:
256,182,158073,1,0,0:0:0:0:
257,181,158155,1,8,0:0:0:0:
257,181,158239,1,8,0:0:0:0:
256,182,158322,1,0,0:0:0:0:
256,182,158406,1,0,0:0:0:0:
257,181,158489,1,8,0:0:0:0:
257,181,158572,1,8,0:0:0:0:
256,182,158655,1,8,0:0:0:0:
256,182,158739,1,0,0:0:0:0:
257,181,158822,1,0,0:0:0:0:
257,181,158905,1,0,0:0:0:0:
256,182,158989,1,8,0:0:0:0:
256,182,159030,1,8,0:0:0:0:
257,181,159072,1,0,0:0:0:0:
257,181,159114,1,0,0:0:0:0:
256,182,159155,1,0,0:0:0:0:
256,182,159239,1,0,0:0:0:0:
256,182,159322,1,8,0:0:0:0:
256,182,159364,1,8,0:0:0:0:
256,182,159405,1,8,0:0:0:0:
256,182,159447,1,0,0:0:0:0:
257,181,159489,1,0,0:0:0:0:
256,188,159572,1,0,0:0:0:0:
256,182,159655,1,8,0:0:0:0:
256,182,159697,1,8,0:0:0:0:
249,179,159739,1,8,0:0:0:0:
257,181,159780,1,8,0:0:0:0:
257,181,159822,1,0,0:0:0:0:
251,177,159905,1,0,0:0:0:0:
256,182,159989,1,8,0:0:0:0:
256,182,160030,1,0,0:0:0:0:
257,181,160072,1,0,0:0:0:0:
256,182,160155,1,8,0:0:0:0:
448,64,160197,1,8,0:0:0:0:
257,181,160239,1,0,0:0:0:0:
256,182,160322,1,8,0:0:0:0:
64,64,160364,1,0,0:0:0:0:
256,182,160406,1,0,0:0:0:0:
257,181,160489,1,0,0:0:0:0:
448,64,160530,1,8,0:0:0:0:
64,64,160572,1,0,0:0:0:0:
448,64,160655,1,8,0:0:0:0:
256,182,160697,1,0,0:0:0:0:
257,181,160739,1,8,0:0:0:0:
256,182,160822,1,8,0:0:0:0:
249,184,160905,1,0,0:0:0:0:
256,182,160989,1,8,0:0:0:0:
448,64,161072,1,8,0:0:0:0:
64,64,161156,1,0,0:0:0:0:
64,64,161239,1,0,0:0:0:0:
256,182,161322,1,8,0:0:0:0:
64,64,161405,1,0,0:0:0:0:
448,64,161489,1,8,0:0:0:0:
257,181,161544,1,0,0:0:0:0:
64,64,161600,1,0,0:0:0:0:
256,182,161655,1,8,0:0:0:0:
256,182,161711,1,0,0:0:0:0:
257,181,161767,1,0,0:0:0:0:
256,167,161822,1,8,0:0:0:0:
64,64,161878,1,0,0:0:0:0:
64,64,161933,1,0,0:0:0:0:
256,182,161989,1,8,0:0:0:0:
64,64,162044,1,0,0:0:0:0:
261,177,162100,1,8,0:0:0:0:
257,181,162156,1,0,0:0:0:0:
271,158,162197,1,0,0:0:0:0:
257,181,162239,1,0,0:0:0:0:
259,172,162280,1,0,0:0:0:0:
256,182,162322,1,8,0:0:0:0:
266,169,162364,1,8,0:0:0:0:
256,182,162406,1,8,0:0:0:0:
266,165,162447,1,8,0:0:0:0:
257,181,162489,1,0,0:0:0:0:
266,163,162530,1,0,0:0:0:0:
257,181,162572,1,0,0:0:0:0:
266,163,162614,1,0,0:0:0:0:
256,182,162655,1,8,0:0:0:0:
265,164,162676,1,0,0:0:0:0:
261,177,162822,5,0,0:0:0:0:
264,166,162905,1,0,0:0:0:0:
263,165,162989,1,8,0:0:0:0:
260,167,163155,1,0,0:0:0:0:
260,159,163322,1,8,0:0:0:0:
260,158,163405,1,0,0:0:0:0:
253,165,163489,1,0,0:0:0:0:
264,166,163655,1,8,0:0:0:0:
264,166,163676,1,0,0:0:0:0:
262,161,163822,1,0,0:0:0:0:
262,161,163864,1,0,0:0:0:0:
262,161,163905,1,0,0:0:0:0:
262,161,163947,1,0,0:0:0:0:
260,159,163989,1,8,0:0:0:0:
260,159,164010,1,0,0:0:0:0:
270,161,164155,1,8,0:0:0:0:
260,158,164239,1,0,0:0:0:0:
267,159,164322,1,8,0:0:0:0:
267,159,164489,1,8,0:0:0:0:
267,159,164510,1,0,0:0:0:0:
267,159,164655,1,8,0:0:0:0:
267,159,164676,1,0,0:0:0:0:
270,161,164822,1,8,0:0:0:0:
270,161,164905,1,0,0:0:0:0:
267,159,164989,1,8,0:0:0:0:
267,159,165155,1,8,0:0:0:0:
267,159,165176,1,0,0:0:0:0:
256,182,165322,1,8,0:0:0:0:
265,164,165343,1,0,0:0:0:0:
253,158,165489,1,8,0:0:0:0:
264,166,165572,1,0,0:0:0:0:
263,165,165656,1,8,0:0:0:0:
260,167,165822,1,0,0:0:0:0:
260,159,165989,1,8,0:0:0:0:
260,158,166072,1,0,0:0:0:0:
253,158,166155,1,8,0:0:0:0:
264,166,166322,1,8,0:0:0:0:
264,166,166343,1,0,0:0:0:0:
262,161,166489,1,0,0:0:0:0:
262,161,166531,1,0,0:0:0:0:
448,64,166572,1,8,0:0:0:0:
262,161,166614,1,0,0:0:0:0:
260,159,166656,1,8,0:0:0:0:
260,159,166677,1,0,0:0:0:0:
256,147,166739,1,8,0:0:0:0:
270,161,166822,1,8,0:0:0:0:
260,158,166906,1,0,0:0:0:0:
267,159,166989,1,8,0:0:0:0:
267,159,167156,1,8,0:0:0:0:
267,159,167177,1,0,0:0:0:0:
267,159,167322,1,8,0:0:0:0:
267,159,167343,1,0,0:0:0:0:
270,161,167489,1,8,0:0:0:0:
270,161,167572,1,0,0:0:0:0:
267,159,167656,1,8,0:0:0:0:
267,159,167822,1,8,0:0:0:0:
267,159,167843,1,0,0:0:0:0:
256,182,167989,1,8,0:0:0:0:
265,164,168010,1,0,0:0:0:0:
256,147,168155,1,8,0:0:0:0:
264,166,168239,1,0,0:0:0:0:
263,165,168323,1,8,0:0:0:0:
260,167,168489,1,0,0:0:0:0:
260,159,168656,1,8,0:0:0:0:
260,158,168739,1,0,0:0:0:0:
256,147,168822,1,0,0:0:0:0:
264,166,168989,1,8,0:0:0:0:
264,166,169010,1,0,0:0:0:0:
448,64,169156,1,8,0:0:0:0:
262,161,169198,1,0,0:0:0:0:
262,161,169239,1,0,0:0:0:0:
262,161,169281,1,0,0:0:0:0:
260,159,169323,1,8,0:0:0:0:
260,159,169344,1,0,0:0:0:0:
267,155,169405,1,0,0:0:0:0:
270,161,169489,1,8,0:0:0:0:
260,158,169573,1,0,0:0:0:0:
267,159,169656,1,8,0:0:0:0:
267,159,169823,1,8,0:0:0:0:
267,159,169844,1,0,0:0:0:0:
267,159,169989,1,8,0:0:0:0:
267,159,170010,1,0,0:0:0:0:
270,161,170156,1,8,0:0:0:0:
270,161,170239,1,0,0:0:0:0:
267,159,170323,1,8,0:0:0:0:
267,159,170489,1,8,0:0:0:0:
267,159,170510,1,0,0:0:0:0:
256,182,170655,1,8,0:0:0:0:
265,164,170676,1,0,0:0:0:0:
266,146,170822,1,0,0:0:0:0:
264,166,170905,1,0,0:0:0:0:
263,165,170989,1,8,0:0:0:0:
260,167,171155,1,0,0:0:0:0:
260,159,171322,1,8,0:0:0:0:
260,158,171405,1,0,0:0:0:0:
266,146,171489,1,0,0:0:0:0:
266,146,171572,1,0,0:0:0:0:
264,166,171655,1,8,0:0:0:0:
264,166,171676,1,0,0:0:0:0:
265,142,171822,1,8,0:0:0:0:
264,149,171905,1,0,0:0:0:0:
264,166,171989,1,8,0:0:0:0:
264,166,172010,1,0,0:0:0:0:
265,158,172072,1,8,0:0:0:0:
265,156,172155,1,8,0:0:0:0:
265,156,172239,1,8,0:0:0:0:
264,166,172322,1,8,0:0:0:0:
264,166,172343,1,0,0:0:0:0:
267,172,172405,1,0,0:0:0:0:
267,172,172489,1,8,0:0:0:0:
259,159,172572,1,0,0:0:0:0:
264,166,172655,1,8,0:0:0:0:
264,166,172676,1,0,0:0:0:0:
256,165,172739,1,8,0:0:0:0:
256,165,172822,1,8,0:0:0:0:
256,165,172905,1,0,0:0:0:0:
264,166,172989,1,8,0:0:0:0:
264,166,173010,1,0,0:0:0:0:
256,165,173072,1,0,0:0:0:0:
256,165,173155,1,0,0:0:0:0:
256,165,173239,1,0,0:0:0:0:
256,182,173322,1,8,0:0:0:0:
265,164,173343,1,0,0:0:0:0:
256,165,173489,1,0,0:0:0:0:
264,166,173572,1,0,0:0:0:0:
263,165,173656,1,8,0:0:0:0:
260,167,173822,1,0,0:0:0:0:
260,159,173989,1,8,0:0:0:0:
260,158,174072,1,0,0:0:0:0:
256,165,174155,1,0,0:0:0:0:
264,166,174322,1,8,0:0:0:0:
264,166,174343,1,0,0:0:0:0:
262,161,174489,1,0,0:0:0:0:
448,64,174531,1,8,0:0:0:0:
262,161,174572,1,0,0:0:0:0:
448,64,174614,1,8,0:0:0:0:
260,159,174656,1,8,0:0:0:0:
260,159,174677,1,0,0:0:0:0:
270,161,174822,1,8,0:0:0:0:
260,158,174906,1,0,0:0:0:0:
267,159,174989,1,8,0:0:0:0:
267,159,175156,1,8,0:0:0:0:
267,159,175177,1,0,0:0:0:0:
267,159,175322,1,8,0:0:0:0:
267,159,175343,1,0,0:0:0:0:
270,161,175489,1,8,0:0:0:0:
270,161,175572,1,0,0:0:0:0:
267,159,175656,1,8,0:0:0:0:
267,159,175822,1,8,0:0:0:0:
267,159,175843,1,0,0:0:0:0:
256,182,175989,1,8,0:0:0:0:
265,164,176010,1,0,0:0:0:0:
256,166,176155,1,0,0:0:0:0:
264,166,176239,1,0,0:0:0:0:
263,165,176323,1,8,0:0:0:0:
260,167,176489,1,0,0:0:0:0:
260,159,176656,1,8,0:0:0:0:
260,158,176739,1,0,0:0:0:0:
264,162,176822,1,0,0:0:0:0:
264,162,176905,1,0,0:0:0:0:
264,166,176989,1,8,0:0:0:0:
264,166,177010,1,0,0:0:0:0:
448,64,177156,1,8,0:0:0:0:
448,64,177198,1,8,0:0:0:0:
262,161,177239,1,0,0:0:0:0:
262,161,177281,1,0,0:0:0:0:
260,159,177323,1,8,0:0:0:0:
260,159,177344,1,0,0:0:0:0:
263,162,177405,1,8,0:0:0:0:
270,161,177489,1,8,0:0:0:0:
260,158,177573,1,0,0:0:0:0:
267,159,177656,1,8,0:0:0:0:
262,161,177739,1,0,0:0:0:0:
267,159,177823,1,8,0:0:0:0:
267,159,177844,1,0,0:0:0:0:
267,159,177989,1,8,0:0:0:0:
267,159,178010,1,0,0:0:0:0:
270,161,178156,1,8,0:0:0:0:
270,161,178239,1,0,0:0:0:0:
267,159,178323,1,8,0:0:0:0:
267,159,178489,1,8,0:0:0:0:
267,159,178510,1,0,0:0:0:0:
256,182,178655,1,8,0:0:0:0:
265,164,178676,1,0,0:0:0:0:
263,163,178822,1,0,0:0:0:0:
264,166,178905,1,0,0:0:0:0:
263,165,178989,1,8,0:0:0:0:
260,167,179155,1,0,0:0:0:0:
260,159,179322,1,8,0:0:0:0:
260,158,179405,1,0,0:0:0:0:
263,163,179489,1,8,0:0:0:0:
264,166,179655,1,8,0:0:0:0:
264,166,179676,1,0,0:0:0:0:
262,161,179822,1,0,0:0:0:0:
262,161,179864,1,0,0:0:0:0:
448,64,179905,1,8,0:0:0:0:
262,161,179947,1,0,0:0:0:0:
260,159,179989,1,8,0:0:0:0:
260,159,180010,1,0,0:0:0:0:
260,159,180072,1,8,0:0:0:0:
270,161,180155,1,8,0:0:0:0:
260,158,180239,1,0,0:0:0:0:
267,159,180322,1,8,0:0:0:0:
267,159,180489,1,8,0:0:0:0:
267,159,180510,1,0,0:0:0:0:
267,159,180655,1,8,0:0:0:0:
267,159,180676,1,0,0:0:0:0:
270,161,180822,1,8,0:0:0:0:
270,161,180905,1,0,0:0:0:0:
267,159,180989,1,8,0:0:0:0:
267,159,181155,1,8,0:0:0:0:
267,159,181176,1,0,0:0:0:0:
262,162,181322,1,8,0:0:0:0:
262,163,181378,1,0,0:0:0:0:
272,166,181433,1,0,0:0:0:0:
263,153,181489,1,8,0:0:0:0:
263,153,181544,1,0,0:0:0:0:
264,162,181600,1,0,0:0:0:0:
262,162,181655,1,8,0:0:0:0:
262,163,181711,1,8,0:0:0:0:
258,160,181767,1,0,0:0:0:0:
258,157,181822,1,0,0:0:0:0:
258,155,181878,1,8,0:0:0:0:
258,154,181933,1,0,0:0:0:0:
262,162,181989,1,8,0:0:0:0:
262,163,182044,1,0,0:0:0:0:
262,162,182100,1,8,0:0:0:0:
262,163,182155,1,8,0:0:0:0:
259,162,182211,1,8,0:0:0:0:
259,162,182267,1,0,0:0:0:0:
262,162,182322,1,8,0:0:0:0:
262,163,182378,1,0,0:0:0:0:
282,147,182433,1,0,0:0:0:0:
275,159,182489,1,8,0:0:0:0:
274,158,182544,1,8,0:0:0:0:
274,158,182600,1,0,0:0:0:0:
262,162,182655,1,8,0:0:0:0:
262,163,182711,1,0,0:0:0:0:
266,153,182767,1,0,0:0:0:0:
266,153,182822,1,8,0:0:0:0:
266,153,182878,1,0,0:0:0:0:
266,153,182933,1,0,0:0:0:0:
262,162,182989,1,8,0:0:0:0:
262,163,183044,1,0,0:0:0:0:
267,147,183100,1,8,0:0:0:0:
267,146,183155,1,8,0:0:0:0:
267,145,183211,1,0,0:0:0:0:
267,145,183267,1,8,0:0:0:0:
262,162,183322,1,8,0:0:0:0:
262,163,183378,1,0,0:0:0:0:
268,143,183433,1,0,0:0:0:0:
268,143,183489,1,8,0:0:0:0:
268,143,183544,1,0,0:0:0:0:
268,142,183600,1,0,0:0:0:0:
262,162,183655,1,8,0:0:0:0:
262,163,183711,1,0,0:0:0:0:
269,146,183767,1,8,0:0:0:0:
269,146,183822,1,0,0:0:0:0:
267,147,183878,1,0,0:0:0:0:
267,146,183933,1,0,0:0:0:0:
262,162,183989,1,8,0:0:0:0:
283,174,184010,1,0,0:0:0:0:
260,159,184239,5,8,0:0:0:0:
263,157,184260,1,0,0:0:0:0:
265,151,184489,1,8,0:0:0:0:
253,155,184510,1,0,0:0:0:0:
272,158,184739,1,8,0:0:0:0:
253,156,184760,1,0,0:0:0:0:
272,158,184989,1,0,0:0:0:0:
262,154,185010,1,8,0:0:0:0:
262,161,185239,1,0,0:0:0:0:
280,162,185260,1,8,0:0:0:0:
271,166,185489,1,0,0:0:0:0:
280,162,185510,1,8,0:0:0:0:
265,172,185739,1,0,0:0:0:0:
269,170,185760,1,8,0:0:0:0:
277,167,185822,1,0,0:0:0:0:
270,167,185989,1,8,0:0:0:0:
267,172,186044,1,0,0:0:0:0:
267,172,186100,1,0,0:0:0:0:
277,163,186155,1,8,0:0:0:0:
271,166,186239,1,0,0:0:0:0:
265,172,186322,1,0,0:0:0:0:
270,167,186343,1,8,0:0:0:0:
265,172,186405,1,0,0:0:0:0:
270,167,186426,1,8,0:0:0:0:
265,172,186489,1,0,0:0:0:0:
266,165,186572,1,0,0:0:0:0:
269,177,186593,1,8,0:0:0:0:
270,167,186655,1,0,0:0:0:0:
270,167,186676,1,8,0:0:0:0:
260,163,186739,1,0,0:0:0:0:
270,172,186822,1,0,0:0:0:0:
260,164,186905,1,8,0:0:0:0:
270,172,186989,1,0,0:0:0:0:
261,164,187072,1,0,0:0:0:0:
269,172,187155,1,0,0:0:0:0:
265,178,187239,1,8,0:0:0:0:
269,172,187322,1,0,0:0:0:0:
265,172,187405,1,8,0:0:0:0:
270,172,187489,1,0,0:0:0:0:
265,172,187510,1,8,0:0:0:0:
263,184,187544,1,0,0:0:0:0:
279,179,187600,1,0,0:0:0:0:
276,186,187655,1,8,0:0:0:0:
272,188,187739,1,8,0:0:0:0:
269,172,187822,1,0,0:0:0:0:
269,186,187878,1,0,0:0:0:0:
448,64,187933,1,8,0:0:0:0:
269,172,187989,1,0,0:0:0:0:
270,178,188072,1,0,0:0:0:0:
270,183,188093,1,8,0:0:0:0:
271,179,188155,1,0,0:0:0:0:
270,183,188176,1,8,0:0:0:0:
270,172,188239,1,8,0:0:0:0:
287,186,188322,1,0,0:0:0:0:
273,179,188405,1,0,0:0:0:0:
273,183,188489,1,0,0:0:0:0:
282,187,188572,1,0,0:0:0:0:
274,192,188593,1,8,0:0:0:0:
273,183,188655,1,8,0:0:0:0:
269,190,188711,1,0,0:0:0:0:
448,64,188767,1,8,0:0:0:0:
266,191,188822,1,0,0:0:0:0:
264,181,188843,1,8,0:0:0:0:
276,195,188905,1,0,0:0:0:0:
274,186,188989,1,8,0:0:0:0:
276,193,189072,1,8,0:0:0:0:
292,190,189155,1,0,0:0:0:0:
267,193,189239,1,8,0:0:0:0:
288,200,189322,1,0,0:0:0:0:
275,197,189343,1,8,0:0:0:0:
270,197,189405,1,8,0:0:0:0:
285,193,189489,1,0,0:0:0:0:
269,198,189572,1,0,0:0:0:0:
285,193,189655,1,8,0:0:0:0:
267,197,189739,1,0,0:0:0:0:
285,193,189822,1,8,0:0:0:0:
267,193,189905,1,0,0:0:0:0:
285,193,189989,1,0,0:0:0:0:
264,193,190072,1,8,0:0:0:0:
285,193,190155,1,8,0:0:0:0:
276,197,190211,1,0,0:0:0:0:
277,197,190267,1,0,0:0:0:0:
285,193,190322,1,8,0:0:0:0:
448,64,190405,1,8,0:0:0:0:
64,64,190489,1,0,0:0:0:0:
64,64,190572,1,0,0:0:0:0:
64,64,190655,1,0,0:0:0:0:
279,197,190739,1,8,0:0:0:0:
284,194,190822,1,0,0:0:0:0:
278,196,190843,1,8,0:0:0:0:
285,193,190905,1,0,0:0:0:0:
276,197,190989,1,0,0:0:0:0:
285,193,191072,1,8,0:0:0:0:
269,191,191155,1,0,0:0:0:0:
277,194,191176,1,8,0:0:0:0:
277,194,191239,1,0,0:0:0:0:
278,196,191322,1,8,0:0:0:0:
271,202,191405,1,0,0:0:0:0:
279,197,191489,1,0,0:0:0:0:
285,190,191510,1,8,0:0:0:0:
280,190,191572,1,8,0:0:0:0:
276,197,191655,1,0,0:0:0:0:
278,209,191711,1,0,0:0:0:0:
448,64,191767,1,8,0:0:0:0:
277,194,191822,1,0,0:0:0:0:
275,191,191843,1,8,0:0:0:0:
275,191,191905,1,8,0:0:0:0:
277,194,191989,1,0,0:0:0:0:
277,194,192010,1,8,0:0:0:0:
278,196,192072,1,0,0:0:0:0:
280,199,192155,1,0,0:0:0:0:
279,197,192239,1,8,0:0:0:0:
64,64,192280,1,0,0:0:0:0:
448,64,192322,1,8,0:0:0:0:
276,197,192405,1,8,0:0:0:0:
64,64,192447,1,0,0:0:0:0:
448,64,192489,1,8,0:0:0:0:
64,64,192544,1,0,0:0:0:0:
64,64,192600,1,0,0:0:0:0:
448,64,192655,1,8,0:0:0:0:
271,183,192739,1,0,0:0:0:0:
280,199,192822,1,0,0:0:0:0:
271,180,192843,1,8,0:0:0:0:
280,199,192905,1,0,0:0:0:0:
281,200,192989,1,8,0:0:0:0:
281,202,193072,1,8,0:0:0:0:
260,209,193155,1,0,0:0:0:0:
272,206,193239,1,0,0:0:0:0:
281,209,193322,1,0,0:0:0:0:
280,199,193343,1,8,0:0:0:0:
269,184,193378,1,0,0:0:0:0:
271,189,193433,1,0,0:0:0:0:
272,191,193489,1,8,0:0:0:0:
271,190,193544,1,0,0:0:0:0:
271,190,193600,1,0,0:0:0:0:
271,190,193655,1,8,0:0:0:0:
271,190,193711,1,0,0:0:0:0:
271,190,193767,1,0,0:0:0:0:
271,190,193822,1,8,0:0:0:0:
271,190,193905,1,0,0:0:0:0:
269,195,193926,1,8,0:0:0:0:
274,200,193989,1,8,0:0:0:0:
270,187,194072,1,0,0:0:0:0:
275,201,194093,1,8,0:0:0:0:
275,189,194155,1,0,0:0:0:0:
278,204,194176,1,8,0:0:0:0:
271,189,194211,1,0,0:0:0:0:
272,191,194267,1,0,0:0:0:0:
271,190,194322,1,8,0:0:0:0:
264,191,194405,1,0,0:0:0:0:
271,190,194426,1,8,0:0:0:0:
271,199,194489,1,0,0:0:0:0:
271,199,194530,1,0,0:0:0:0:
271,199,194572,1,0,0:0:0:0:
271,199,194614,1,0,0:0:0:0:
271,199,194655,1,0,0:0:0:0:
284,201,194676,1,8,0:0:0:0:
258,211,194739,1,0,0:0:0:0:
258,212,194822,1,0,0:0:0:0:
274,196,194905,1,8,0:0:0:0:
274,196,194989,1,0,0:0:0:0:
259,211,195072,1,8,0:0:0:0:
275,200,195155,1,8,0:0:0:0:
274,203,195239,1,8,0:0:0:0:
274,194,195322,1,0,0:0:0:0:
274,194,195405,1,8,0:0:0:0:
277,215,195489,1,8,0:0:0:0:
277,216,195572,1,8,0:0:0:0:
275,191,195655,1,0,0:0:0:0:
274,196,195676,1,8,0:0:0:0:
278,219,195739,1,8,0:0:0:0:
278,184,195822,1,0,0:0:0:0:
278,187,195864,1,0,0:0:0:0:
278,187,195905,1,0,0:0:0:0:
278,187,195947,1,0,0:0:0:0:
278,187,195989,1,0,0:0:0:0:
278,187,196010,1,8,0:0:0:0:
273,175,196072,1,0,0:0:0:0:
282,201,196155,1,0,0:0:0:0:
278,188,196239,1,8,0:0:0:0:
276,181,196322,1,0,0:0:0:0:
273,184,196405,1,8,0:0:0:0:
278,184,196489,1,0,0:0:0:0:
278,184,196510,1,8,0:0:0:0:
272,177,196572,1,0,0:0:0:0:
276,179,196655,1,0,0:0:0:0:
276,179,196676,1,8,0:0:0:0:
272,176,196739,1,8,0:0:0:0:
282,201,196822,1,0,0:0:0:0:
278,188,196906,1,8,0:0:0:0:
276,181,196989,1,0,0:0:0:0:
271,174,197072,1,0,0:0:0:0:
278,184,197156,1,0,0:0:0:0:
278,184,197177,1,8,0:0:0:0:
271,173,197239,1,8,0:0:0:0:
274,196,197322,1,0,0:0:0:0:
272,186,197343,1,8,0:0:0:0:
276,179,197405,1,0,0:0:0:0:
279,179,197489,1,0,0:0:0:0:
275,200,197572,1,8,0:0:0:0:
277,176,197655,1,0,0:0:0:0:
274,194,197739,1,0,0:0:0:0:
274,194,197822,1,8,0:0:0:0:
274,173,197905,1,0,0:0:0:0:
267,195,197989,1,0,0:0:0:0:
269,198,198010,1,8,0:0:0:0:
274,173,198072,1,8,0:0:0:0:
274,196,198155,1,0,0:0:0:0:
274,173,198239,1,0,0:0:0:0:
270,194,198322,1,8,0:0:0:0:
274,181,198405,1,0,0:0:0:0:
274,184,198489,1,8,0:0:0:0:
274,185,198572,1,0,0:0:0:0:
274,194,198614,1,0,0:0:0:0:
275,188,198655,1,8,0:0:0:0:
276,193,198739,1,0,0:0:0:0:
271,198,198760,1,8,0:0:0:0:
276,193,198822,1,0,0:0:0:0:
270,195,198843,1,8,0:0:0:0:
277,188,198905,1,0,0:0:0:0:
277,188,198989,1,0,0:0:0:0:
278,190,199072,1,8,0:0:0:0:
278,190,199155,1,8,0:0:0:0:
278,190,199239,1,0,0:0:0:0:
269,193,199260,1,8,0:0:0:0:
278,190,199322,1,8,0:0:0:0:
278,190,199378,1,0,0:0:0:0:
275,188,199433,1,0,0:0:0:0:
276,193,199489,1,8,0:0:0:0:
276,193,199544,1,0,0:0:0:0:
276,193,199600,1,0,0:0:0:0:
277,188,199655,1,8,0:0:0:0:
278,202,199697,1,0,0:0:0:0:
277,188,199739,1,0,0:0:0:0:
278,190,199780,1,8,0:0:0:0:
278,190,199822,1,8,0:0:0:0:
278,190,199864,1,0,0:0:0:0:
278,190,199905,1,0,0:0:0:0:
278,190,199947,1,8,0:0:0:0:
278,190,199989,1,0,0:0:0:0:
274,194,200010,1,8,0:0:0:0:
278,190,200072,1,0,0:0:0:0:
278,190,200155,1,0,0:0:0:0:
282,189,200239,1,0,0:0:0:0:
282,190,200322,1,8,0:0:0:0:
282,190,200405,1,0,0:0:0:0:
282,190,200489,1,0,0:0:0:0:
283,191,200572,1,8,0:0:0:0:
283,191,200655,1,8,0:0:0:0:
278,190,200739,1,0,0:0:0:0:
278,190,200822,1,0,0:0:0:0:
278,183,200843,1,8,0:0:0:0:
278,183,200905,1,8,0:0:0:0:
275,172,200989,1,8,0:0:0:0:
272,188,201072,1,0,0:0:0:0:
273,179,201155,1,8,0:0:0:0:
278,178,201239,1,0,0:0:0:0:
278,178,201322,1,0,0:0:0:0:
278,175,201405,1,8,0:0:0:0:
278,175,201489,1,0,0:0:0:0:
266,189,201510,1,8,0:0:0:0:
278,175,201572,1,0,0:0:0:0:
278,175,201655,1,8,0:0:0:0:
272,178,201739,1,0,0:0:0:0:
272,178,201822,1,0,0:0:0:0:
284,181,201843,1,8,0:0:0:0:
273,179,201905,1,0,0:0:0:0:
287,181,201926,1,8,0:0:0:0:
272,174,201989,1,0,0:0:0:0:
272,174,202030,1,0,0:0:0:0:
273,174,202072,1,8,0:0:0:0:
272,176,202155,1,0,0:0:0:0:
272,176,202176,1,8,0:0:0:0:
258,170,202239,1,0,0:0:0:0:
262,170,202280,1,0,0:0:0:0:
267,170,202322,1,8,0:0:0:0:
269,170,202364,1,0,0:0:0:0:
269,170,202405,1,8,0:0:0:0:
272,178,202489,1,0,0:0:0:0:
272,178,202510,1,8,0:0:0:0:
272,178,202572,1,8,0:0:0:0:
272,178,202655,1,0,0:0:0:0:
272,178,202676,1,8,0:0:0:0:
273,180,202711,1,0,0:0:0:0:
273,180,202767,1,0,0:0:0:0:
260,168,202822,1,8,0:0:0:0:
260,170,202878,1,8,0:0:0:0:
262,170,202933,1,0,0:0:0:0:
262,171,202989,1,0,0:0:0:0:
262,170,203044,1,8,0:0:0:0:
267,170,203100,1,0,0:0:0:0:
272,178,203155,1,0,0:0:0:0:
272,171,203176,1,8,0:0:0:0:
263,174,203211,1,0,0:0:0:0:
263,174,203267,1,0,0:0:0:0:
263,174,203322,1,0,0:0:0:0:
264,174,203378,1,8,0:0:0:0:
264,175,203433,1,8,0:0:0:0:
264,175,203489,1,8,0:0:0:0:
264,175,203544,1,0,0:0:0:0:
265,175,203600,1,0,0:0:0:0:
277,172,203655,1,0,0:0:0:0:
278,172,203676,1,8,0:0:0:0:
265,175,203711,1,8,0:0:0:0:
270,168,203767,1,8,0:0:0:0:
269,167,203822,1,8,0:0:0:0:
267,170,203878,1,0,0:0:0:0:
271,167,203933,1,0,0:0:0:0:
271,167,203989,1,0,0:0:0:0:
271,167,204044,1,8,0:0:0:0:
271,167,204100,1,8,0:0:0:0:
271,168,204155,1,0,0:0:0:0:
271,168,204211,1,8,0:0:0:0:
271,168,204267,1,0,0:0:0:0:
271,168,204322,1,0,0:0:0:0:
271,168,204378,1,8,0:0:0:0:
272,168,204433,1,8,0:0:0:0:
272,168,204489,1,0,0:0:0:0:
270,168,204544,1,0,0:0:0:0:
269,167,204600,1,8,0:0:0:0:
278,173,204655,1,0,0:0:0:0:
278,173,204676,1,8,0:0:0:0:
271,167,204711,1,0,0:0:0:0:
271,167,204767,1,0,0:0:0:0:
271,167,204822,1,8,0:0:0:0:
271,167,204878,1,8,0:0:0:0:
269,162,204933,1,8,0:0:0:0:
269,162,204989,1,8,0:0:0:0:
279,163,205030,1,0,0:0:0:0:
278,163,205072,1,0,0:0:0:0:
278,163,205114,1,8,0:0:0:0:
279,163,205155,1,8,0:0:0:0:
279,163,205197,1,0,0:0:0:0:
280,163,205239,1,0,0:0:0:0:
281,163,205280,1,8,0:0:0:0:
278,173,205322,1,0,0:0:0:0:
278,173,205343,1,8,0:0:0:0:
262,173,205489,1,0,0:0:0:0:
264,173,205572,1,0,0:0:0:0:
262,190,205655,1,8,0:0:0:0:
262,190,205697,1,0,0:0:0:0:
271,167,205739,1,0,0:0:0:0:
271,167,205780,1,0,0:0:0:0:
278,188,205822,1,8,0:0:0:0:
269,162,205864,1,0,0:0:0:0:
278,188,205905,1,0,0:0:0:0:
264,163,205947,1,0,0:0:0:0:
282,179,205989,1,8,0:0:0:0:
274,160,206155,1,0,0:0:0:0:
271,172,206322,1,0,0:0:0:0:
270,178,206489,1,8,0:0:0:0:
278,174,206510,1,0,0:0:0:0:
271,167,206655,1,0,0:0:0:0:
276,171,206822,1,0,0:0:0:0:
270,178,206989,1,8,0:0:0:0:
282,174,207010,1,0,0:0:0:0:
280,168,207155,1,0,0:0:0:0:
283,190,207322,1,8,0:0:0:0:
280,173,207343,1,0,0:0:0:0:
276,175,207489,1,0,0:0:0:0:
267,192,207572,1,8,0:0:0:0:
276,171,207614,1,8,0:0:0:0:
285,154,207655,1,8,0:0:0:0:
279,180,207822,1,8,0:0:0:0:
285,154,207843,1,0,0:0:0:0:
285,154,207989,1,0,0:0:0:0:
280,168,208010,1,8,0:0:0:0:
266,170,208072,1,0,0:0:0:0:
266,170,208155,1,0,0:0:0:0:
276,157,208239,1,0,0:0:0:0:
280,173,208260,1,8,0:0:0:0:
266,170,208322,1,8,0:0:0:0:
260,163,208405,1,8,0:0:0:0:
276,157,208489,1,0,0:0:0:0:
283,171,208510,1,8,0:0:0:0:
260,161,208572,1,0,0:0:0:0:
284,171,208655,1,8,0:0:0:0:
276,157,208676,1,0,0:0:0:0:
277,164,208739,1,0,0:0:0:0:
277,164,208822,1,0,0:0:0:0:
284,171,208905,1,8,0:0:0:0:
276,157,208926,1,0,0:0:0:0:
277,163,208989,1,8,0:0:0:0:
277,163,209072,1,8,0:0:0:0:
284,171,209155,1,8,0:0:0:0:
276,157,209176,1,0,0:0:0:0:
283,157,209239,1,8,0:0:0:0:
276,157,209322,1,0,0:0:0:0:
277,163,209343,1,8,0:0:0:0:
276,157,209405,1,0,0:0:0:0:
278,153,209489,1,8,0:0:0:0:
276,157,209572,1,0,0:0:0:0:
285,163,209593,1,8,0:0:0:0:
276,152,209655,1,8,0:0:0:0:
276,152,209739,1,0,0:0:0:0:
276,157,209822,1,0,0:0:0:0:
285,163,209843,1,8,0:0:0:0:
272,149,209905,1,0,0:0:0:0:
285,163,209989,1,8,0:0:0:0:
276,157,210010,1,0,0:0:0:0:
269,147,210044,1,8,0:0:0:0:
269,147,210100,1,8,0:0:0:0:
270,147,210155,1,0,0:0:0:0:
270,147,210211,1,8,0:0:0:0:
270,147,210267,1,8,0:0:0:0:
276,157,210322,1,0,0:0:0:0:
281,140,210378,1,8,0:0:0:0:
280,140,210433,1,0,0:0:0:0:
280,140,210489,1,0,0:0:0:0:
279,140,210544,1,8,0:0:0:0:
279,140,210600,1,0,0:0:0:0:
276,157,210655,1,8,0:0:0:0:
287,151,210676,1,0,0:0:0:0:
287,149,210822,1,0,0:0:0:0:
294,163,210989,1,8,0:0:0:0:
287,150,211030,1,8,0:0:0:0:
287,150,211072,1,8,0:0:0:0:
287,150,211114,1,8,0:0:0:0:
287,150,211155,1,0,0:0:0:0:
287,150,211197,1,0,0:0:0:0:
287,150,211239,1,0,0:0:0:0:
287,150,211280,1,0,0:0:0:0:
282,152,211322,1,8,0:0:0:0:
289,152,211489,1,0,0:0:0:0:
300,154,211572,1,0,0:0:0:0:
287,151,211593,1,8,0:0:0:0:
287,149,211655,1,0,0:0:0:0:
300,154,211822,1,0,0:0:0:0:
290,154,211843,1,8,0:0:0:0:
294,152,211989,1,8,0:0:0:0:
290,154,212010,1,0,0:0:0:0:
293,152,212072,1,8,0:0:0:0:
298,155,212093,1,0,0:0:0:0:
289,152,212239,1,8,0:0:0:0:
289,152,212405,1,0,0:0:0:0:
300,154,212489,1,0,0:0:0:0:
287,151,212510,1,8,0:0:0:0:
300,154,212655,1,0,0:0:0:0:
290,151,212676,1,8,0:0:0:0:
287,152,212822,1,8,0:0:0:0:
291,156,212989,1,0,0:0:0:0:
287,152,213010,1,8,0:0:0:0:
297,154,213072,1,0,0:0:0:0:
289,152,213155,1,0,0:0:0:0:
296,154,213239,1,8,0:0:0:0:
284,155,213322,1,8,0:0:0:0:
283,154,213405,1,0,0:0:0:0:
282,153,213489,1,8,0:0:0:0:
278,152,213572,1,0,0:0:0:0:
284,155,213593,1,8,0:0:0:0:
282,153,213655,1,0,0:0:0:0:
281,152,213739,1,0,0:0:0:0:
278,159,213822,1,8,0:0:0:0:
279,150,213843,1,0,0:0:0:0:
283,149,213905,1,8,0:0:0:0:
284,155,213989,1,8,0:0:0:0:
275,153,214010,1,0,0:0:0:0:
275,143,214072,1,0,0:0:0:0:
281,144,214155,1,0,0:0:0:0:
284,155,214239,1,8,0:0:0:0:
284,155,214322,1,0,0:0:0:0:
271,136,214405,1,0,0:0:0:0:
271,136,214489,1,8,0:0:0:0:
269,147,214510,1,0,0:0:0:0:
271,136,214572,1,0,0:0:0:0:
284,155,214655,1,8,0:0:0:0:
274,141,214711,1,0,0:0:0:0:
274,141,214767,1,0,0:0:0:0:
274,141,214822,1,8,0:0:0:0:
266,144,214878,1,0,0:0:0:0:
268,143,214933,1,0,0:0:0:0:
284,155,214989,1,8,0:0:0:0:
270,141,215072,1,8,0:0:0:0:
270,141,215155,1,0,0:0:0:0:
274,155,215239,1,0,0:0:0:0:
262,138,215322,1,8,0:0:0:0:
262,139,215378,1,8,0:0:0:0:
284,155,215433,1,0,0:0:0:0:
268,142,215489,1,8,0:0:0:0:
262,139,215544,1,8,0:0:0:0:
263,142,215600,1,0,0:0:0:0:
262,139,215655,1,8,0:0:0:0:
262,139,215739,1,0,0:0:0:0:
284,155,215822,1,0,0:0:0:0:
262,139,215905,1,8,0:0:0:0:
278,149,215989,1,0,0:0:0:0:
262,139,216010,1,8,0:0:0:0:
274,145,216155,1,0,0:0:0:0:
272,149,216322,1,8,0:0:0:0:
284,155,216343,1,0,0:0:0:0:
283,147,216489,1,0,0:0:0:0:
284,155,216655,1,0,0:0:0:0:
284,155,216676,1,8,0:0:0:0:
290,131,216822,1,0,0:0:0:0:
284,155,216989,1,0,0:0:0:0:
284,155,217155,1,8,0:0:0:0:
291,141,217176,1,0,0:0:0:0:
301,149,217322,1,0,0:0:0:0:
300,146,217489,1,0,0:0:0:0:
302,158,217655,1,8,0:0:0:0:
290,138,217676,1,0,0:0:0:0:
290,136,217822,1,0,0:0:0:0:
302,158,217989,1,0,0:0:0:0:
307,158,218010,1,8,0:0:0:0:
301,149,218155,1,8,0:0:0:0:
293,151,218197,1,8,0:0:0:0:
293,150,218239,1,8,0:0:0:0:
293,150,218280,1,8,0:0:0:0:
302,158,218322,1,0,0:0:0:0:
304,150,218489,1,8,0:0:0:0:
302,158,218655,1,0,0:0:0:0:
293,154,218676,1,8,0:0:0:0:
292,160,218739,1,8,0:0:0:0:
291,161,218822,1,8,0:0:0:0:
302,158,218905,1,0,0:0:0:0:
293,154,218926,1,8,0:0:0:0:
289,163,218989,1,0,0:0:0:0:
289,165,219072,1,0,0:0:0:0:
302,158,219155,1,0,0:0:0:0:
292,154,219176,1,8,0:0:0:0:
288,169,219239,1,8,0:0:0:0:
302,158,219322,1,8,0:0:0:0:
292,154,219343,1,0,0:0:0:0:
285,167,219405,1,0,0:0:0:0:
285,168,219489,1,0,0:0:0:0:
302,158,219572,1,8,0:0:0:0:
294,163,219593,1,0,0:0:0:0:
284,168,219655,1,0,0:0:0:0:
285,168,219739,1,8,0:0:0:0:
302,158,219822,1,8,0:0:0:0:
298,163,219843,1,0,0:0:0:0:
281,165,219905,1,8,0:0:0:0:
302,158,219989,1,0,0:0:0:0:
297,154,220010,1,8,0:0:0:0:
281,165,220072,1,8,0:0:0:0:
281,166,220155,1,0,0:0:0:0:
302,158,220239,1,0,0:0:0:0:
298,155,220260,1,8,0:0:0:0:
285,167,220322,1,8,0:0:0:0:
285,168,220405,1,8,0:0:0:0:
302,158,220489,1,0,0:0:0:0:
297,155,220510,1,8,0:0:0:0:
284,168,220572,1,0,0:0:0:0:
302,158,220655,1,0,0:0:0:0:
297,155,220676,1,8,0:0:0:0:
292,156,220711,1,0,0:0:0:0:
292,154,220767,1,0,0:0:0:0:
292,153,220822,1,8,0:0:0:0:
292,149,220878,1,0,0:0:0:0:
292,150,220933,1,8,0:0:0:0:
299,153,220989,1,0,0:0:0:0:
297,155,221010,1,8,0:0:0:0:
292,150,221044,1,0,0:0:0:0:
292,151,221100,1,0,0:0:0:0:
292,152,221155,1,0,0:0:0:0:
292,151,221211,1,8,0:0:0:0:
292,152,221267,1,0,0:0:0:0:
299,153,221322,1,0,0:0:0:0:
297,156,221343,1,8,0:0:0:0:
294,156,221489,1,0,0:0:0:0:
298,152,221655,1,8,0:0:0:0:
299,152,221676,1,0,0:0:0:0:
304,150,221822,1,0,0:0:0:0:
299,153,221989,1,0,0:0:0:0:
305,151,222010,1,8,0:0:0:0:
304,152,222155,1,8,0:0:0:0:
299,153,222239,1,0,0:0:0:0:
305,153,222260,1,8,0:0:0:0:
303,153,222405,1,0,0:0:0:0:
304,154,222489,1,8,0:0:0:0:
304,153,222510,1,0,0:0:0:0:
304,150,222655,1,8,0:0:0:0:
304,150,222676,1,0,0:0:0:0:
303,154,222822,1,0,0:0:0:0:
299,153,222905,1,0,0:0:0:0:
299,153,222926,1,8,0:0:0:0:
301,157,223072,1,8,0:0:0:0:
284,145,223155,1,0,0:0:0:0:
301,156,223176,1,8,0:0:0:0:
299,153,223322,1,0,0:0:0:0:
302,159,223343,1,8,0:0:0:0:
298,158,223489,1,0,0:0:0:0:
298,161,223572,1,0,0:0:0:0:
298,161,223655,1,8,0:0:0:0:
297,161,223676,1,0,0:0:0:0:
296,162,223822,1,0,0:0:0:0:
296,161,223878,1,0,0:0:0:0:
301,157,223933,1,8,0:0:0:0:
299,153,223989,1,0,0:0:0:0:
299,158,224010,1,8,0:0:0:0:
298,158,224072,1,8,0:0:0:0:
287,143,224155,1,0,0:0:0:0:
299,153,224239,1,0,0:0:0:0:
302,159,224260,1,8,0:0:0:0:
289,145,224322,1,8,0:0:0:0:
294,147,224405,1,8,0:0:0:0:
299,153,224489,1,0,0:0:0:0:
298,161,224510,1,8,0:0:0:0:
294,147,224572,1,0,0:0:0:0:
294,147,224655,1,8,0:0:0:0:
299,153,224739,1,0,0:0:0:0:
296,161,224760,1,8,0:0:0:0:
303,150,224822,1,8,0:0:0:0:
303,150,224878,1,8,0:0:0:0:
303,150,224933,1,8,0:0:0:0:
298,158,224989,1,0,0:0:0:0:
299,153,225010,1,8,0:0:0:0:
310,154,225072,1,0,0:0:0:0:
310,154,225155,1,8,0:0:0:0:
310,154,225239,1,0,0:0:0:0:
299,153,225322,1,8,0:0:0:0:
299,153,225343,1,0,0:0:0:0:
304,149,225405,1,0,0:0:0:0:
304,148,225489,1,0,0:0:0:0:
299,153,225572,1,8,0:0:0:0:
296,157,225593,1,0,0:0:0:0:
303,147,225655,1,8,0:0:0:0:
303,150,225739,1,0,0:0:0:0:
299,153,225822,1,8,0:0:0:0:
298,158,225843,1,0,0:0:0:0:
303,147,225905,1,8,0:0:0:0:
299,153,225989,1,0,0:0:0:0:
296,157,226010,1,8,0:0:0:0:
308,147,226072,1,8,0:0:0:0:
308,147,226155,1,8,0:0:0:0:
299,153,226239,1,0,0:0:0:0:
296,159,226260,1,8,0:0:0:0:
304,149,226322,1,0,0:0:0:0:
304,148,226405,1,0,0:0:0:0:
299,153,226489,1,0,0:0:0:0:
296,157,226510,1,8,0:0:0:0:
303,147,226572,1,8,0:0:0:0:
293,151,226655,1,8,0:0:0:0:
292,150,226676,1,0,0:0:0:0:
297,148,226905,1,0,0:0:0:0:
448,64,226926,1,8,0:0:0:0:
297,148,227155,1,8,0:0:0:0:
64,64,227176,1,0,0:0:0:0:
297,148,227405,1,0,0:0:0:0:
448,64,227426,1,8,0:0:0:0:
297,148,227655,1,0,0:0:0:0:
448,64,227676,1,8,0:0:0:0:
297,148,227905,1,8,0:0:0:0:
64,64,227926,1,0,0:0:0:0:
297,148,228155,1,0,0:0:0:0:
448,64,228176,1,8,0:0:0:0:
297,148,228405,1,8,0:0:0:0:
64,64,228426,1,0,0:0:0:0:
297,148,228655,1,0,0:0:0:0:
448,64,228676,1,8,0:0:0:0:
297,148,228905,1,0,0:0:0:0:
448,64,228926,1,8,0:0:0:0:
297,148,229155,1,8,0:0:0:0:
64,64,229176,1,0,0:0:0:0:
256,192,229322,12,0,231989,0:0:0:0:
