osu file format v14

[General]
AudioFilename: audio.mp3
AudioLeadIn: 0
PreviewTime: 67254
Countdown: 0
SampleSet: Soft
StackLeniency: 0.7
Mode: 3
LetterboxInBreaks: 0
SpecialStyle: 0
WidescreenStoryboard: 0

[Editor]
Bookmarks: 0,22588,33882,45176,56470,67599,78570,89541,92237,110903,116468,139366,164359,175824,187118,208177,228388,250715,269915,288243,305697
DistanceSpacing: 0.8
BeatDivisor: 4
GridSize: 8
TimelineZoom: 1.9

[Metadata]
Title:INVERSION
TitleUnicode:INVERSION
Artist:tn-shi
ArtistUnicode:tn-shi
Creator:de_sync
Version:An Upside Down World
Source:
Tags:edm dnb artcore dubstep complextro ln long notes
BeatmapID:4487024
BeatmapSetID:2132996

[Difficulty]
HPDrainRate:8.5
CircleSize:4
OverallDifficulty:7.5
ApproachRate:5
SliderMultiplier:1.6
SliderTickRate:1

[Events]
//Background and Video events
0,0,"back.jpg",0,0
//Break Periods
//Storyboard Layer 0 (Background)
//Storyboard Layer 1 (Fail)
//Storyboard Layer 2 (Pass)
//Storyboard Layer 3 (Foreground)
//Storyboard Layer 4 (Overlay)
//Storyboard Sound Samples

[TimingPoints]
0,352.941176470588,4,2,0,25,1,0
0,-100,4,2,0,25,0,0
56470,350.877192982456,4,2,0,25,1,0
56470,-101.010101010101,4,2,0,25,0,0
59277,348.837209302326,4,2,0,25,1,0
59277,-101.010101010101,4,2,0,25,0,0
62067,346.820809248555,4,2,0,25,1,0
62067,-102.040816326531,4,2,0,25,0,0
64841,344.827586206897,4,2,0,25,1,0
64841,-102.040816326531,4,2,0,25,0,0
67599,342.857142857143,4,2,0,25,1,0
67599,-103.092783505155,4,2,0,25,0,0
89541,337.078651685393,4,2,0,25,1,0
89541,-104.166666666667,4,2,0,25,0,0
92237,333.333333333333,4,2,0,25,1,0
92237,-106.382978723404,4,2,0,25,0,0
110903,342.857142857143,4,2,0,25,1,0
110903,-103.092783505155,4,2,0,25,0,0
113645,352.941176470588,4,2,0,25,1,0
113645,-100,4,2,0,25,0,0
133409,363.636363636364,4,2,0,25,1,0
133409,-97.0873786407767,4,2,0,25,0,0
136318,375,4,2,0,25,1,0
136318,-94.3396226415094,4,2,0,25,0,0
137818,387.096774193548,4,2,0,25,1,0
137818,-90.9090909090909,4,2,0,25,0,0
139366,400,4,2,0,25,1,0
139366,-88.495575221239,4,2,0,25,0,0
152166,387.096774193548,4,2,0,25,1,0
152166,-90.9090909090909,4,2,0,25,0,0
158359,375,4,2,0,25,1,0
158359,-94.3396226415094,4,2,0,25,0,0
164359,363.636363636364,4,2,0,25,1,0
164359,-97.0873786407767,4,2,0,25,0,0
170177,352.941176470588,4,2,0,25,1,0
170177,-100,4,2,0,25,0,0
187118,342.857142857143,4,2,0,25,1,0
187118,-103.092783505155,4,2,0,25,0,0
192603,333.333333333333,4,2,0,25,1,0
192603,-106.382978723404,4,2,0,25,0,0
197936,324.324324324324,4,2,0,25,1,0
197936,-108.695652173913,4,2,0,25,0,0
203125,315.789473684211,4,2,0,25,1,0
203125,-112.359550561798,4,2,0,25,0,0
228388,314.13612565445,4,2,0,25,1,0
228388,-112.359550561798,4,2,0,25,0,0
233414,312.5,4,2,0,25,1,0
233414,-112.359550561798,4,2,0,25,0,0
238414,310.880829015544,4,2,0,25,1,0
238414,-113.636363636364,4,2,0,25,0,0
243388,309.278350515464,4,2,0,25,1,0
243388,-113.636363636364,4,2,0,25,0,0
244625,307.692307692308,4,2,0,25,1,0
244625,-114.942528735632,4,2,0,25,0,0
245855,306.122448979592,4,2,0,25,1,0
245855,-114.942528735632,4,2,0,25,0,0
247079,304.568527918782,4,2,0,25,1,0
247079,-116.279069767442,4,2,0,25,0,0
248297,303.030303030303,4,2,0,25,1,0
248297,-116.279069767442,4,2,0,25,0,0
249509,301.507537688442,4,2,0,25,1,0
249509,-117.647058823529,4,2,0,25,0,0
250715,300,4,2,0,25,1,0
250715,-117.647058823529,4,2,0,25,0,0
269915,297.029702970297,4,2,0,25,1,0
269915,-119.047619047619,4,2,0,25,0,0
272291,295.566502463054,4,2,0,25,1,0
272291,-119.047619047619,4,2,0,25,0,0
274655,292.682926829268,4,2,0,25,1,0
274655,-120.481927710843,4,2,0,25,0,0
276996,289.855072463768,4,2,0,25,1,0
276996,-121.951219512195,4,2,0,25,0,0
279314,284.36018957346,4,2,0,25,1,0
279314,-123.456790123457,4,2,0,25,0,0
281588,281.69014084507,4,2,0,25,1,0
281588,-125,4,2,0,25,0,0
283841,276.497695852535,4,2,0,25,1,0
283841,-128.205128205128,4,2,0,25,0,0
286052,273.972602739726,4,2,0,25,1,0
286052,-128.205128205128,4,2,0,25,0,0
288243,272.727272727273,4,2,0,25,1,0
288243,-129.87012987013,4,2,0,25,0,0

[HitObjects]
192,192,21411,5,0,0:0:0:0:
320,192,21470,1,0,0:0:0:0:
448,192,21529,1,0,0:0:0:0:
64,192,21617,1,0,0:0:0:0:
320,192,21705,1,0,0:0:0:0:
192,192,21794,1,0,0:0:0:0:
320,192,21882,1,0,0:0:0:0:
64,192,21970,1,0,0:0:0:0:
448,192,22058,1,0,0:0:0:0:
320,192,22147,1,0,0:0:0:0:
192,192,22235,1,0,0:0:0:0:
320,192,22323,1,0,0:0:0:0:
64,192,22411,1,0,0:0:0:0:
192,192,22499,1,0,0:0:0:0:
448,192,22588,1,0,0:0:0:0:
64,192,22588,1,0,0:0:0:0:
192,192,23117,1,0,0:0:0:0:
448,192,23117,1,0,0:0:0:0:
192,192,23999,1,0,0:0:0:0:
320,192,23999,1,0,0:0:0:0:
64,192,24529,1,0,0:0:0:0:
448,192,24529,1,0,0:0:0:0:
64,192,25058,1,0,0:0:0:0:
192,192,25411,1,0,0:0:0:0:
448,192,25411,1,0,0:0:0:0:
192,192,25941,1,0,0:0:0:0:
64,192,25941,1,0,0:0:0:0:
320,192,26823,1,0,0:0:0:0:
64,192,26823,1,0,0:0:0:0:
192,192,27088,1,0,0:0:0:0:
320,192,27352,1,0,0:0:0:0:
448,192,27352,1,0,0:0:0:0:
64,192,27882,1,0,0:0:0:0:
448,192,27882,1,0,0:0:0:0:
64,192,28235,1,0,0:0:0:0:
192,192,28235,1,0,0:0:0:0:
320,192,28352,1,0,0:0:0:0:
192,192,28764,1,0,0:0:0:0:
448,192,28764,1,0,0:0:0:0:
192,192,29647,1,0,0:0:0:0:
320,192,29647,1,0,0:0:0:0:
64,192,30176,1,0,0:0:0:0:
448,192,30176,1,0,0:0:0:0:
320,192,30705,1,0,0:0:0:0:
64,192,30705,1,0,0:0:0:0:
192,192,31058,1,0,0:0:0:0:
448,192,31058,1,0,0:0:0:0:
320,192,31588,1,0,0:0:0:0:
448,192,31588,1,0,0:0:0:0:
192,192,32117,1,0,0:0:0:0:
64,192,32470,1,0,0:0:0:0:
192,192,32470,1,0,0:0:0:0:
320,192,32999,1,0,0:0:0:0:
64,192,32999,128,0,33088:0:0:0:0:
64,192,33176,128,0,33352:0:0:0:0:
192,192,33352,128,0,33441:0:0:0:0:
320,192,33529,128,0,33705:0:0:0:0:
448,192,33705,128,0,33794:0:0:0:0:
64,192,33882,128,0,34235:0:0:0:0:
320,192,33882,128,0,33970:0:0:0:0:
320,192,34147,128,0,34235:0:0:0:0:
448,192,34235,128,0,34323:0:0:0:0:
64,192,34411,128,0,34499:0:0:0:0:
448,192,34588,128,0,34941:0:0:0:0:
64,192,34676,128,0,34764:0:0:0:0:
320,192,34941,128,0,35029:0:0:0:0:
320,192,35117,128,0,35205:0:0:0:0:
448,192,35117,128,0,35470:0:0:0:0:
192,192,35294,128,0,35382:0:0:0:0:
64,192,35470,128,0,35558:0:0:0:0:
192,192,35558,128,0,35647:0:0:0:0:
320,192,35823,128,0,35911:0:0:0:0:
64,192,35823,128,0,35911:0:0:0:0:
320,192,35999,128,0,36176:0:0:0:0:
64,192,36088,128,0,36176:0:0:0:0:
192,192,36176,128,0,36264:0:0:0:0:
448,192,36352,1,0,0:0:0:0:
320,192,36352,128,0,36529:0:0:0:0:
448,192,36441,128,0,36529:0:0:0:0:
64,192,36529,128,0,36617:0:0:0:0:
448,192,36617,128,0,36705:0:0:0:0:
192,192,36705,128,0,37058:0:0:0:0:
320,192,36705,128,0,36794:0:0:0:0:
320,192,36970,128,0,37058:0:0:0:0:
64,192,37058,128,0,37147:0:0:0:0:
448,192,37235,128,0,37323:0:0:0:0:
192,192,37411,128,0,37588:0:0:0:0:
448,192,37499,128,0,37588:0:0:0:0:
64,192,37588,128,0,37676:0:0:0:0:
320,192,37764,128,0,37852:0:0:0:0:
448,192,37941,128,0,38294:0:0:0:0:
320,192,37941,128,0,38029:0:0:0:0:
64,192,38117,128,0,38205:0:0:0:0:
320,192,38294,128,0,38382:0:0:0:0:
192,192,38382,128,0,38470:0:0:0:0:
64,192,38382,128,0,38470:0:0:0:0:
448,192,38647,128,0,38735:0:0:0:0:
320,192,38647,128,0,38735:0:0:0:0:
448,192,38823,128,0,38999:0:0:0:0:
320,192,38911,128,0,38999:0:0:0:0:
192,192,38999,128,0,39088:0:0:0:0:
64,192,39176,1,0,0:0:0:0:
448,192,39176,128,0,39352:0:0:0:0:
64,192,39264,128,0,39352:0:0:0:0:
320,192,39352,128,0,39441:0:0:0:0:
64,192,39441,128,0,39529:0:0:0:0:
448,192,39529,128,0,39882:0:0:0:0:
192,192,39529,128,0,39617:0:0:0:0:
192,192,39794,128,0,39882:0:0:0:0:
64,192,39882,128,0,39970:0:0:0:0:
448,192,40058,128,0,40147:0:0:0:0:
64,192,40235,128,0,40588:0:0:0:0:
448,192,40323,128,0,40411:0:0:0:0:
192,192,40588,128,0,40676:0:0:0:0:
192,192,40764,128,0,40852:0:0:0:0:
64,192,40764,128,0,41117:0:0:0:0:
320,192,40941,128,0,41029:0:0:0:0:
448,192,41117,128,0,41294:0:0:0:0:
320,192,41205,128,0,41294:0:0:0:0:
192,192,41294,128,0,41382:0:0:0:0:
64,192,41382,128,0,41470:0:0:0:0:
192,192,41470,128,0,41558:0:0:0:0:
448,192,41558,128,0,41647:0:0:0:0:
320,192,41647,1,0,0:0:0:0:
64,192,41705,1,0,0:0:0:0:
448,192,41764,1,0,0:0:0:0:
320,192,41823,1,0,0:0:0:0:
64,192,41882,1,0,0:0:0:0:
448,192,41941,1,0,0:0:0:0:
192,192,41999,1,0,0:0:0:0:
320,192,42058,1,0,0:0:0:0:
448,192,42117,1,0,0:0:0:0:
64,192,42176,1,0,0:0:0:0:
192,192,42235,1,0,0:0:0:0:
320,192,42294,1,0,0:0:0:0:
448,192,42352,128,0,42705:0:0:0:0:
64,192,42352,128,0,42441:0:0:0:0:
64,192,42617,128,0,42705:0:0:0:0:
320,192,42705,128,0,42794:0:0:0:0:
192,192,42882,128,0,43235:0:0:0:0:
448,192,42882,128,0,42970:0:0:0:0:
448,192,43147,128,0,43235:0:0:0:0:
64,192,43235,128,0,43411:0:0:0:0:
320,192,43411,128,0,43499:0:0:0:0:
320,192,43588,128,0,43676:0:0:0:0:
64,192,43588,128,0,43941:0:0:0:0:
448,192,43764,128,0,43852:0:0:0:0:
192,192,43941,1,0,0:0:0:0:
64,192,43985,1,0,0:0:0:0:
448,192,44029,128,0,44117:0:0:0:0:
320,192,44029,128,0,44205:0:0:0:0:
448,192,44294,128,0,44382:0:0:0:0:
192,192,44294,128,0,44382:0:0:0:0:
192,192,44470,128,0,44647:0:0:0:0:
448,192,44558,128,0,44647:0:0:0:0:
64,192,44558,128,0,44647:0:0:0:0:
320,192,44647,128,0,44735:0:0:0:0:
192,192,44823,128,0,44911:0:0:0:0:
448,192,44911,128,0,44999:0:0:0:0:
64,192,44999,128,0,45088:0:0:0:0:
320,192,45088,128,0,45176:0:0:0:0:
64,192,45176,128,0,45529:0:0:0:0:
192,192,45176,128,0,45264:0:0:0:0:
448,192,45176,1,0,0:0:0:0:
320,192,45441,128,0,45529:0:0:0:0:
448,192,45529,128,0,45617:0:0:0:0:
64,192,45705,128,0,45794:0:0:0:0:
448,192,45882,128,0,46235:0:0:0:0:
64,192,45970,128,0,46058:0:0:0:0:
320,192,46235,128,0,46323:0:0:0:0:
320,192,46411,128,0,46499:0:0:0:0:
448,192,46411,128,0,46764:0:0:0:0:
192,192,46588,128,0,46676:0:0:0:0:
64,192,46764,128,0,46852:0:0:0:0:
192,192,46852,128,0,46941:0:0:0:0:
320,192,47117,128,0,47205:0:0:0:0:
64,192,47117,128,0,47205:0:0:0:0:
320,192,47294,128,0,47470:0:0:0:0:
64,192,47382,128,0,47470:0:0:0:0:
448,192,47382,1,0,0:0:0:0:
192,192,47470,128,0,47558:0:0:0:0:
448,192,47647,1,0,0:0:0:0:
320,192,47647,128,0,47823:0:0:0:0:
448,192,47735,128,0,47823:0:0:0:0:
64,192,47823,128,0,47911:0:0:0:0:
192,192,47823,1,0,0:0:0:0:
448,192,47911,128,0,47999:0:0:0:0:
192,192,47999,128,0,48352:0:0:0:0:
320,192,47999,128,0,48088:0:0:0:0:
64,192,47999,1,0,0:0:0:0:
320,192,48264,128,0,48352:0:0:0:0:
64,192,48352,128,0,48441:0:0:0:0:
448,192,48529,128,0,48617:0:0:0:0:
192,192,48705,128,0,48882:0:0:0:0:
448,192,48794,128,0,48882:0:0:0:0:
64,192,48882,128,0,48970:0:0:0:0:
320,192,49058,128,0,49147:0:0:0:0:
448,192,49235,128,0,49588:0:0:0:0:
320,192,49235,128,0,49323:0:0:0:0:
64,192,49411,128,0,49499:0:0:0:0:
320,192,49588,128,0,49676:0:0:0:0:
192,192,49676,128,0,49764:0:0:0:0:
64,192,49676,128,0,49764:0:0:0:0:
448,192,49941,128,0,50029:0:0:0:0:
320,192,49941,128,0,50029:0:0:0:0:
448,192,50117,128,0,50294:0:0:0:0:
64,192,50117,1,0,0:0:0:0:
320,192,50205,128,0,50294:0:0:0:0:
192,192,50294,128,0,50382:0:0:0:0:
64,192,50470,1,0,0:0:0:0:
448,192,50470,128,0,50647:0:0:0:0:
64,192,50558,128,0,50647:0:0:0:0:
320,192,50647,128,0,50735:0:0:0:0:
192,192,50647,1,0,0:0:0:0:
64,192,50735,128,0,50823:0:0:0:0:
448,192,50735,1,0,0:0:0:0:
320,192,50823,128,0,51176:0:0:0:0:
192,192,50823,128,0,50911:0:0:0:0:
192,192,51088,128,0,51176:0:0:0:0:
64,192,51176,128,0,51264:0:0:0:0:
448,192,51352,128,0,51441:0:0:0:0:
64,192,51529,128,0,51882:0:0:0:0:
448,192,51617,128,0,51705:0:0:0:0:
192,192,51882,128,0,51970:0:0:0:0:
320,192,51882,128,0,51970:0:0:0:0:
192,192,52058,128,0,52147:0:0:0:0:
64,192,52058,128,0,52411:0:0:0:0:
448,192,52058,128,0,52147:0:0:0:0:
320,192,52235,128,0,52323:0:0:0:0:
448,192,52411,128,0,52588:0:0:0:0:
320,192,52499,128,0,52588:0:0:0:0:
192,192,52588,128,0,52676:0:0:0:0:
64,192,52676,128,0,52764:0:0:0:0:
192,192,52764,128,0,52852:0:0:0:0:
448,192,52852,128,0,52941:0:0:0:0:
320,192,52941,1,0,0:0:0:0:
64,192,52999,1,0,0:0:0:0:
448,192,53058,1,0,0:0:0:0:
320,192,53117,1,0,0:0:0:0:
64,192,53176,1,0,0:0:0:0:
448,192,53235,1,0,0:0:0:0:
192,192,53294,1,0,0:0:0:0:
320,192,53352,1,0,0:0:0:0:
448,192,53411,1,0,0:0:0:0:
64,192,53470,1,0,0:0:0:0:
192,192,53529,1,0,0:0:0:0:
320,192,53588,1,0,0:0:0:0:
448,192,53647,128,0,53999:0:0:0:0:
64,192,53647,128,0,53735:0:0:0:0:
192,192,53647,1,0,0:0:0:0:
64,192,53911,128,0,53999:0:0:0:0:
320,192,53999,128,0,54088:0:0:0:0:
192,192,54176,128,0,54529:0:0:0:0:
448,192,54176,128,0,54264:0:0:0:0:
448,192,54441,128,0,54529:0:0:0:0:
64,192,54529,128,0,54705:0:0:0:0:
320,192,54705,128,0,54794:0:0:0:0:
320,192,54882,128,0,54970:0:0:0:0:
64,192,54882,128,0,55235:0:0:0:0:
448,192,55058,128,0,55147:0:0:0:0:
192,192,55235,1,0,0:0:0:0:
64,192,55279,5,0,0:0:0:0:
448,192,55323,128,0,55411:0:0:0:0:
320,192,55323,128,0,55499:0:0:0:0:
448,192,55588,128,0,55676:0:0:0:0:
192,192,55588,128,0,55676:0:0:0:0:
192,192,55764,128,0,55941:0:0:0:0:
448,192,55852,128,0,55941:0:0:0:0:
320,192,55941,128,0,56029:0:0:0:0:
192,192,56117,128,0,56205:0:0:0:0:
64,192,56117,1,0,0:0:0:0:
448,192,56205,128,0,56294:0:0:0:0:
64,192,56294,128,0,56382:0:0:0:0:
320,192,56382,128,0,56470:0:0:0:0:
448,192,56470,1,0,0:0:0:0:
192,192,56470,1,0,0:0:0:0:
64,192,56470,1,0,0:0:0:0:
320,192,56733,1,0,0:0:0:0:
192,192,56820,1,0,0:0:0:0:
64,192,56820,1,0,0:0:0:0:
448,192,56996,1,0,0:0:0:0:
192,192,57171,1,0,0:0:0:0:
64,192,57171,1,0,0:0:0:0:
320,192,57259,1,0,0:0:0:0:
192,192,57347,1,0,0:0:0:0:
320,192,57522,1,0,0:0:0:0:
448,192,57522,1,0,0:0:0:0:
192,192,57698,1,0,0:0:0:0:
320,192,57785,1,0,0:0:0:0:
192,192,57873,1,0,0:0:0:0:
64,192,57873,1,0,0:0:0:0:
192,192,58136,1,0,0:0:0:0:
320,192,58224,1,0,0:0:0:0:
448,192,58224,1,0,0:0:0:0:
320,192,58399,1,0,0:0:0:0:
64,192,58575,1,0,0:0:0:0:
192,192,58575,1,0,0:0:0:0:
320,192,58662,1,0,0:0:0:0:
192,192,58750,1,0,0:0:0:0:
320,192,58838,1,0,0:0:0:0:
64,192,58926,1,0,0:0:0:0:
320,192,59013,1,0,0:0:0:0:
192,192,59101,1,0,0:0:0:0:
448,192,59189,1,0,0:0:0:0:
320,192,59277,1,0,0:0:0:0:
192,192,59277,1,0,0:0:0:0:
64,192,59277,1,0,0:0:0:0:
320,192,59538,1,0,0:0:0:0:
192,192,59625,1,0,0:0:0:0:
64,192,59625,1,0,0:0:0:0:
192,192,59800,1,0,0:0:0:0:
320,192,59974,1,0,0:0:0:0:
448,192,59974,1,0,0:0:0:0:
192,192,60061,1,0,0:0:0:0:
320,192,60149,1,0,0:0:0:0:
64,192,60323,1,0,0:0:0:0:
192,192,60323,1,0,0:0:0:0:
320,192,60410,1,0,0:0:0:0:
192,192,60497,1,0,0:0:0:0:
64,192,60585,1,0,0:0:0:0:
320,192,60672,1,0,0:0:0:0:
448,192,60672,1,0,0:0:0:0:
320,192,60846,1,0,0:0:0:0:
192,192,60933,1,0,0:0:0:0:
320,192,61021,1,0,0:0:0:0:
448,192,61021,1,0,0:0:0:0:
320,192,61195,1,0,0:0:0:0:
192,192,61370,1,0,0:0:0:0:
64,192,61370,1,0,0:0:0:0:
320,192,61457,1,0,0:0:0:0:
192,192,61544,1,0,0:0:0:0:
320,192,61718,1,0,0:0:0:0:
448,192,61718,1,0,0:0:0:0:
192,192,61806,1,0,0:0:0:0:
320,192,61893,1,0,0:0:0:0:
64,192,61980,1,0,0:0:0:0:
192,192,62067,1,0,0:0:0:0:
320,192,62067,1,0,0:0:0:0:
448,192,62067,1,0,0:0:0:0:
192,192,62327,1,0,0:0:0:0:
320,192,62413,1,0,0:0:0:0:
448,192,62413,1,0,0:0:0:0:
64,192,62587,1,0,0:0:0:0:
64,192,62760,1,0,0:0:0:0:
192,192,62760,1,0,0:0:0:0:
320,192,62847,1,0,0:0:0:0:
192,192,62934,1,0,0:0:0:0:
320,192,63107,1,0,0:0:0:0:
448,192,63107,1,0,0:0:0:0:
320,192,63280,1,0,0:0:0:0:
192,192,63367,1,0,0:0:0:0:
320,192,63454,1,0,0:0:0:0:
64,192,63454,1,0,0:0:0:0:
448,192,63454,1,0,0:0:0:0:
192,192,63714,1,0,0:0:0:0:
320,192,63801,1,0,0:0:0:0:
448,192,63801,1,0,0:0:0:0:
320,192,63974,1,0,0:0:0:0:
64,192,64147,1,0,0:0:0:0:
192,192,64147,1,0,0:0:0:0:
320,192,64234,1,0,0:0:0:0:
192,192,64321,1,0,0:0:0:0:
448,192,64408,1,0,0:0:0:0:
64,192,64494,1,0,0:0:0:0:
320,192,64581,1,0,0:0:0:0:
192,192,64668,1,0,0:0:0:0:
320,192,64754,1,0,0:0:0:0:
64,192,64841,1,0,0:0:0:0:
192,192,64841,1,0,0:0:0:0:
448,192,64841,1,0,0:0:0:0:
320,192,64927,1,0,0:0:0:0:
192,192,65013,1,0,0:0:0:0:
64,192,65099,1,0,0:0:0:0:
320,192,65185,1,0,0:0:0:0:
192,192,65272,1,0,0:0:0:0:
448,192,65358,1,0,0:0:0:0:
320,192,65444,1,0,0:0:0:0:
64,192,65530,1,0,0:0:0:0:
192,192,65530,1,0,0:0:0:0:
320,192,65616,1,0,0:0:0:0:
448,192,65703,1,0,0:0:0:0:
192,192,65789,1,0,0:0:0:0:
320,192,65875,1,0,0:0:0:0:
64,192,65961,1,0,0:0:0:0:
192,192,66047,1,0,0:0:0:0:
320,192,66134,5,0,0:0:0:0:
64,192,66220,1,0,0:0:0:0:
192,192,66263,1,0,0:0:0:0:
320,192,66306,1,0,0:0:0:0:
192,192,66392,1,0,0:0:0:0:
448,192,66478,1,0,0:0:0:0:
320,192,66565,1,0,0:0:0:0:
64,192,66651,1,0,0:0:0:0:
192,192,66737,1,0,0:0:0:0:
320,192,66780,1,0,0:0:0:0:
448,192,66823,1,0,0:0:0:0:
320,192,66909,1,0,0:0:0:0:
192,192,66953,1,0,0:0:0:0:
64,192,66996,1,0,0:0:0:0:
448,192,67082,1,0,0:0:0:0:
320,192,67168,1,0,0:0:0:0:
192,192,67211,1,0,0:0:0:0:
64,192,67254,128,0,67513:0:0:0:0:
320,192,67254,128,0,67513:0:0:0:0:
448,192,67254,128,0,67513:0:0:0:0:
64,192,67599,128,0,67856:0:0:0:0:
192,192,67599,128,0,67856:0:0:0:0:
448,192,67599,128,0,67856:0:0:0:0:
448,192,67941,128,0,68113:0:0:0:0:
320,192,67941,128,0,68027:0:0:0:0:
64,192,68027,128,0,68113:0:0:0:0:
192,192,68113,128,0,68199:0:0:0:0:
64,192,68199,128,0,68370:0:0:0:0:
192,192,68284,128,0,68456:0:0:0:0:
320,192,68284,128,0,68370:0:0:0:0:
448,192,68370,128,0,68456:0:0:0:0:
320,192,68456,128,0,68541:0:0:0:0:
448,192,68541,128,0,68713:0:0:0:0:
320,192,68627,128,0,68799:0:0:0:0:
192,192,68627,128,0,68713:0:0:0:0:
64,192,68713,128,0,68799:0:0:0:0:
192,192,68799,128,0,68884:0:0:0:0:
64,192,68884,128,0,68970:0:0:0:0:
320,192,68970,128,0,69084:0:0:0:0:
448,192,68970,128,0,69056:0:0:0:0:
192,192,69027,128,0,69141:0:0:0:0:
64,192,69084,128,0,69199:0:0:0:0:
448,192,69141,128,0,69256:0:0:0:0:
320,192,69199,128,0,69313:0:0:0:0:
64,192,69256,128,0,69370:0:0:0:0:
192,192,69313,128,0,69427:0:0:0:0:
448,192,69313,128,0,69399:0:0:0:0:
320,192,69399,128,0,69484:0:0:0:0:
192,192,69484,128,0,69570:0:0:0:0:
320,192,69570,128,0,69741:0:0:0:0:
448,192,69656,128,0,69741:0:0:0:0:
64,192,69656,128,0,69827:0:0:0:0:
192,192,69741,128,0,69827:0:0:0:0:
320,192,69827,128,0,69913:0:0:0:0:
192,192,69913,128,0,69999:0:0:0:0:
64,192,69999,1,0,0:0:0:0:
448,192,69999,1,0,0:0:0:0:
320,192,70056,1,0,0:0:0:0:
192,192,70113,1,0,0:0:0:0:
448,192,70170,1,0,0:0:0:0:
64,192,70227,1,0,0:0:0:0:
320,192,70284,1,0,0:0:0:0:
192,192,70341,128,0,70513:0:0:0:0:
64,192,70341,128,0,70427:0:0:0:0:
448,192,70341,128,0,70427:0:0:0:0:
320,192,70427,128,0,70513:0:0:0:0:
448,192,70513,128,0,70599:0:0:0:0:
64,192,70599,128,0,70684:0:0:0:0:
320,192,70684,128,0,70856:0:0:0:0:
448,192,70684,128,0,70770:0:0:0:0:
64,192,70770,128,0,70856:0:0:0:0:
192,192,70813,128,0,70899:0:0:0:0:
448,192,70856,128,0,71027:0:0:0:0:
320,192,70941,128,0,71027:0:0:0:0:
64,192,71027,128,0,71199:0:0:0:0:
192,192,71027,128,0,71113:0:0:0:0:
448,192,71113,128,0,71199:0:0:0:0:
192,192,71199,128,0,71284:0:0:0:0:
320,192,71284,128,0,71456:0:0:0:0:
192,192,71370,128,0,71541:0:0:0:0:
64,192,71370,128,0,71456:0:0:0:0:
448,192,71456,128,0,71541:0:0:0:0:
64,192,71541,1,0,0:0:0:0:
192,192,71584,1,0,0:0:0:0:
320,192,71627,1,0,0:0:0:0:
448,192,71670,1,0,0:0:0:0:
192,192,71713,128,0,71799:0:0:0:0:
64,192,71713,128,0,71884:0:0:0:0:
320,192,71799,128,0,71884:0:0:0:0:
192,192,71884,128,0,72056:0:0:0:0:
320,192,71970,128,0,72141:0:0:0:0:
448,192,72056,128,0,72227:0:0:0:0:
64,192,72056,128,0,72227:0:0:0:0:
192,192,72141,128,0,72227:0:0:0:0:
320,192,72227,128,0,72313:0:0:0:0:
192,192,72313,128,0,72484:0:0:0:0:
320,192,72399,128,0,72484:0:0:0:0:
448,192,72399,128,0,72484:0:0:0:0:
64,192,72484,128,0,72570:0:0:0:0:
448,192,72570,1,0,0:0:0:0:
320,192,72613,1,0,0:0:0:0:
192,192,72656,1,0,0:0:0:0:
64,192,72699,1,0,0:0:0:0:
320,192,72741,128,0,72913:0:0:0:0:
448,192,72741,128,0,72999:0:0:0:0:
64,192,72913,128,0,72999:0:0:0:0:
192,192,72956,128,0,73041:0:0:0:0:
320,192,72999,128,0,73170:0:0:0:0:
64,192,73084,128,0,73256:0:0:0:0:
448,192,73084,128,0,73341:0:0:0:0:
320,192,73256,128,0,73341:0:0:0:0:
192,192,73299,128,0,73384:0:0:0:0:
64,192,73341,128,0,73427:0:0:0:0:
448,192,73427,128,0,73599:0:0:0:0:
320,192,73427,128,0,73513:0:0:0:0:
64,192,73513,128,0,73599:0:0:0:0:
192,192,73599,128,0,73684:0:0:0:0:
64,192,73684,128,0,73856:0:0:0:0:
192,192,73770,128,0,73941:0:0:0:0:
320,192,73770,128,0,73856:0:0:0:0:
448,192,73856,128,0,73941:0:0:0:0:
320,192,73941,128,0,74027:0:0:0:0:
448,192,74027,128,0,74199:0:0:0:0:
320,192,74113,128,0,74284:0:0:0:0:
192,192,74113,128,0,74199:0:0:0:0:
64,192,74199,128,0,74284:0:0:0:0:
192,192,74284,128,0,74370:0:0:0:0:
64,192,74370,128,0,74456:0:0:0:0:
320,192,74456,128,0,74570:0:0:0:0:
448,192,74456,128,0,74541:0:0:0:0:
192,192,74513,128,0,74627:0:0:0:0:
64,192,74570,128,0,74684:0:0:0:0:
448,192,74627,128,0,74741:0:0:0:0:
320,192,74684,128,0,74799:0:0:0:0:
64,192,74741,128,0,74856:0:0:0:0:
192,192,74799,128,0,74913:0:0:0:0:
448,192,74799,128,0,74884:0:0:0:0:
320,192,74884,128,0,74970:0:0:0:0:
192,192,74970,128,0,75056:0:0:0:0:
320,192,75056,128,0,75141:0:0:0:0:
448,192,75141,128,0,75313:0:0:0:0:
64,192,75141,128,0,75227:0:0:0:0:
192,192,75227,128,0,75313:0:0:0:0:
320,192,75313,128,0,75484:0:0:0:0:
192,192,75399,128,0,75484:0:0:0:0:
64,192,75484,1,0,0:0:0:0:
448,192,75484,1,0,0:0:0:0:
320,192,75541,1,0,0:0:0:0:
192,192,75599,1,0,0:0:0:0:
64,192,75656,128,0,75741:0:0:0:0:
320,192,75741,128,0,75827:0:0:0:0:
192,192,75827,128,0,75999:0:0:0:0:
64,192,75827,128,0,75913:0:0:0:0:
448,192,75827,128,0,75913:0:0:0:0:
320,192,75913,128,0,75999:0:0:0:0:
448,192,75999,128,0,76084:0:0:0:0:
64,192,76084,128,0,76170:0:0:0:0:
320,192,76170,128,0,76341:0:0:0:0:
448,192,76170,128,0,76256:0:0:0:0:
64,192,76256,128,0,76341:0:0:0:0:
192,192,76299,128,0,76384:0:0:0:0:
448,192,76341,128,0,76513:0:0:0:0:
320,192,76427,128,0,76513:0:0:0:0:
64,192,76513,128,0,76684:0:0:0:0:
192,192,76513,128,0,76599:0:0:0:0:
448,192,76599,128,0,76684:0:0:0:0:
192,192,76684,128,0,76770:0:0:0:0:
320,192,76770,128,0,76941:0:0:0:0:
192,192,76856,128,0,77027:0:0:0:0:
64,192,76856,128,0,76941:0:0:0:0:
448,192,76941,128,0,77027:0:0:0:0:
64,192,77027,1,0,0:0:0:0:
192,192,77070,1,0,0:0:0:0:
320,192,77113,1,0,0:0:0:0:
448,192,77156,1,0,0:0:0:0:
192,192,77199,128,0,77284:0:0:0:0:
64,192,77199,128,0,77370:0:0:0:0:
320,192,77284,128,0,77370:0:0:0:0:
192,192,77370,128,0,77541:0:0:0:0:
320,192,77456,128,0,77627:0:0:0:0:
448,192,77541,128,0,77713:0:0:0:0:
64,192,77541,128,0,77713:0:0:0:0:
192,192,77627,128,0,77713:0:0:0:0:
320,192,77713,128,0,77799:0:0:0:0:
192,192,77799,128,0,77970:0:0:0:0:
320,192,77884,128,0,77970:0:0:0:0:
448,192,77884,128,0,77970:0:0:0:0:
64,192,77970,128,0,78056:0:0:0:0:
448,192,78056,1,0,0:0:0:0:
320,192,78099,1,0,0:0:0:0:
192,192,78141,1,0,0:0:0:0:
64,192,78184,1,0,0:0:0:0:
448,192,78227,128,0,78399:0:0:0:0:
320,192,78227,128,0,78313:0:0:0:0:
192,192,78313,128,0,78399:0:0:0:0:
320,192,78399,128,0,78570:0:0:0:0:
192,192,78484,128,0,78656:0:0:0:0:
64,192,78570,128,0,78741:0:0:0:0:
448,192,78570,128,0,78741:0:0:0:0:
320,192,78741,128,0,78856:0:0:0:0:
192,192,78799,128,0,78913:0:0:0:0:
64,192,78856,128,0,78970:0:0:0:0:
320,192,78913,128,0,79084:0:0:0:0:
448,192,78913,128,0,78999:0:0:0:0:
192,192,78999,128,0,79170:0:0:0:0:
448,192,79084,128,0,79170:0:0:0:0:
320,192,79170,128,0,79256:0:0:0:0:
192,192,79256,1,0,0:0:0:0:
64,192,79256,1,0,0:0:0:0:
448,192,79341,128,0,79513:0:0:0:0:
192,192,79427,128,0,79599:0:0:0:0:
320,192,79513,128,0,79599:0:0:0:0:
64,192,79599,1,0,0:0:0:0:
448,192,79599,1,0,0:0:0:0:
192,192,79684,128,0,79856:0:0:0:0:
448,192,79770,128,0,79941:0:0:0:0:
320,192,79856,128,0,79941:0:0:0:0:
64,192,79941,128,0,80027:0:0:0:0:
192,192,79941,128,0,80027:0:0:0:0:
448,192,79999,128,0,80113:0:0:0:0:
320,192,80056,128,0,80170:0:0:0:0:
192,192,80113,128,0,80227:0:0:0:0:
64,192,80170,128,0,80284:0:0:0:0:
448,192,80227,128,0,80341:0:0:0:0:
192,192,80284,128,0,80370:0:0:0:0:
320,192,80284,128,0,80456:0:0:0:0:
64,192,80370,128,0,80541:0:0:0:0:
448,192,80456,128,0,80541:0:0:0:0:
192,192,80541,128,0,80713:0:0:0:0:
448,192,80627,128,0,80799:0:0:0:0:
320,192,80627,128,0,80713:0:0:0:0:
64,192,80713,128,0,80799:0:0:0:0:
192,192,80799,128,0,80970:0:0:0:0:
320,192,80884,128,0,80970:0:0:0:0:
448,192,80970,1,0,0:0:0:0:
64,192,80970,1,0,0:0:0:0:
320,192,81027,1,0,0:0:0:0:
192,192,81084,1,0,0:0:0:0:
448,192,81141,1,0,0:0:0:0:
64,192,81199,1,0,0:0:0:0:
192,192,81256,1,0,0:0:0:0:
320,192,81313,128,0,81570:0:0:0:0:
448,192,81313,128,0,81484:0:0:0:0:
64,192,81399,128,0,81570:0:0:0:0:
192,192,81484,128,0,81656:0:0:0:0:
64,192,81656,128,0,81827:0:0:0:0:
448,192,81656,128,0,81741:0:0:0:0:
192,192,81741,128,0,81913:0:0:0:0:
448,192,81827,128,0,81913:0:0:0:0:
320,192,81913,128,0,81999:0:0:0:0:
64,192,81999,128,0,82170:0:0:0:0:
192,192,81999,128,0,82084:0:0:0:0:
320,192,82084,128,0,82170:0:0:0:0:
448,192,82170,128,0,82341:0:0:0:0:
192,192,82256,128,0,82341:0:0:0:0:
64,192,82341,128,0,82427:0:0:0:0:
320,192,82341,1,0,0:0:0:0:
448,192,82427,128,0,82513:0:0:0:0:
192,192,82513,128,0,82684:0:0:0:0:
320,192,82599,128,0,82684:0:0:0:0:
64,192,82684,1,0,0:0:0:0:
448,192,82684,1,0,0:0:0:0:
320,192,82770,128,0,82941:0:0:0:0:
64,192,82856,128,0,83027:0:0:0:0:
192,192,82941,128,0,83027:0:0:0:0:
320,192,83027,128,0,83199:0:0:0:0:
448,192,83027,128,0,83113:0:0:0:0:
64,192,83113,128,0,83241:0:0:0:0:
192,192,83156,128,0,83284:0:0:0:0:
448,192,83199,128,0,83284:0:0:0:0:
320,192,83284,128,0,83413:0:0:0:0:
192,192,83327,128,0,83456:0:0:0:0:
64,192,83370,128,0,83541:0:0:0:0:
448,192,83427,128,0,83541:0:0:0:0:
320,192,83484,128,0,83599:0:0:0:0:
192,192,83541,128,0,83656:0:0:0:0:
448,192,83627,128,0,83799:0:0:0:0:
320,192,83713,128,0,83799:0:0:0:0:
64,192,83713,128,0,83970:0:0:0:0:
192,192,83799,128,0,83884:0:0:0:0:
320,192,83884,128,0,83970:0:0:0:0:
448,192,83970,128,0,84056:0:0:0:0:
64,192,84056,128,0,84399:0:0:0:0:
192,192,84056,128,0,84313:0:0:0:0:
320,192,84056,128,0,84227:0:0:0:0:
448,192,84227,128,0,84313:0:0:0:0:
320,192,84313,128,0,84399:0:0:0:0:
448,192,84399,128,0,84484:0:0:0:0:
192,192,84399,128,0,84484:0:0:0:0:
64,192,84484,128,0,84570:0:0:0:0:
192,192,84570,128,0,84741:0:0:0:0:
64,192,84656,128,0,84741:0:0:0:0:
320,192,84741,128,0,84827:0:0:0:0:
448,192,84741,128,0,84913:0:0:0:0:
192,192,84827,128,0,84913:0:0:0:0:
320,192,84913,128,0,85084:0:0:0:0:
192,192,84999,128,0,85084:0:0:0:0:
64,192,85084,128,0,85256:0:0:0:0:
448,192,85084,128,0,85170:0:0:0:0:
192,192,85170,128,0,85256:0:0:0:0:
320,192,85256,128,0,85427:0:0:0:0:
448,192,85341,128,0,85427:0:0:0:0:
192,192,85427,1,0,0:0:0:0:
64,192,85427,128,0,85513:0:0:0:0:
320,192,85470,128,0,85556:0:0:0:0:
448,192,85513,128,0,85599:0:0:0:0:
192,192,85556,128,0,85641:0:0:0:0:
64,192,85599,128,0,85770:0:0:0:0:
192,192,85770,128,0,85856:0:0:0:0:
448,192,85770,128,0,85941:0:0:0:0:
320,192,85856,128,0,85941:0:0:0:0:
192,192,85941,128,0,86027:0:0:0:0:
64,192,86027,128,0,86113:0:0:0:0:
320,192,86113,128,0,86199:0:0:0:0:
448,192,86113,128,0,86199:0:0:0:0:
64,192,86199,128,0,86284:0:0:0:0:
192,192,86284,128,0,86456:0:0:0:0:
64,192,86370,128,0,86456:0:0:0:0:
448,192,86456,128,0,86541:0:0:0:0:
320,192,86456,128,0,86627:0:0:0:0:
192,192,86541,128,0,86627:0:0:0:0:
448,192,86627,128,0,86713:0:0:0:0:
320,192,86713,128,0,86799:0:0:0:0:
64,192,86799,128,0,86884:0:0:0:0:
192,192,86799,128,0,86970:0:0:0:0:
320,192,86884,128,0,87056:0:0:0:0:
448,192,86970,128,0,87056:0:0:0:0:
64,192,87141,128,0,87313:0:0:0:0:
448,192,87141,128,0,87227:0:0:0:0:
320,192,87227,128,0,87313:0:0:0:0:
192,192,87313,128,0,87399:0:0:0:0:
320,192,87399,128,0,87484:0:0:0:0:
448,192,87484,128,0,87570:0:0:0:0:
192,192,87484,128,0,87656:0:0:0:0:
64,192,87570,128,0,87656:0:0:0:0:
320,192,87656,128,0,87741:0:0:0:0:
192,192,87741,128,0,87827:0:0:0:0:
320,192,87827,128,0,87913:0:0:0:0:
448,192,87827,128,0,87999:0:0:0:0:
64,192,87884,128,0,87999:0:0:0:0:
192,192,87941,128,0,88056:0:0:0:0:
320,192,87999,128,0,88113:0:0:0:0:
448,192,88084,128,0,88170:0:0:0:0:
192,192,88170,128,0,88256:0:0:0:0:
64,192,88170,128,0,88256:0:0:0:0:
320,192,88213,128,0,88299:0:0:0:0:
448,192,88256,128,0,88341:0:0:0:0:
64,192,88299,128,0,88384:0:0:0:0:
192,192,88341,128,0,88513:0:0:0:0:
448,192,88427,128,0,88513:0:0:0:0:
320,192,88513,1,0,0:0:0:0:
64,192,88513,1,0,0:0:0:0:
192,192,88599,128,0,88684:0:0:0:0:
64,192,88684,128,0,88770:0:0:0:0:
448,192,88684,128,0,88770:0:0:0:0:
320,192,88770,128,0,88856:0:0:0:0:
192,192,88856,1,0,0:0:0:0:
64,192,88856,128,0,88941:0:0:0:0:
448,192,88941,128,0,89027:0:0:0:0:
320,192,88941,128,0,89027:0:0:0:0:
64,192,89027,1,0,0:0:0:0:
192,192,89027,128,0,89113:0:0:0:0:
448,192,89113,1,0,0:0:0:0:
320,192,89113,128,0,89199:0:0:0:0:
192,192,89199,1,0,0:0:0:0:
64,192,89199,128,0,89284:0:0:0:0:
448,192,89284,1,0,0:0:0:0:
320,192,89327,1,0,0:0:0:0:
192,192,89370,128,0,89456:0:0:0:0:
64,192,89456,1,0,0:0:0:0:
448,192,89456,128,0,89541:0:0:0:0:
192,192,89541,128,0,89709:0:0:0:0:
320,192,89541,128,0,89625:0:0:0:0:
64,192,89597,128,0,89709:0:0:0:0:
448,192,89653,128,0,89765:0:0:0:0:
320,192,89709,128,0,89821:0:0:0:0:
192,192,89765,128,0,89878:0:0:0:0:
64,192,89821,128,0,89934:0:0:0:0:
448,192,89878,128,0,89962:0:0:0:0:
192,192,89962,128,0,90130:0:0:0:0:
320,192,90046,128,0,90215:0:0:0:0:
64,192,90130,128,0,90215:0:0:0:0:
192,192,90215,1,0,0:0:0:0:
448,192,90215,128,0,90299:0:0:0:0:
320,192,90299,128,0,90467:0:0:0:0:
448,192,90383,128,0,90467:0:0:0:0:
320,192,90552,1,0,0:0:0:0:
64,192,90552,128,0,90636:0:0:0:0:
192,192,90636,128,0,90805:0:0:0:0:
64,192,90720,128,0,90805:0:0:0:0:
320,192,90805,128,0,90889:0:0:0:0:
64,192,90889,128,0,91001:0:0:0:0:
448,192,90889,128,0,91001:0:0:0:0:
192,192,90945,128,0,91057:0:0:0:0:
320,192,91001,128,0,91114:0:0:0:0:
448,192,91057,128,0,91170:0:0:0:0:
192,192,91114,128,0,91226:0:0:0:0:
320,192,91170,128,0,91226:0:0:0:0:
64,192,91226,1,0,0:0:0:0:
448,192,91226,1,0,0:0:0:0:
192,192,91310,128,0,91479:0:0:0:0:
320,192,91394,128,0,91563:0:0:0:0:
448,192,91479,128,0,91647:0:0:0:0:
64,192,91563,1,0,0:0:0:0:
192,192,91563,1,0,0:0:0:0:
320,192,91647,128,0,91816:0:0:0:0:
192,192,91732,128,0,91900:0:0:0:0:
320,192,91900,1,0,0:0:0:0:
64,192,91956,1,0,0:0:0:0:
320,192,92012,1,0,0:0:0:0:
192,192,92069,1,0,0:0:0:0:
448,192,92125,1,0,0:0:0:0:
192,192,92181,1,0,0:0:0:0:
64,192,92237,128,0,92403:0:0:0:0:
320,192,92237,128,0,92320:0:0:0:0:
448,192,92237,128,0,92487:0:0:0:0:
320,192,92403,128,0,92570:0:0:0:0:
64,192,92487,128,0,92570:0:0:0:0:
192,192,92570,1,0,0:0:0:0:
448,192,92570,128,0,92737:0:0:0:0:
320,192,92653,128,0,92820:0:0:0:0:
64,192,92737,128,0,92903:0:0:0:0:
192,192,92820,128,0,92987:0:0:0:0:
448,192,92903,128,0,93070:0:0:0:0:
320,192,92987,128,0,93153:0:0:0:0:
192,192,93070,1,0,0:0:0:0:
64,192,93070,128,0,93153:0:0:0:0:
448,192,93153,128,0,93237:0:0:0:0:
64,192,93237,1,0,0:0:0:0:
320,192,93237,128,0,93320:0:0:0:0:
192,192,93320,128,0,93487:0:0:0:0:
320,192,93403,128,0,93487:0:0:0:0:
64,192,93487,128,0,93570:0:0:0:0:
320,192,93570,1,0,0:0:0:0:
448,192,93570,128,0,93737:0:0:0:0:
64,192,93653,128,0,93820:0:0:0:0:
192,192,93737,128,0,93903:0:0:0:0:
64,192,93903,1,0,0:0:0:0:
320,192,93903,128,0,93987:0:0:0:0:
448,192,93987,128,0,94153:0:0:0:0:
64,192,94070,128,0,94237:0:0:0:0:
320,192,94153,128,0,94320:0:0:0:0:
192,192,94237,128,0,94320:0:0:0:0:
64,192,94320,128,0,94487:0:0:0:0:
448,192,94403,1,0,0:0:0:0:
192,192,94403,128,0,94487:0:0:0:0:
320,192,94487,128,0,94570:0:0:0:0:
64,192,94570,128,0,94820:0:0:0:0:
192,192,94570,128,0,94737:0:0:0:0:
448,192,94570,128,0,94653:0:0:0:0:
320,192,94653,128,0,94737:0:0:0:0:
448,192,94737,128,0,94820:0:0:0:0:
192,192,94820,128,0,94903:0:0:0:0:
64,192,94903,128,0,94987:0:0:0:0:
320,192,94903,128,0,95070:0:0:0:0:
448,192,94903,128,0,95153:0:0:0:0:
64,192,95070,128,0,95181:0:0:0:0:
192,192,95125,128,0,95237:0:0:0:0:
320,192,95181,128,0,95237:0:0:0:0:
64,192,95237,1,0,0:0:0:0:
448,192,95237,128,0,95320:0:0:0:0:
192,192,95320,128,0,95487:0:0:0:0:
320,192,95403,128,0,95570:0:0:0:0:
64,192,95487,128,0,95653:0:0:0:0:
448,192,95570,128,0,95653:0:0:0:0:
192,192,95653,128,0,95820:0:0:0:0:
448,192,95737,1,0,0:0:0:0:
320,192,95737,128,0,95903:0:0:0:0:
64,192,95820,128,0,95903:0:0:0:0:
192,192,95903,1,0,0:0:0:0:
448,192,95903,128,0,95987:0:0:0:0:
320,192,95987,128,0,96153:0:0:0:0:
192,192,96070,128,0,96153:0:0:0:0:
448,192,96153,128,0,96237:0:0:0:0:
64,192,96237,1,0,0:0:0:0:
192,192,96237,128,0,96348:0:0:0:0:
320,192,96292,128,0,96403:0:0:0:0:
448,192,96348,128,0,96459:0:0:0:0:
64,192,96403,128,0,96514:0:0:0:0:
192,192,96459,128,0,96514:0:0:0:0:
320,192,96514,128,0,96570:0:0:0:0:
64,192,96570,1,0,0:0:0:0:
448,192,96570,128,0,96653:0:0:0:0:
192,192,96653,128,0,96737:0:0:0:0:
320,192,96737,128,0,96903:0:0:0:0:
64,192,96820,128,0,96987:0:0:0:0:
448,192,96903,128,0,97070:0:0:0:0:
320,192,96987,128,0,97153:0:0:0:0:
64,192,97070,1,0,0:0:0:0:
192,192,97070,128,0,97237:0:0:0:0:
448,192,97153,128,0,97237:0:0:0:0:
320,192,97237,1,0,0:0:0:0:
64,192,97237,128,0,97320:0:0:0:0:
192,192,97320,128,0,97487:0:0:0:0:
448,192,97403,128,0,97487:0:0:0:0:
64,192,97487,128,0,97570:0:0:0:0:
448,192,97570,1,0,0:0:0:0:
320,192,97570,128,0,97737:0:0:0:0:
192,192,97653,128,0,97737:0:0:0:0:
448,192,97737,128,0,97848:0:0:0:0:
320,192,97792,128,0,97903:0:0:0:0:
192,192,97848,128,0,97959:0:0:0:0:
448,192,97903,1,0,0:0:0:0:
64,192,97903,128,0,98070:0:0:0:0:
320,192,97987,128,0,98153:0:0:0:0:
448,192,98070,128,0,98153:0:0:0:0:
192,192,98153,128,0,98320:0:0:0:0:
320,192,98237,128,0,98320:0:0:0:0:
64,192,98320,128,0,98403:0:0:0:0:
448,192,98403,1,0,0:0:0:0:
320,192,98403,128,0,98570:0:0:0:0:
64,192,98487,128,0,98570:0:0:0:0:
192,192,98570,1,0,0:0:0:0:
448,192,98570,128,0,98653:0:0:0:0:
320,192,98653,128,0,98737:0:0:0:0:
64,192,98737,1,0,0:0:0:0:
192,192,98778,1,0,0:0:0:0:
320,192,98820,1,0,0:0:0:0:
448,192,98862,1,0,0:0:0:0:
64,192,98903,1,0,0:0:0:0:
192,192,98903,128,0,99070:0:0:0:0:
320,192,98987,128,0,99070:0:0:0:0:
64,192,99070,128,0,99237:0:0:0:0:
320,192,99153,128,0,99237:0:0:0:0:
192,192,99237,1,0,0:0:0:0:
448,192,99237,128,0,99320:0:0:0:0:
64,192,99320,128,0,99403:0:0:0:0:
448,192,99403,128,0,99570:0:0:0:0:
192,192,99486,1,0,0:0:0:0:
64,192,99486,128,0,99570:0:0:0:0:
320,192,99570,128,0,99736:0:0:0:0:
448,192,99653,128,0,99736:0:0:0:0:
64,192,99736,1,0,0:0:0:0:
192,192,99778,1,0,0:0:0:0:
320,192,99820,1,0,0:0:0:0:
448,192,99861,1,0,0:0:0:0:
64,192,99903,128,0,100070:0:0:0:0:
320,192,99986,128,0,100070:0:0:0:0:
192,192,100070,128,0,100153:0:0:0:0:
320,192,100153,128,0,100236:0:0:0:0:
64,192,100236,128,0,100486:0:0:0:0:
192,192,100236,128,0,100403:0:0:0:0:
448,192,100236,128,0,100320:0:0:0:0:
448,192,100403,128,0,100514:0:0:0:0:
320,192,100459,128,0,100570:0:0:0:0:
192,192,100514,128,0,100570:0:0:0:0:
448,192,100570,1,0,0:0:0:0:
64,192,100570,128,0,100653:0:0:0:0:
320,192,100653,128,0,100736:0:0:0:0:
192,192,100736,128,0,100903:0:0:0:0:
320,192,100820,128,0,100903:0:0:0:0:
448,192,100903,128,0,101070:0:0:0:0:
320,192,100986,128,0,101070:0:0:0:0:
64,192,101070,128,0,101236:0:0:0:0:
192,192,101070,128,0,101153:0:0:0:0:
448,192,101236,1,0,0:0:0:0:
192,192,101236,128,0,101320:0:0:0:0:
64,192,101320,128,0,101403:0:0:0:0:
320,192,101403,128,0,101486:0:0:0:0:
64,192,101486,128,0,101570:0:0:0:0:
448,192,101570,1,0,0:0:0:0:
320,192,101570,128,0,101681:0:0:0:0:
192,192,101625,128,0,101736:0:0:0:0:
64,192,101681,128,0,101792:0:0:0:0:
448,192,101736,128,0,101848:0:0:0:0:
320,192,101792,128,0,101903:0:0:0:0:
192,192,101848,128,0,101903:0:0:0:0:
64,192,101903,1,0,0:0:0:0:
448,192,101903,128,0,101986:0:0:0:0:
320,192,101986,128,0,102153:0:0:0:0:
192,192,102070,128,0,102236:0:0:0:0:
64,192,102153,128,0,102320:0:0:0:0:
320,192,102236,128,0,102403:0:0:0:0:
448,192,102320,128,0,102403:0:0:0:0:
64,192,102403,128,0,102486:0:0:0:0:
192,192,102403,128,0,102570:0:0:0:0:
320,192,102486,128,0,102570:0:0:0:0:
64,192,102570,1,0,0:0:0:0:
448,192,102570,128,0,102681:0:0:0:0:
320,192,102625,128,0,102736:0:0:0:0:
192,192,102681,128,0,102792:0:0:0:0:
64,192,102736,128,0,102848:0:0:0:0:
320,192,102792,128,0,102903:0:0:0:0:
448,192,102848,128,0,102903:0:0:0:0:
64,192,102903,128,0,103070:0:0:0:0:
192,192,102903,128,0,103153:0:0:0:0:
320,192,102986,128,0,103153:0:0:0:0:
448,192,103070,128,0,103236:0:0:0:0:
64,192,103236,128,0,103403:0:0:0:0:
192,192,103236,1,0,0:0:0:0:
320,192,103320,128,0,103403:0:0:0:0:
192,192,103403,128,0,103570:0:0:0:0:
320,192,103486,128,0,103570:0:0:0:0:
448,192,103570,128,0,103653:0:0:0:0:
64,192,103653,128,0,103820:0:0:0:0:
320,192,103736,1,0,0:0:0:0:
192,192,103736,128,0,103903:0:0:0:0:
448,192,103820,128,0,103903:0:0:0:0:
64,192,103903,1,0,0:0:0:0:
320,192,103903,128,0,103986:0:0:0:0:
192,192,103986,128,0,104070:0:0:0:0:
64,192,104070,128,0,104153:0:0:0:0:
448,192,104153,1,0,0:0:0:0:
320,192,104195,1,0,0:0:0:0:
192,192,104236,128,0,104320:0:0:0:0:
64,192,104236,128,0,104403:0:0:0:0:
448,192,104320,128,0,104403:0:0:0:0:
192,192,104403,128,0,104570:0:0:0:0:
448,192,104486,128,0,104570:0:0:0:0:
320,192,104570,1,0,0:0:0:0:
64,192,104570,128,0,104653:0:0:0:0:
192,192,104653,1,0,0:0:0:0:
448,192,104695,1,0,0:0:0:0:
320,192,104736,128,0,104820:0:0:0:0:
192,192,104820,1,0,0:0:0:0:
64,192,104820,128,0,104903:0:0:0:0:
448,192,104861,1,0,0:0:0:0:
320,192,104903,1,0,0:0:0:0:
64,192,104986,1,0,0:0:0:0:
192,192,104986,128,0,105153:0:0:0:0:
320,192,105070,1,0,0:0:0:0:
448,192,105070,128,0,105153:0:0:0:0:
64,192,105153,128,0,105236:0:0:0:0:
448,192,105236,1,0,0:0:0:0:
320,192,105236,128,0,105348:0:0:0:0:
192,192,105292,128,0,105403:0:0:0:0:
64,192,105348,128,0,105459:0:0:0:0:
320,192,105403,128,0,105514:0:0:0:0:
192,192,105459,128,0,105514:0:0:0:0:
448,192,105514,128,0,105570:0:0:0:0:
64,192,105570,128,0,105820:0:0:0:0:
192,192,105570,128,0,105736:0:0:0:0:
320,192,105570,128,0,105653:0:0:0:0:
320,192,105736,128,0,105820:0:0:0:0:
192,192,105820,128,0,105903:0:0:0:0:
64,192,105903,1,0,0:0:0:0:
448,192,105903,128,0,105986:0:0:0:0:
192,192,105986,128,0,106236:0:0:0:0:
320,192,106070,128,0,106236:0:0:0:0:
448,192,106153,128,0,106236:0:0:0:0:
64,192,106236,128,0,106320:0:0:0:0:
320,192,106320,128,0,106403:0:0:0:0:
64,192,106403,1,0,0:0:0:0:
192,192,106403,128,0,106486:0:0:0:0:
320,192,106486,128,0,106570:0:0:0:0:
192,192,106570,1,0,0:0:0:0:
448,192,106570,128,0,106653:0:0:0:0:
64,192,106653,128,0,106736:0:0:0:0:
320,192,106736,128,0,106903:0:0:0:0:
448,192,106820,128,0,106903:0:0:0:0:
64,192,106903,1,0,0:0:0:0:
192,192,106903,128,0,106986:0:0:0:0:
448,192,106959,128,0,107070:0:0:0:0:
320,192,107014,128,0,107125:0:0:0:0:
64,192,107070,5,0,0:0:0:0:
192,192,107070,128,0,107181:0:0:0:0:
448,192,107153,128,0,107320:0:0:0:0:
192,192,107236,1,0,0:0:0:0:
320,192,107236,128,0,107403:0:0:0:0:
64,192,107320,128,0,107486:0:0:0:0:
448,192,107403,1,0,0:0:0:0:
192,192,107403,128,0,107570:0:0:0:0:
320,192,107486,128,0,107570:0:0:0:0:
448,192,107570,1,0,0:0:0:0:
64,192,107570,128,0,107653:0:0:0:0:
192,192,107653,128,0,107736:0:0:0:0:
320,192,107736,1,0,0:0:0:0:
448,192,107736,1,0,0:0:0:0:
192,192,107820,1,0,0:0:0:0:
64,192,107820,1,0,0:0:0:0:
320,192,107903,1,0,0:0:0:0:
448,192,107903,1,0,0:0:0:0:
192,192,107986,1,0,0:0:0:0:
320,192,108028,1,0,0:0:0:0:
448,192,108070,1,0,0:0:0:0:
64,192,108111,1,0,0:0:0:0:
320,192,108153,1,0,0:0:0:0:
192,192,108195,1,0,0:0:0:0:
64,192,108236,128,0,108403:0:0:0:0:
320,192,108236,128,0,108403:0:0:0:0:
448,192,108236,128,0,108403:0:0:0:0:
448,192,108486,128,0,108653:0:0:0:0:
192,192,108486,128,0,108653:0:0:0:0:
64,192,108486,128,0,108653:0:0:0:0:
192,192,108736,128,0,108903:0:0:0:0:
320,192,108736,128,0,108903:0:0:0:0:
448,192,108736,128,0,108903:0:0:0:0:
64,192,108986,128,0,109153:0:0:0:0:
192,192,108986,128,0,109153:0:0:0:0:
320,192,109070,128,0,109153:0:0:0:0:
64,192,109236,128,0,109403:0:0:0:0:
192,192,109236,128,0,109403:0:0:0:0:
448,192,109236,128,0,109403:0:0:0:0:
64,192,109486,128,0,109653:0:0:0:0:
320,192,109486,128,0,109653:0:0:0:0:
448,192,109486,128,0,109653:0:0:0:0:
192,192,109736,128,0,109903:0:0:0:0:
448,192,109736,128,0,109903:0:0:0:0:
64,192,109820,128,0,109903:0:0:0:0:
192,192,109986,128,0,110153:0:0:0:0:
320,192,109986,128,0,110153:0:0:0:0:
448,192,110070,128,0,110153:0:0:0:0:
192,192,110236,128,0,110403:0:0:0:0:
320,192,110236,128,0,110403:0:0:0:0:
64,192,110320,128,0,110403:0:0:0:0:
448,192,110403,128,0,110486:0:0:0:0:
64,192,110486,128,0,110653:0:0:0:0:
192,192,110486,128,0,110653:0:0:0:0:
320,192,110570,128,0,110653:0:0:0:0:
448,192,110653,128,0,110736:0:0:0:0:
64,192,110736,128,0,110820:0:0:0:0:
320,192,110736,128,0,110820:0:0:0:0:
192,192,110820,128,0,110903:0:0:0:0:
448,192,110903,128,0,113560:0:0:0:0:
320,192,110903,128,0,113560:0:0:0:0:
64,192,110903,128,0,113560:0:0:0:0:
64,192,113645,128,0,116380:0:0:0:0:
192,192,113645,128,0,116380:0:0:0:0:
448,192,113645,128,0,116380:0:0:0:0:
320,192,115056,128,0,116380:0:0:0:0:
320,192,116468,128,0,116733:0:0:0:0:
448,192,116468,128,0,116733:0:0:0:0:
64,192,116468,128,0,116733:0:0:0:0:
64,192,116821,1,0,0:0:0:0:
192,192,116821,128,0,116909:0:0:0:0:
320,192,116909,128,0,116997:0:0:0:0:
448,192,116997,128,0,117086:0:0:0:0:
192,192,117086,128,0,117174:0:0:0:0:
320,192,117174,1,0,0:0:0:0:
64,192,117174,128,0,117262:0:0:0:0:
192,192,117262,128,0,117350:0:0:0:0:
448,192,117350,128,0,117439:0:0:0:0:
320,192,117439,128,0,117527:0:0:0:0:
192,192,117527,1,0,0:0:0:0:
64,192,117527,128,0,117615:0:0:0:0:
448,192,117615,128,0,117703:0:0:0:0:
192,192,117703,128,0,117792:0:0:0:0:
320,192,117792,128,0,117880:0:0:0:0:
64,192,117880,1,0,0:0:0:0:
448,192,117880,128,0,117939:0:0:0:0:
192,192,117939,128,0,117997:0:0:0:0:
320,192,117997,128,0,118056:0:0:0:0:
448,192,118056,128,0,118115:0:0:0:0:
192,192,118145,128,0,118233:0:0:0:0:
64,192,118233,1,0,0:0:0:0:
448,192,118233,128,0,118321:0:0:0:0:
320,192,118321,128,0,118409:0:0:0:0:
64,192,118409,128,0,118497:0:0:0:0:
192,192,118497,128,0,118586:0:0:0:0:
448,192,118586,1,0,0:0:0:0:
320,192,118586,128,0,118674:0:0:0:0:
192,192,118674,128,0,118762:0:0:0:0:
64,192,118762,128,0,118850:0:0:0:0:
192,192,118850,128,0,118939:0:0:0:0:
320,192,118939,1,0,0:0:0:0:
448,192,118939,128,0,119027:0:0:0:0:
64,192,119027,128,0,119115:0:0:0:0:
320,192,119115,128,0,119203:0:0:0:0:
448,192,119203,128,0,119292:0:0:0:0:
192,192,119292,1,0,0:0:0:0:
64,192,119292,128,0,119380:0:0:0:0:
320,192,119380,128,0,119468:0:0:0:0:
192,192,119468,128,0,119556:0:0:0:0:
448,192,119556,128,0,119645:0:0:0:0:
320,192,119645,1,0,0:0:0:0:
64,192,119645,128,0,119733:0:0:0:0:
192,192,119733,128,0,119821:0:0:0:0:
448,192,119821,128,0,119909:0:0:0:0:
320,192,119909,128,0,119997:0:0:0:0:
448,192,119997,1,0,0:0:0:0:
192,192,119997,128,0,120086:0:0:0:0:
64,192,120086,128,0,120174:0:0:0:0:
448,192,120174,128,0,120262:0:0:0:0:
320,192,120262,128,0,120350:0:0:0:0:
448,192,120350,1,0,0:0:0:0:
64,192,120350,128,0,120439:0:0:0:0:
192,192,120439,128,0,120527:0:0:0:0:
320,192,120527,128,0,120615:0:0:0:0:
192,192,120615,128,0,120703:0:0:0:0:
64,192,120703,1,0,0:0:0:0:
448,192,120703,128,0,120792:0:0:0:0:
320,192,120792,128,0,120880:0:0:0:0:
192,192,120880,128,0,120968:0:0:0:0:
64,192,120968,128,0,121056:0:0:0:0:
448,192,121056,1,0,0:0:0:0:
320,192,121056,128,0,121145:0:0:0:0:
192,192,121145,128,0,121233:0:0:0:0:
320,192,121233,128,0,121321:0:0:0:0:
448,192,121321,128,0,121409:0:0:0:0:
192,192,121409,1,0,0:0:0:0:
64,192,121409,128,0,121497:0:0:0:0:
320,192,121497,128,0,121586:0:0:0:0:
448,192,121586,128,0,121674:0:0:0:0:
192,192,121674,128,0,121762:0:0:0:0:
64,192,121762,1,0,0:0:0:0:
320,192,121762,128,0,121850:0:0:0:0:
448,192,121850,128,0,121939:0:0:0:0:
192,192,121939,128,0,122027:0:0:0:0:
64,192,122027,128,0,122115:0:0:0:0:
192,192,122115,128,0,122380:0:0:0:0:
320,192,122115,128,0,122292:0:0:0:0:
448,192,122115,128,0,122380:0:0:0:0:
64,192,122292,128,0,122380:0:0:0:0:
320,192,122380,128,0,122468:0:0:0:0:
192,192,122468,1,0,0:0:0:0:
64,192,122468,128,0,122556:0:0:0:0:
448,192,122556,128,0,122645:0:0:0:0:
320,192,122645,128,0,122733:0:0:0:0:
64,192,122733,128,0,122821:0:0:0:0:
192,192,122821,1,0,0:0:0:0:
448,192,122821,128,0,122909:0:0:0:0:
320,192,122909,128,0,122997:0:0:0:0:
64,192,122997,128,0,123086:0:0:0:0:
192,192,123086,128,0,123174:0:0:0:0:
448,192,123174,1,0,0:0:0:0:
320,192,123174,128,0,123262:0:0:0:0:
64,192,123262,128,0,123350:0:0:0:0:
448,192,123350,128,0,123439:0:0:0:0:
320,192,123439,128,0,123527:0:0:0:0:
64,192,123527,1,0,0:0:0:0:
192,192,123527,128,0,123586:0:0:0:0:
320,192,123586,128,0,123645:0:0:0:0:
448,192,123645,128,0,123703:0:0:0:0:
64,192,123703,128,0,123792:0:0:0:0:
320,192,123792,128,0,123880:0:0:0:0:
192,192,123880,1,0,0:0:0:0:
448,192,123880,128,0,123968:0:0:0:0:
320,192,123968,128,0,124056:0:0:0:0:
64,192,124056,128,0,124145:0:0:0:0:
192,192,124145,128,0,124233:0:0:0:0:
320,192,124233,1,0,0:0:0:0:
64,192,124233,128,0,124321:0:0:0:0:
448,192,124321,128,0,124409:0:0:0:0:
192,192,124409,128,0,124497:0:0:0:0:
320,192,124497,128,0,124586:0:0:0:0:
192,192,124586,1,0,0:0:0:0:
64,192,124586,128,0,124674:0:0:0:0:
448,192,124674,128,0,124762:0:0:0:0:
64,192,124762,128,0,124850:0:0:0:0:
192,192,124850,128,0,124939:0:0:0:0:
320,192,124939,1,0,0:0:0:0:
448,192,124939,128,0,125027:0:0:0:0:
192,192,125027,128,0,125115:0:0:0:0:
64,192,125115,128,0,125203:0:0:0:0:
320,192,125203,128,0,125292:0:0:0:0:
192,192,125292,1,0,0:0:0:0:
448,192,125292,128,0,125380:0:0:0:0:
64,192,125380,128,0,125468:0:0:0:0:
320,192,125468,128,0,125556:0:0:0:0:
192,192,125556,128,0,125645:0:0:0:0:
448,192,125645,1,0,0:0:0:0:
320,192,125645,128,0,125733:0:0:0:0:
64,192,125733,128,0,125821:0:0:0:0:
192,192,125821,128,0,125909:0:0:0:0:
64,192,125909,128,0,125997:0:0:0:0:
320,192,125997,1,0,0:0:0:0:
448,192,125997,128,0,126086:0:0:0:0:
192,192,126086,128,0,126174:0:0:0:0:
320,192,126174,128,0,126262:0:0:0:0:
448,192,126262,128,0,126350:0:0:0:0:
64,192,126350,1,0,0:0:0:0:
192,192,126350,128,0,126439:0:0:0:0:
320,192,126439,128,0,126527:0:0:0:0:
64,192,126527,128,0,126615:0:0:0:0:
192,192,126615,128,0,126703:0:0:0:0:
320,192,126703,1,0,0:0:0:0:
448,192,126703,128,0,126792:0:0:0:0:
192,192,126792,128,0,126880:0:0:0:0:
64,192,126880,128,0,126968:0:0:0:0:
448,192,126968,1,0,0:0:0:0:
320,192,127012,1,0,0:0:0:0:
64,192,127056,1,0,0:0:0:0:
192,192,127056,128,0,127144:0:0:0:0:
448,192,127144,128,0,127233:0:0:0:0:
192,192,127233,128,0,127321:0:0:0:0:
320,192,127321,128,0,127409:0:0:0:0:
448,192,127321,1,0,0:0:0:0:
192,192,127409,1,0,0:0:0:0:
64,192,127409,128,0,127497:0:0:0:0:
448,192,127497,128,0,127586:0:0:0:0:
64,192,127586,1,0,0:0:0:0:
192,192,127586,128,0,127674:0:0:0:0:
320,192,127674,128,0,127762:0:0:0:0:
64,192,127762,128,0,128027:0:0:0:0:
192,192,127762,128,0,127939:0:0:0:0:
448,192,127762,128,0,128027:0:0:0:0:
320,192,127939,128,0,128027:0:0:0:0:
192,192,128027,128,0,128115:0:0:0:0:
64,192,128115,1,0,0:0:0:0:
320,192,128115,128,0,128203:0:0:0:0:
448,192,128203,128,0,128292:0:0:0:0:
64,192,128292,128,0,128380:0:0:0:0:
192,192,128380,128,0,128468:0:0:0:0:
448,192,128468,1,0,0:0:0:0:
320,192,128468,128,0,128556:0:0:0:0:
64,192,128556,128,0,128644:0:0:0:0:
320,192,128644,128,0,128733:0:0:0:0:
448,192,128733,128,0,128821:0:0:0:0:
64,192,128821,1,0,0:0:0:0:
192,192,128821,128,0,128909:0:0:0:0:
320,192,128909,128,0,128997:0:0:0:0:
192,192,128997,128,0,129086:0:0:0:0:
64,192,129086,128,0,129174:0:0:0:0:
320,192,129174,1,0,0:0:0:0:
448,192,129174,128,0,129262:0:0:0:0:
192,192,129262,128,0,129350:0:0:0:0:
320,192,129350,128,0,129439:0:0:0:0:
64,192,129439,128,0,129527:0:0:0:0:
192,192,129527,1,0,0:0:0:0:
448,192,129527,128,0,129615:0:0:0:0:
320,192,129615,128,0,129703:0:0:0:0:
448,192,129703,128,0,129792:0:0:0:0:
192,192,129792,128,0,129880:0:0:0:0:
320,192,129880,1,0,0:0:0:0:
64,192,129880,128,0,129968:0:0:0:0:
448,192,129968,128,0,130056:0:0:0:0:
64,192,130056,128,0,130144:0:0:0:0:
192,192,130144,128,0,130233:0:0:0:0:
448,192,130233,1,0,0:0:0:0:
320,192,130233,128,0,130321:0:0:0:0:
64,192,130321,128,0,130409:0:0:0:0:
320,192,130409,128,0,130497:0:0:0:0:
448,192,130497,128,0,130586:0:0:0:0:
192,192,130586,1,0,0:0:0:0:
64,192,130586,128,0,130674:0:0:0:0:
448,192,130674,128,0,130762:0:0:0:0:
192,192,130762,128,0,130850:0:0:0:0:
320,192,130850,128,0,130939:0:0:0:0:
64,192,130939,1,0,0:0:0:0:
448,192,130939,128,0,131027:0:0:0:0:
320,192,131027,128,0,131115:0:0:0:0:
448,192,131115,128,0,131203:0:0:0:0:
192,192,131203,128,0,131292:0:0:0:0:
320,192,131292,1,0,0:0:0:0:
64,192,131292,128,0,131380:0:0:0:0:
448,192,131380,128,0,131468:0:0:0:0:
64,192,131468,128,0,131556:0:0:0:0:
192,192,131556,128,0,131645:0:0:0:0:
448,192,131645,1,0,0:0:0:0:
320,192,131645,128,0,131733:0:0:0:0:
192,192,131733,128,0,131821:0:0:0:0:
320,192,131821,128,0,131909:0:0:0:0:
64,192,131909,128,0,131997:0:0:0:0:
448,192,131997,1,0,0:0:0:0:
192,192,131997,128,0,132086:0:0:0:0:
320,192,132086,128,0,132174:0:0:0:0:
192,192,132174,128,0,132262:0:0:0:0:
64,192,132262,128,0,132350:0:0:0:0:
320,192,132350,1,0,0:0:0:0:
448,192,132350,128,0,132439:0:0:0:0:
192,192,132439,128,0,132527:0:0:0:0:
448,192,132527,128,0,132615:0:0:0:0:
320,192,132615,128,0,132703:0:0:0:0:
64,192,132703,1,0,0:0:0:0:
192,192,132703,128,0,132792:0:0:0:0:
448,192,132792,128,0,132880:0:0:0:0:
192,192,132880,128,0,132968:0:0:0:0:
320,192,132968,128,0,133056:0:0:0:0:
448,192,133056,1,0,0:0:0:0:
64,192,133056,128,0,133145:0:0:0:0:
192,192,133145,128,0,133233:0:0:0:0:
64,192,133233,128,0,133321:0:0:0:0:
320,192,133321,128,0,133409:0:0:0:0:
64,192,133409,128,0,133681:0:0:0:0:
192,192,133409,128,0,133590:0:0:0:0:
448,192,133409,128,0,133681:0:0:0:0:
320,192,133590,128,0,133681:0:0:0:0:
192,192,133681,128,0,133772:0:0:0:0:
448,192,133772,1,0,0:0:0:0:
320,192,133772,128,0,133863:0:0:0:0:
64,192,133863,128,0,133954:0:0:0:0:
192,192,133954,128,0,134045:0:0:0:0:
320,192,134045,128,0,134136:0:0:0:0:
64,192,134136,128,0,134318:0:0:0:0:
448,192,134136,1,0,0:0:0:0:
192,192,134227,128,0,134409:0:0:0:0:
320,192,134318,128,0,134499:0:0:0:0:
448,192,134409,128,0,134590:0:0:0:0:
64,192,134499,1,0,0:0:0:0:
192,192,134499,128,0,134681:0:0:0:0:
320,192,134590,128,0,134772:0:0:0:0:
448,192,134681,128,0,134772:0:0:0:0:
192,192,134772,128,0,134954:0:0:0:0:
64,192,134863,1,0,0:0:0:0:
448,192,134863,128,0,135045:0:0:0:0:
320,192,134954,128,0,135136:0:0:0:0:
192,192,135045,128,0,135227:0:0:0:0:
64,192,135136,128,0,135318:0:0:0:0:
320,192,135227,128,0,135409:0:0:0:0:
448,192,135227,1,0,0:0:0:0:
192,192,135318,128,0,135499:0:0:0:0:
64,192,135409,128,0,135590:0:0:0:0:
320,192,135499,128,0,135681:0:0:0:0:
448,192,135590,1,0,0:0:0:0:
192,192,135590,128,0,135772:0:0:0:0:
64,192,135681,128,0,135863:0:0:0:0:
448,192,135772,128,0,135954:0:0:0:0:
320,192,135863,128,0,136045:0:0:0:0:
64,192,135954,1,0,0:0:0:0:
192,192,135954,128,0,136136:0:0:0:0:
448,192,136045,128,0,136227:0:0:0:0:
320,192,136136,128,0,136318:0:0:0:0:
192,192,136227,128,0,136318:0:0:0:0:
448,192,136318,1,0,0:0:0:0:
64,192,136318,128,0,136505:0:0:0:0:
320,192,136411,128,0,136599:0:0:0:0:
192,192,136505,128,0,136693:0:0:0:0:
448,192,136599,128,0,136693:0:0:0:0:
64,192,136693,128,0,136880:0:0:0:0:
448,192,136786,128,0,136974:0:0:0:0:
192,192,136880,128,0,137068:0:0:0:0:
320,192,136974,128,0,137161:0:0:0:0:
64,192,137068,128,0,137161:0:0:0:0:
448,192,137161,128,0,137349:0:0:0:0:
64,192,137255,128,0,137443:0:0:0:0:
320,192,137349,128,0,137443:0:0:0:0:
192,192,137443,128,0,137536:0:0:0:0:
320,192,137536,1,0,0:0:0:0:
192,192,137583,1,0,0:0:0:0:
64,192,137630,1,0,0:0:0:0:
448,192,137724,1,0,0:0:0:0:
320,192,137771,1,0,0:0:0:0:
192,192,137818,1,0,0:0:0:0:
64,192,137818,1,0,0:0:0:0:
64,192,138011,1,0,0:0:0:0:
192,192,138076,5,0,0:0:0:0:
320,192,138140,1,0,0:0:0:0:
448,192,138205,1,0,0:0:0:0:
64,192,138301,1,0,0:0:0:0:
320,192,138398,1,0,0:0:0:0:
192,192,138495,1,0,0:0:0:0:
320,192,138592,1,0,0:0:0:0:
64,192,138688,1,0,0:0:0:0:
448,192,138785,1,0,0:0:0:0:
320,192,138882,1,0,0:0:0:0:
192,192,138979,1,0,0:0:0:0:
320,192,139076,1,0,0:0:0:0:
64,192,139172,1,0,0:0:0:0:
192,192,139269,1,0,0:0:0:0:
64,192,139366,128,0,139566:0:0:0:0:
320,192,139366,128,0,139616:0:0:0:0:
448,192,139366,128,0,139666:0:0:0:0:
64,192,139766,1,0,0:0:0:0:
448,192,139766,1,0,0:0:0:0:
64,192,139866,128,0,140066:0:0:0:0:
192,192,139966,128,0,140066:0:0:0:0:
320,192,140066,128,0,140266:0:0:0:0:
448,192,140166,1,0,0:0:0:0:
192,192,140166,1,0,0:0:0:0:
448,192,140266,128,0,140466:0:0:0:0:
320,192,140366,128,0,140466:0:0:0:0:
192,192,140466,128,0,140666:0:0:0:0:
64,192,140566,1,0,0:0:0:0:
448,192,140566,1,0,0:0:0:0:
64,192,140666,128,0,140866:0:0:0:0:
448,192,140766,128,0,140866:0:0:0:0:
192,192,140866,128,0,141066:0:0:0:0:
320,192,140966,1,0,0:0:0:0:
448,192,140966,1,0,0:0:0:0:
320,192,141066,128,0,141266:0:0:0:0:
64,192,141166,128,0,141266:0:0:0:0:
448,192,141266,128,0,141466:0:0:0:0:
192,192,141366,1,0,0:0:0:0:
64,192,141366,1,0,0:0:0:0:
192,192,141466,128,0,141666:0:0:0:0:
448,192,141566,128,0,141666:0:0:0:0:
64,192,141666,128,0,141866:0:0:0:0:
320,192,141766,1,0,0:0:0:0:
448,192,141766,1,0,0:0:0:0:
320,192,141866,128,0,142066:0:0:0:0:
192,192,141966,128,0,142066:0:0:0:0:
64,192,142066,128,0,142266:0:0:0:0:
192,192,142166,1,0,0:0:0:0:
448,192,142166,1,0,0:0:0:0:
448,192,142266,128,0,142466:0:0:0:0:
320,192,142366,128,0,142466:0:0:0:0:
192,192,142466,128,0,142666:0:0:0:0:
64,192,142566,1,0,0:0:0:0:
320,192,142566,1,0,0:0:0:0:
64,192,142666,128,0,142866:0:0:0:0:
448,192,142766,128,0,142866:0:0:0:0:
192,192,142866,128,0,143066:0:0:0:0:
320,192,142966,1,0,0:0:0:0:
448,192,142966,1,0,0:0:0:0:
320,192,143066,128,0,143266:0:0:0:0:
192,192,143166,128,0,143266:0:0:0:0:
64,192,143266,128,0,143466:0:0:0:0:
192,192,143366,1,0,0:0:0:0:
448,192,143366,1,0,0:0:0:0:
448,192,143466,128,0,143666:0:0:0:0:
64,192,143566,128,0,143666:0:0:0:0:
320,192,143666,128,0,143866:0:0:0:0:
192,192,143766,1,0,0:0:0:0:
64,192,143766,1,0,0:0:0:0:
192,192,143866,128,0,144066:0:0:0:0:
320,192,143966,128,0,144066:0:0:0:0:
448,192,144066,128,0,144266:0:0:0:0:
320,192,144166,1,0,0:0:0:0:
64,192,144166,1,0,0:0:0:0:
64,192,144266,128,0,144466:0:0:0:0:
320,192,144366,128,0,144466:0:0:0:0:
192,192,144466,128,0,144666:0:0:0:0:
448,192,144566,1,0,0:0:0:0:
64,192,144566,1,0,0:0:0:0:
448,192,144666,128,0,144866:0:0:0:0:
192,192,144766,128,0,144866:0:0:0:0:
320,192,144866,128,0,145066:0:0:0:0:
448,192,144966,1,0,0:0:0:0:
64,192,144966,1,0,0:0:0:0:
64,192,145066,128,0,145266:0:0:0:0:
320,192,145166,128,0,145266:0:0:0:0:
192,192,145266,128,0,145466:0:0:0:0:
320,192,145366,1,0,0:0:0:0:
448,192,145366,1,0,0:0:0:0:
448,192,145466,128,0,145666:0:0:0:0:
192,192,145566,128,0,145666:0:0:0:0:
320,192,145666,128,0,145766:0:0:0:0:
192,192,145766,1,0,0:0:0:0:
64,192,145766,128,0,145866:0:0:0:0:
448,192,145816,128,0,145916:0:0:0:0:
320,192,145866,128,0,145966:0:0:0:0:
192,192,145916,128,0,146016:0:0:0:0:
64,192,145966,128,0,146066:0:0:0:0:
448,192,146016,128,0,146116:0:0:0:0:
320,192,146066,128,0,146166:0:0:0:0:
192,192,146166,1,0,0:0:0:0:
64,192,146166,1,0,0:0:0:0:
192,192,146266,128,0,146466:0:0:0:0:
320,192,146366,128,0,146466:0:0:0:0:
448,192,146466,128,0,146666:0:0:0:0:
320,192,146566,1,0,0:0:0:0:
64,192,146566,1,0,0:0:0:0:
64,192,146666,128,0,146866:0:0:0:0:
448,192,146766,128,0,146866:0:0:0:0:
192,192,146866,128,0,147066:0:0:0:0:
320,192,146966,1,0,0:0:0:0:
448,192,146966,1,0,0:0:0:0:
320,192,147066,128,0,147266:0:0:0:0:
64,192,147166,128,0,147266:0:0:0:0:
192,192,147266,128,0,147466:0:0:0:0:
448,192,147366,1,0,0:0:0:0:
64,192,147366,1,0,0:0:0:0:
448,192,147466,128,0,147666:0:0:0:0:
192,192,147566,128,0,147666:0:0:0:0:
320,192,147666,128,0,147866:0:0:0:0:
448,192,147766,1,0,0:0:0:0:
64,192,147766,1,0,0:0:0:0:
64,192,147866,128,0,148066:0:0:0:0:
192,192,147966,128,0,148066:0:0:0:0:
320,192,148066,128,0,148266:0:0:0:0:
448,192,148166,1,0,0:0:0:0:
64,192,148166,1,0,0:0:0:0:
448,192,148266,128,0,148466:0:0:0:0:
192,192,148366,128,0,148466:0:0:0:0:
64,192,148466,128,0,148666:0:0:0:0:
320,192,148566,1,0,0:0:0:0:
448,192,148566,1,0,0:0:0:0:
320,192,148666,128,0,148866:0:0:0:0:
192,192,148766,128,0,148866:0:0:0:0:
448,192,148866,128,0,149066:0:0:0:0:
320,192,148966,1,0,0:0:0:0:
64,192,148966,1,0,0:0:0:0:
64,192,149066,128,0,149266:0:0:0:0:
320,192,149166,128,0,149266:0:0:0:0:
448,192,149266,128,0,149466:0:0:0:0:
192,192,149366,1,0,0:0:0:0:
64,192,149366,1,0,0:0:0:0:
192,192,149466,128,0,149666:0:0:0:0:
320,192,149566,128,0,149666:0:0:0:0:
448,192,149666,128,0,149866:0:0:0:0:
320,192,149766,1,0,0:0:0:0:
64,192,149766,1,0,0:0:0:0:
320,192,149866,128,0,150066:0:0:0:0:
192,192,149966,128,0,150066:0:0:0:0:
448,192,150066,128,0,150266:0:0:0:0:
320,192,150166,1,0,0:0:0:0:
64,192,150166,1,0,0:0:0:0:
64,192,150266,128,0,150466:0:0:0:0:
192,192,150366,128,0,150466:0:0:0:0:
320,192,150466,128,0,150666:0:0:0:0:
448,192,150566,1,0,0:0:0:0:
192,192,150566,1,0,0:0:0:0:
448,192,150666,128,0,150866:0:0:0:0:
192,192,150766,128,0,150866:0:0:0:0:
320,192,150866,128,0,151066:0:0:0:0:
192,192,150966,1,0,0:0:0:0:
64,192,150966,1,0,0:0:0:0:
64,192,151066,128,0,151266:0:0:0:0:
448,192,151166,128,0,151266:0:0:0:0:
320,192,151266,1,0,0:0:0:0:
192,192,151316,1,0,0:0:0:0:
64,192,151366,1,0,0:0:0:0:
448,192,151366,1,0,0:0:0:0:
64,192,151466,128,0,151666:0:0:0:0:
192,192,151566,128,0,151666:0:0:0:0:
320,192,151666,128,0,151866:0:0:0:0:
64,192,151766,1,0,0:0:0:0:
448,192,151766,1,0,0:0:0:0:
448,192,151866,128,0,152066:0:0:0:0:
320,192,151966,128,0,152066:0:0:0:0:
192,192,152066,128,0,152166:0:0:0:0:
320,192,152166,1,0,0:0:0:0:
448,192,152166,1,0,0:0:0:0:
64,192,152166,128,0,152553:0:0:0:0:
192,192,152262,128,0,152359:0:0:0:0:
320,192,152359,128,0,152456:0:0:0:0:
448,192,152456,128,0,152553:0:0:0:0:
192,192,152553,128,0,152649:0:0:0:0:
320,192,152649,128,0,152843:0:0:0:0:
64,192,152746,128,0,152940:0:0:0:0:
448,192,152843,128,0,152940:0:0:0:0:
320,192,152940,128,0,153133:0:0:0:0:
64,192,153036,128,0,153133:0:0:0:0:
192,192,153133,128,0,153327:0:0:0:0:
64,192,153230,1,0,0:0:0:0:
64,192,153327,128,0,153424:0:0:0:0:
448,192,153327,1,0,0:0:0:0:
320,192,153424,128,0,153617:0:0:0:0:
64,192,153520,128,0,153714:0:0:0:0:
192,192,153617,128,0,153714:0:0:0:0:
448,192,153714,128,0,153811:0:0:0:0:
320,192,153811,128,0,154004:0:0:0:0:
64,192,153907,128,0,154101:0:0:0:0:
448,192,154004,128,0,154101:0:0:0:0:
192,192,154101,128,0,154198:0:0:0:0:
320,192,154198,128,0,154391:0:0:0:0:
64,192,154295,1,0,0:0:0:0:
64,192,154391,128,0,154488:0:0:0:0:
448,192,154391,128,0,154488:0:0:0:0:
192,192,154488,128,0,154682:0:0:0:0:
64,192,154585,128,0,154682:0:0:0:0:
320,192,154682,128,0,154875:0:0:0:0:
64,192,154778,128,0,154875:0:0:0:0:
192,192,154875,128,0,154972:0:0:0:0:
448,192,154972,128,0,155166:0:0:0:0:
64,192,155069,1,0,0:0:0:0:
64,192,155166,128,0,155262:0:0:0:0:
320,192,155166,128,0,155359:0:0:0:0:
192,192,155262,128,0,155456:0:0:0:0:
448,192,155359,1,0,0:0:0:0:
448,192,155456,128,0,155553:0:0:0:0:
320,192,155553,128,0,155746:0:0:0:0:
448,192,155649,128,0,155746:0:0:0:0:
64,192,155746,128,0,155940:0:0:0:0:
448,192,155843,128,0,155940:0:0:0:0:
320,192,155940,128,0,156036:0:0:0:0:
448,192,156036,128,0,156133:0:0:0:0:
192,192,156036,128,0,156230:0:0:0:0:
320,192,156133,128,0,156230:0:0:0:0:
64,192,156230,128,0,156424:0:0:0:0:
320,192,156327,128,0,156424:0:0:0:0:
192,192,156424,1,0,0:0:0:0:
448,192,156424,1,0,0:0:0:0:
320,192,156617,128,0,156811:0:0:0:0:
192,192,156714,128,0,156811:0:0:0:0:
448,192,156811,128,0,156907:0:0:0:0:
64,192,156907,128,0,157101:0:0:0:0:
320,192,157004,128,0,157198:0:0:0:0:
448,192,157101,128,0,157198:0:0:0:0:
192,192,157198,128,0,157391:0:0:0:0:
320,192,157295,128,0,157391:0:0:0:0:
448,192,157391,128,0,157488:0:0:0:0:
320,192,157488,128,0,157585:0:0:0:0:
64,192,157585,128,0,157778:0:0:0:0:
320,192,157682,128,0,157778:0:0:0:0:
448,192,157778,128,0,157972:0:0:0:0:
320,192,157875,128,0,157972:0:0:0:0:
192,192,157972,128,0,158166:0:0:0:0:
320,192,158069,128,0,158166:0:0:0:0:
448,192,158166,128,0,158262:0:0:0:0:
320,192,158262,128,0,158359:0:0:0:0:
64,192,158359,128,0,158734:0:0:0:0:
192,192,158359,1,0,0:0:0:0:
192,192,158546,128,0,158640:0:0:0:0:
320,192,158640,128,0,158734:0:0:0:0:
448,192,158734,128,0,158827:0:0:0:0:
320,192,158827,128,0,159015:0:0:0:0:
64,192,158921,128,0,159109:0:0:0:0:
448,192,159015,128,0,159109:0:0:0:0:
320,192,159109,128,0,159296:0:0:0:0:
64,192,159202,128,0,159296:0:0:0:0:
192,192,159296,128,0,159484:0:0:0:0:
64,192,159390,128,0,159484:0:0:0:0:
448,192,159484,1,0,0:0:0:0:
64,192,159671,128,0,159859:0:0:0:0:
320,192,159671,128,0,159765:0:0:0:0:
192,192,159859,128,0,159952:0:0:0:0:
448,192,159952,128,0,160140:0:0:0:0:
64,192,160046,128,0,160234:0:0:0:0:
192,192,160140,128,0,160234:0:0:0:0:
320,192,160234,128,0,160327:0:0:0:0:
448,192,160327,128,0,160515:0:0:0:0:
64,192,160421,1,0,0:0:0:0:
64,192,160515,128,0,160609:0:0:0:0:
320,192,160515,128,0,160609:0:0:0:0:
192,192,160609,128,0,160671:0:0:0:0:
448,192,160671,128,0,160734:0:0:0:0:
64,192,160734,128,0,160796:0:0:0:0:
192,192,160796,128,0,160859:0:0:0:0:
320,192,160859,128,0,160921:0:0:0:0:
448,192,160921,128,0,160984:0:0:0:0:
192,192,160984,1,0,0:0:0:0:
64,192,160984,128,0,161046:0:0:0:0:
320,192,161046,128,0,161109:0:0:0:0:
448,192,161109,128,0,161171:0:0:0:0:
192,192,161171,128,0,161234:0:0:0:0:
320,192,161234,128,0,161296:0:0:0:0:
64,192,161296,128,0,161359:0:0:0:0:
192,192,161359,128,0,161734:0:0:0:0:
448,192,161452,1,0,0:0:0:0:
448,192,161546,128,0,161640:0:0:0:0:
448,192,161734,128,0,161827:0:0:0:0:
64,192,161734,128,0,161827:0:0:0:0:
448,192,161921,128,0,162015:0:0:0:0:
64,192,161921,128,0,162296:0:0:0:0:
320,192,162015,128,0,162109:0:0:0:0:
448,192,162109,128,0,162202:0:0:0:0:
192,192,162109,1,0,0:0:0:0:
320,192,162202,128,0,162296:0:0:0:0:
192,192,162296,128,0,162484:0:0:0:0:
320,192,162390,128,0,162484:0:0:0:0:
64,192,162484,1,0,0:0:0:0:
448,192,162484,1,0,0:0:0:0:
320,192,162671,128,0,162859:0:0:0:0:
448,192,162671,128,0,163046:0:0:0:0:
192,192,162859,1,0,0:0:0:0:
64,192,162859,1,0,0:0:0:0:
320,192,163046,128,0,163234:0:0:0:0:
192,192,163046,128,0,163140:0:0:0:0:
64,192,163140,128,0,163327:0:0:0:0:
448,192,163234,1,0,0:0:0:0:
192,192,163234,1,0,0:0:0:0:
320,192,163327,128,0,163421:0:0:0:0:
448,192,163421,128,0,163515:0:0:0:0:
192,192,163421,128,0,163515:0:0:0:0:
320,192,163515,128,0,163609:0:0:0:0:
192,192,163609,128,0,163796:0:0:0:0:
64,192,163609,1,0,0:0:0:0:
320,192,163702,128,0,163796:0:0:0:0:
448,192,163796,128,0,163984:0:0:0:0:
320,192,163890,128,0,163984:0:0:0:0:
192,192,163984,1,0,0:0:0:0:
64,192,163984,1,0,0:0:0:0:
448,192,164077,1,0,0:0:0:0:
320,192,164077,128,0,164171:0:0:0:0:
64,192,164171,1,0,0:0:0:0:
192,192,164171,128,0,164265:0:0:0:0:
320,192,164265,128,0,164359:0:0:0:0:
64,192,164359,128,0,164722:0:0:0:0:
192,192,164359,128,0,164722:0:0:0:0:
448,192,164359,1,0,0:0:0:0:
448,192,164722,128,0,164904:0:0:0:0:
320,192,164722,1,0,0:0:0:0:
64,192,164904,128,0,165086:0:0:0:0:
192,192,165086,128,0,165449:0:0:0:0:
448,192,165086,1,0,0:0:0:0:
64,192,165177,128,0,165268:0:0:0:0:
64,192,165359,128,0,165449:0:0:0:0:
320,192,165449,128,0,165540:0:0:0:0:
448,192,165449,1,0,0:0:0:0:
64,192,165631,1,0,0:0:0:0:
192,192,165631,128,0,165995:0:0:0:0:
64,192,165722,128,0,165813:0:0:0:0:
320,192,165813,1,0,0:0:0:0:
448,192,165813,1,0,0:0:0:0:
64,192,165995,128,0,166177:0:0:0:0:
448,192,165995,128,0,166177:0:0:0:0:
192,192,166177,1,0,0:0:0:0:
320,192,166177,1,0,0:0:0:0:
64,192,166359,1,0,0:0:0:0:
320,192,166359,128,0,166449:0:0:0:0:
64,192,166449,128,0,166540:0:0:0:0:
320,192,166540,128,0,166722:0:0:0:0:
448,192,166540,1,0,0:0:0:0:
64,192,166631,128,0,166722:0:0:0:0:
448,192,166722,128,0,166813:0:0:0:0:
64,192,166813,128,0,166904:0:0:0:0:
192,192,166904,128,0,167086:0:0:0:0:
320,192,166904,1,0,0:0:0:0:
64,192,167086,1,0,0:0:0:0:
320,192,167086,128,0,167177:0:0:0:0:
64,192,167177,128,0,167268:0:0:0:0:
192,192,167268,128,0,167631:0:0:0:0:
320,192,167268,1,0,0:0:0:0:
448,192,167359,1,0,0:0:0:0:
448,192,167449,128,0,167540:0:0:0:0:
448,192,167631,128,0,167722:0:0:0:0:
320,192,167631,128,0,167722:0:0:0:0:
64,192,167631,1,0,0:0:0:0:
448,192,167813,128,0,167904:0:0:0:0:
320,192,167904,128,0,167995:0:0:0:0:
448,192,167995,128,0,168086:0:0:0:0:
192,192,167995,128,0,168177:0:0:0:0:
64,192,167995,1,0,0:0:0:0:
320,192,168086,128,0,168177:0:0:0:0:
64,192,168177,128,0,168359:0:0:0:0:
320,192,168268,128,0,168359:0:0:0:0:
448,192,168359,128,0,168540:0:0:0:0:
192,192,168359,1,0,0:0:0:0:
320,192,168540,128,0,168722:0:0:0:0:
192,192,168540,128,0,168904:0:0:0:0:
64,192,168722,1,0,0:0:0:0:
448,192,168722,1,0,0:0:0:0:
64,192,168904,128,0,169086:0:0:0:0:
320,192,168904,128,0,169086:0:0:0:0:
448,192,169086,1,0,0:0:0:0:
192,192,169086,1,0,0:0:0:0:
320,192,169177,128,0,169268:0:0:0:0:
448,192,169268,128,0,169359:0:0:0:0:
192,192,169268,128,0,169359:0:0:0:0:
320,192,169359,128,0,169449:0:0:0:0:
192,192,169449,128,0,169631:0:0:0:0:
64,192,169449,1,0,0:0:0:0:
320,192,169540,128,0,169631:0:0:0:0:
448,192,169631,128,0,169722:0:0:0:0:
320,192,169722,128,0,169813:0:0:0:0:
64,192,169813,128,0,169995:0:0:0:0:
192,192,169813,1,0,0:0:0:0:
320,192,169904,128,0,169995:0:0:0:0:
448,192,169995,128,0,170086:0:0:0:0:
192,192,169995,128,0,170086:0:0:0:0:
320,192,170086,128,0,170177:0:0:0:0:
64,192,170177,128,0,170529:0:0:0:0:
192,192,170177,128,0,170529:0:0:0:0:
320,192,170529,128,0,170706:0:0:0:0:
448,192,170529,1,0,0:0:0:0:
64,192,170706,128,0,170882:0:0:0:0:
448,192,170882,128,0,171235:0:0:0:0:
192,192,170882,1,0,0:0:0:0:
64,192,170971,128,0,171059:0:0:0:0:
64,192,171147,128,0,171235:0:0:0:0:
320,192,171235,128,0,171324:0:0:0:0:
192,192,171235,1,0,0:0:0:0:
64,192,171412,128,0,171588:0:0:0:0:
448,192,171412,128,0,171765:0:0:0:0:
192,192,171588,1,0,0:0:0:0:
320,192,171588,1,0,0:0:0:0:
64,192,171765,128,0,171941:0:0:0:0:
192,192,171765,128,0,171941:0:0:0:0:
448,192,171941,1,0,0:0:0:0:
320,192,171941,128,0,172029:0:0:0:0:
192,192,172029,128,0,172118:0:0:0:0:
448,192,172118,128,0,172206:0:0:0:0:
64,192,172206,128,0,172294:0:0:0:0:
192,192,172294,128,0,172353:0:0:0:0:
320,192,172353,128,0,172412:0:0:0:0:
448,192,172412,128,0,172471:0:0:0:0:
64,192,172471,128,0,172529:0:0:0:0:
192,192,172529,128,0,172588:0:0:0:0:
448,192,172588,128,0,172647:0:0:0:0:
320,192,172647,128,0,172706:0:0:0:0:
192,192,172706,128,0,172765:0:0:0:0:
64,192,172765,128,0,172824:0:0:0:0:
320,192,172824,128,0,172882:0:0:0:0:
192,192,172882,128,0,172941:0:0:0:0:
64,192,172941,128,0,173000:0:0:0:0:
320,192,173000,128,0,173353:0:0:0:0:
448,192,173088,1,0,0:0:0:0:
448,192,173177,128,0,173265:0:0:0:0:
448,192,173353,128,0,173441:0:0:0:0:
192,192,173353,128,0,173441:0:0:0:0:
64,192,173353,1,0,0:0:0:0:
448,192,173529,128,0,173618:0:0:0:0:
64,192,173529,128,0,173882:0:0:0:0:
320,192,173618,128,0,173706:0:0:0:0:
448,192,173706,128,0,173794:0:0:0:0:
192,192,173706,1,0,0:0:0:0:
320,192,173794,128,0,173882:0:0:0:0:
192,192,173882,128,0,174059:0:0:0:0:
320,192,173971,128,0,174059:0:0:0:0:
64,192,174059,1,0,0:0:0:0:
448,192,174059,1,0,0:0:0:0:
320,192,174235,1,0,0:0:0:0:
448,192,174235,128,0,174500:0:0:0:0:
320,192,174324,128,0,174412:0:0:0:0:
64,192,174412,1,0,0:0:0:0:
192,192,174412,1,0,0:0:0:0:
64,192,174588,1,0,0:0:0:0:
320,192,174588,1,0,0:0:0:0:
192,192,174647,1,0,0:0:0:0:
320,192,174706,1,0,0:0:0:0:
64,192,174765,1,0,0:0:0:0:
448,192,174765,1,0,0:0:0:0:
192,192,174853,1,0,0:0:0:0:
320,192,174941,1,0,0:0:0:0:
448,192,174941,128,0,175029:0:0:0:0:
64,192,175029,1,0,0:0:0:0:
320,192,175118,1,0,0:0:0:0:
192,192,175118,128,0,175294:0:0:0:0:
448,192,175206,1,0,0:0:0:0:
64,192,175294,1,0,0:0:0:0:
320,192,175294,128,0,175382:0:0:0:0:
192,192,175382,1,0,0:0:0:0:
448,192,175471,1,0,0:0:0:0:
320,192,175471,128,0,175647:0:0:0:0:
192,192,175559,1,0,0:0:0:0:
64,192,175559,1,0,0:0:0:0:
448,192,175647,128,0,175735:0:0:0:0:
320,192,175691,1,0,0:0:0:0:
192,192,175735,1,0,0:0:0:0:
64,192,175824,128,0,181471:0:0:0:0:
448,192,175824,128,0,177853:0:0:0:0:
320,192,175824,128,0,179353:0:0:0:0:
448,192,177941,1,0,0:0:0:0:
448,192,178294,1,0,0:0:0:0:
448,192,178647,1,0,0:0:0:0:
448,192,179706,1,0,0:0:0:0:
448,192,179882,1,0,0:0:0:0:
448,192,180059,1,0,0:0:0:0:
448,192,180588,1,0,0:0:0:0:
448,192,180765,1,0,0:0:0:0:
448,192,181000,1,0,0:0:0:0:
448,192,181235,1,0,0:0:0:0:
448,192,181471,1,0,0:0:0:0:
192,192,181471,128,0,184382:0:0:0:0:
320,192,181824,128,0,186294:0:0:0:0:
64,192,182529,1,0,0:0:0:0:
448,192,182706,1,0,0:0:0:0:
64,192,182882,1,0,0:0:0:0:
448,192,183029,1,0,0:0:0:0:
64,192,183169,1,0,0:0:0:0:
448,192,183294,1,0,0:0:0:0:
64,192,183441,1,0,0:0:0:0:
448,192,183588,1,0,0:0:0:0:
64,192,184177,1,0,0:0:0:0:
448,192,184294,1,0,0:0:0:0:
64,192,184471,128,0,186294:0:0:0:0:
448,192,185353,5,0,0:0:0:0:
192,192,185529,1,0,0:0:0:0:
448,192,185706,1,0,0:0:0:0:
192,192,185912,1,0,0:0:0:0:
448,192,186000,1,0,0:0:0:0:
192,192,186118,1,0,0:0:0:0:
448,192,186206,1,0,0:0:0:0:
192,192,186294,1,0,0:0:0:0:
320,192,186412,5,0,0:0:0:0:
448,192,186412,1,0,0:0:0:0:
448,192,186588,1,0,0:0:0:0:
64,192,186765,1,0,0:0:0:0:
192,192,186765,1,0,0:0:0:0:
192,192,186941,1,0,0:0:0:0:
320,192,187118,1,0,0:0:0:0:
64,192,187118,1,0,0:0:0:0:
448,192,187118,1,0,0:0:0:0:
192,192,187460,1,0,0:0:0:0:
448,192,187803,1,0,0:0:0:0:
320,192,188146,1,0,0:0:0:0:
192,192,188318,1,0,0:0:0:0:
448,192,188660,1,0,0:0:0:0:
320,192,189003,1,0,0:0:0:0:
448,192,189175,1,0,0:0:0:0:
64,192,189346,1,0,0:0:0:0:
192,192,189518,1,0,0:0:0:0:
320,192,189689,1,0,0:0:0:0:
192,192,189860,1,0,0:0:0:0:
64,192,189860,1,0,0:0:0:0:
448,192,189860,1,0,0:0:0:0:
320,192,190203,1,0,0:0:0:0:
64,192,190546,1,0,0:0:0:0:
192,192,190718,1,0,0:0:0:0:
448,192,190889,1,0,0:0:0:0:
320,192,191060,1,0,0:0:0:0:
192,192,191403,1,0,0:0:0:0:
448,192,191746,1,0,0:0:0:0:
192,192,191918,1,0,0:0:0:0:
64,192,192003,1,0,0:0:0:0:
192,192,192089,1,0,0:0:0:0:
448,192,192175,1,0,0:0:0:0:
320,192,192260,1,0,0:0:0:0:
192,192,192346,1,0,0:0:0:0:
320,192,192432,1,0,0:0:0:0:
448,192,192518,1,0,0:0:0:0:
64,192,192603,1,0,0:0:0:0:
192,192,192603,1,0,0:0:0:0:
320,192,192603,1,0,0:0:0:0:
448,192,192936,1,0,0:0:0:0:
64,192,193269,1,0,0:0:0:0:
320,192,193603,1,0,0:0:0:0:
192,192,193769,1,0,0:0:0:0:
64,192,194103,1,0,0:0:0:0:
192,192,194436,1,0,0:0:0:0:
448,192,194603,1,0,0:0:0:0:
320,192,194769,1,0,0:0:0:0:
64,192,194936,1,0,0:0:0:0:
192,192,195103,1,0,0:0:0:0:
64,192,195269,1,0,0:0:0:0:
320,192,195269,1,0,0:0:0:0:
448,192,195269,1,0,0:0:0:0:
192,192,195603,1,0,0:0:0:0:
448,192,195936,1,0,0:0:0:0:
320,192,196103,1,0,0:0:0:0:
64,192,196269,1,0,0:0:0:0:
448,192,196436,1,0,0:0:0:0:
192,192,196769,1,0,0:0:0:0:
320,192,197103,1,0,0:0:0:0:
192,192,197269,1,0,0:0:0:0:
448,192,197269,1,0,0:0:0:0:
192,192,197491,1,0,0:0:0:0:
320,192,197491,1,0,0:0:0:0:
320,192,197714,1,0,0:0:0:0:
64,192,197714,1,0,0:0:0:0:
64,192,197936,1,0,0:0:0:0:
192,192,197936,1,0,0:0:0:0:
448,192,197936,1,0,0:0:0:0:
320,192,198260,1,0,0:0:0:0:
192,192,198341,1,0,0:0:0:0:
64,192,198422,1,0,0:0:0:0:
320,192,198503,1,0,0:0:0:0:
192,192,198584,1,0,0:0:0:0:
448,192,198665,1,0,0:0:0:0:
320,192,198746,1,0,0:0:0:0:
64,192,198827,1,0,0:0:0:0:
192,192,198908,1,0,0:0:0:0:
64,192,198990,1,0,0:0:0:0:
448,192,199071,1,0,0:0:0:0:
192,192,199152,1,0,0:0:0:0:
64,192,199233,1,0,0:0:0:0:
320,192,199314,1,0,0:0:0:0:
192,192,199395,1,0,0:0:0:0:
448,192,199476,1,0,0:0:0:0:
64,192,199557,1,0,0:0:0:0:
192,192,199638,1,0,0:0:0:0:
320,192,199719,1,0,0:0:0:0:
64,192,199800,1,0,0:0:0:0:
192,192,199881,1,0,0:0:0:0:
448,192,199963,1,0,0:0:0:0:
64,192,200044,1,0,0:0:0:0:
320,192,200125,1,0,0:0:0:0:
192,192,200206,1,0,0:0:0:0:
448,192,200287,1,0,0:0:0:0:
320,192,200368,1,0,0:0:0:0:
64,192,200449,1,0,0:0:0:0:
448,192,200530,1,0,0:0:0:0:
320,192,200530,1,0,0:0:0:0:
192,192,200854,1,0,0:0:0:0:
448,192,200854,1,0,0:0:0:0:
448,192,200963,1,0,0:0:0:0:
64,192,200963,1,0,0:0:0:0:
192,192,201071,1,0,0:0:0:0:
320,192,201071,1,0,0:0:0:0:
64,192,201179,1,0,0:0:0:0:
448,192,201179,1,0,0:0:0:0:
64,192,201287,1,0,0:0:0:0:
320,192,201287,1,0,0:0:0:0:
192,192,201395,1,0,0:0:0:0:
448,192,201395,1,0,0:0:0:0:
320,192,201503,1,0,0:0:0:0:
64,192,201503,1,0,0:0:0:0:
320,192,201611,1,0,0:0:0:0:
448,192,201611,1,0,0:0:0:0:
64,192,201719,1,0,0:0:0:0:
192,192,201719,1,0,0:0:0:0:
64,192,201827,1,0,0:0:0:0:
448,192,201827,1,0,0:0:0:0:
320,192,202030,1,0,0:0:0:0:
192,192,202071,1,0,0:0:0:0:
64,192,202111,1,0,0:0:0:0:
448,192,202152,1,0,0:0:0:0:
320,192,202233,1,0,0:0:0:0:
192,192,202314,1,0,0:0:0:0:
64,192,202395,1,0,0:0:0:0:
192,192,202476,1,0,0:0:0:0:
448,192,202557,1,0,0:0:0:0:
320,192,202638,1,0,0:0:0:0:
192,192,202719,1,0,0:0:0:0:
320,192,202800,1,0,0:0:0:0:
448,192,202881,1,0,0:0:0:0:
64,192,202963,1,0,0:0:0:0:
192,192,203044,1,0,0:0:0:0:
64,192,203125,1,0,0:0:0:0:
320,192,203125,1,0,0:0:0:0:
448,192,203125,1,0,0:0:0:0:
192,192,203440,1,0,0:0:0:0:
64,192,203598,1,0,0:0:0:0:
320,192,203756,1,0,0:0:0:0:
64,192,203914,1,0,0:0:0:0:
192,192,203914,1,0,0:0:0:0:
320,192,203993,1,0,0:0:0:0:
448,192,204072,1,0,0:0:0:0:
320,192,204230,1,0,0:0:0:0:
64,192,204388,1,0,0:0:0:0:
448,192,204388,1,0,0:0:0:0:
320,192,204546,1,0,0:0:0:0:
192,192,204625,1,0,0:0:0:0:
64,192,204703,1,0,0:0:0:0:
320,192,204703,1,0,0:0:0:0:
448,192,204861,1,0,0:0:0:0:
192,192,205019,1,0,0:0:0:0:
320,192,205019,1,0,0:0:0:0:
448,192,205177,1,0,0:0:0:0:
192,192,205256,1,0,0:0:0:0:
64,192,205335,1,0,0:0:0:0:
448,192,205493,1,0,0:0:0:0:
64,192,205651,1,0,0:0:0:0:
192,192,205651,1,0,0:0:0:0:
320,192,205651,1,0,0:0:0:0:
448,192,205861,1,0,0:0:0:0:
320,192,206072,1,0,0:0:0:0:
448,192,206282,1,0,0:0:0:0:
320,192,206493,1,0,0:0:0:0:
192,192,206703,1,0,0:0:0:0:
64,192,206914,1,0,0:0:0:0:
192,192,207125,1,0,0:0:0:0:
64,192,207335,1,0,0:0:0:0:
448,192,207546,1,0,0:0:0:0:
320,192,207756,1,0,0:0:0:0:
192,192,207967,1,0,0:0:0:0:
320,192,208177,1,0,0:0:0:0:
448,192,208177,1,0,0:0:0:0:
64,192,208177,1,0,0:0:0:0:
192,192,208256,128,0,208414:0:0:0:0:
448,192,208335,128,0,208493:0:0:0:0:
320,192,208414,128,0,208493:0:0:0:0:
192,192,208493,128,0,208651:0:0:0:0:
320,192,208572,128,0,208730:0:0:0:0:
448,192,208651,128,0,208809:0:0:0:0:
64,192,208730,128,0,208809:0:0:0:0:
192,192,208809,128,0,208967:0:0:0:0:
64,192,208888,128,0,209046:0:0:0:0:
320,192,208967,128,0,209125:0:0:0:0:
448,192,209046,128,0,209203:0:0:0:0:
192,192,209125,128,0,209282:0:0:0:0:
64,192,209203,128,0,209361:0:0:0:0:
320,192,209282,128,0,209440:0:0:0:0:
448,192,209361,128,0,209519:0:0:0:0:
192,192,209440,128,0,209598:0:0:0:0:
320,192,209519,128,0,209677:0:0:0:0:
448,192,209598,128,0,209756:0:0:0:0:
192,192,209677,128,0,209835:0:0:0:0:
64,192,209756,128,0,209914:0:0:0:0:
448,192,209835,128,0,209993:0:0:0:0:
320,192,209914,128,0,209993:0:0:0:0:
192,192,209993,128,0,210151:0:0:0:0:
320,192,210072,128,0,210230:0:0:0:0:
448,192,210151,128,0,210309:0:0:0:0:
64,192,210230,128,0,210309:0:0:0:0:
192,192,210309,128,0,210467:0:0:0:0:
64,192,210388,128,0,210546:0:0:0:0:
320,192,210467,128,0,210625:0:0:0:0:
448,192,210546,128,0,210703:0:0:0:0:
64,192,210625,128,0,210703:0:0:0:0:
320,192,210703,128,0,210861:0:0:0:0:
448,192,210782,128,0,210940:0:0:0:0:
192,192,210861,128,0,211019:0:0:0:0:
320,192,210940,128,0,211098:0:0:0:0:
448,192,211019,128,0,211177:0:0:0:0:
64,192,211098,128,0,211256:0:0:0:0:
192,192,211177,128,0,211256:0:0:0:0:
320,192,211256,128,0,211414:0:0:0:0:
192,192,211335,128,0,211493:0:0:0:0:
64,192,211414,128,0,211572:0:0:0:0:
448,192,211493,128,0,211572:0:0:0:0:
320,192,211572,128,0,211730:0:0:0:0:
448,192,211651,128,0,211809:0:0:0:0:
64,192,211730,128,0,211888:0:0:0:0:
192,192,211809,128,0,211967:0:0:0:0:
320,192,211888,128,0,212046:0:0:0:0:
448,192,211967,128,0,212125:0:0:0:0:
64,192,212046,128,0,212125:0:0:0:0:
192,192,212125,128,0,212282:0:0:0:0:
64,192,212203,128,0,212361:0:0:0:0:
320,192,212282,128,0,212440:0:0:0:0:
192,192,212361,128,0,212519:0:0:0:0:
448,192,212440,128,0,212598:0:0:0:0:
320,192,212519,128,0,212677:0:0:0:0:
64,192,212598,128,0,212756:0:0:0:0:
192,192,212677,128,0,212756:0:0:0:0:
320,192,212756,128,0,212914:0:0:0:0:
192,192,212835,128,0,212993:0:0:0:0:
448,192,212914,128,0,213072:0:0:0:0:
320,192,212993,128,0,213151:0:0:0:0:
64,192,213072,128,0,213151:0:0:0:0:
448,192,213151,128,0,213230:0:0:0:0:
64,192,213230,1,0,0:0:0:0:
192,192,213230,1,0,0:0:0:0:
320,192,213230,1,0,0:0:0:0:
448,192,213309,128,0,213467:0:0:0:0:
64,192,213388,128,0,213467:0:0:0:0:
192,192,213467,128,0,213625:0:0:0:0:
64,192,213546,128,0,213703:0:0:0:0:
448,192,213625,128,0,213782:0:0:0:0:
320,192,213703,128,0,213861:0:0:0:0:
192,192,213782,128,0,213940:0:0:0:0:
448,192,213861,128,0,214019:0:0:0:0:
64,192,213940,128,0,214098:0:0:0:0:
320,192,214019,128,0,214177:0:0:0:0:
192,192,214098,128,0,214177:0:0:0:0:
64,192,214177,128,0,214335:0:0:0:0:
192,192,214256,128,0,214414:0:0:0:0:
448,192,214335,128,0,214414:0:0:0:0:
320,192,214414,128,0,214572:0:0:0:0:
448,192,214493,128,0,214651:0:0:0:0:
192,192,214572,128,0,214730:0:0:0:0:
64,192,214651,128,0,214809:0:0:0:0:
320,192,214730,128,0,214888:0:0:0:0:
192,192,214809,128,0,214967:0:0:0:0:
64,192,214888,128,0,215046:0:0:0:0:
320,192,214967,128,0,215125:0:0:0:0:
448,192,215046,128,0,215203:0:0:0:0:
192,192,215125,128,0,215282:0:0:0:0:
320,192,215203,128,0,215361:0:0:0:0:
448,192,215282,128,0,215440:0:0:0:0:
64,192,215361,128,0,215440:0:0:0:0:
192,192,215440,128,0,215598:0:0:0:0:
64,192,215519,128,0,215677:0:0:0:0:
448,192,215598,128,0,215756:0:0:0:0:
192,192,215677,128,0,215756:0:0:0:0:
320,192,215756,128,0,215914:0:0:0:0:
448,192,215835,128,0,215993:0:0:0:0:
64,192,215914,128,0,216072:0:0:0:0:
192,192,215993,128,0,216072:0:0:0:0:
320,192,216072,128,0,216230:0:0:0:0:
192,192,216151,128,0,216309:0:0:0:0:
448,192,216230,128,0,216388:0:0:0:0:
320,192,216309,128,0,216467:0:0:0:0:
64,192,216388,128,0,216467:0:0:0:0:
192,192,216467,128,0,216625:0:0:0:0:
64,192,216546,128,0,216703:0:0:0:0:
448,192,216625,128,0,216782:0:0:0:0:
320,192,216703,128,0,216861:0:0:0:0:
192,192,216782,128,0,216940:0:0:0:0:
448,192,216861,128,0,217019:0:0:0:0:
320,192,216940,128,0,217098:0:0:0:0:
64,192,217019,128,0,217177:0:0:0:0:
192,192,217098,128,0,217256:0:0:0:0:
448,192,217177,128,0,217335:0:0:0:0:
64,192,217256,128,0,217414:0:0:0:0:
192,192,217335,128,0,217414:0:0:0:0:
320,192,217414,128,0,217572:0:0:0:0:
192,192,217493,128,0,217651:0:0:0:0:
448,192,217572,128,0,217651:0:0:0:0:
320,192,217651,128,0,217809:0:0:0:0:
448,192,217730,128,0,217888:0:0:0:0:
64,192,217809,128,0,217967:0:0:0:0:
192,192,217888,128,0,218046:0:0:0:0:
320,192,217967,128,0,218125:0:0:0:0:
448,192,218046,128,0,218203:0:0:0:0:
192,192,218125,128,0,218203:0:0:0:0:
320,192,218203,128,0,218282:0:0:0:0:
192,192,218282,128,0,218440:0:0:0:0:
448,192,218282,128,0,218440:0:0:0:0:
64,192,218282,128,0,218361:0:0:0:0:
320,192,218361,128,0,218519:0:0:0:0:
64,192,218440,128,0,218598:0:0:0:0:
192,192,218519,128,0,218677:0:0:0:0:
448,192,218598,128,0,218756:0:0:0:0:
64,192,218677,128,0,218835:0:0:0:0:
192,192,218756,128,0,218835:0:0:0:0:
320,192,218835,128,0,218993:0:0:0:0:
192,192,218914,128,0,219072:0:0:0:0:
448,192,218993,128,0,219151:0:0:0:0:
320,192,219072,128,0,219230:0:0:0:0:
192,192,219151,128,0,219309:0:0:0:0:
64,192,219230,128,0,219388:0:0:0:0:
320,192,219309,128,0,219388:0:0:0:0:
192,192,219388,128,0,219546:0:0:0:0:
320,192,219467,128,0,219625:0:0:0:0:
448,192,219546,128,0,219703:0:0:0:0:
64,192,219546,128,0,219703:0:0:0:0:
192,192,219625,128,0,219782:0:0:0:0:
320,192,219703,128,0,219861:0:0:0:0:
64,192,219782,128,0,219940:0:0:0:0:
192,192,219861,128,0,220019:0:0:0:0:
448,192,219940,128,0,220019:0:0:0:0:
320,192,220019,128,0,220177:0:0:0:0:
448,192,220098,128,0,220256:0:0:0:0:
192,192,220177,128,0,220335:0:0:0:0:
320,192,220256,128,0,220414:0:0:0:0:
448,192,220335,128,0,220493:0:0:0:0:
64,192,220414,128,0,220572:0:0:0:0:
192,192,220493,128,0,220651:0:0:0:0:
320,192,220572,128,0,220730:0:0:0:0:
448,192,220651,128,0,220730:0:0:0:0:
192,192,220730,128,0,220888:0:0:0:0:
64,192,220809,128,0,220967:0:0:0:0:
448,192,220809,128,0,220967:0:0:0:0:
320,192,220888,128,0,221046:0:0:0:0:
192,192,220967,128,0,221125:0:0:0:0:
448,192,221046,128,0,221203:0:0:0:0:
64,192,221125,128,0,221203:0:0:0:0:
192,192,221203,128,0,221361:0:0:0:0:
64,192,221282,128,0,221440:0:0:0:0:
448,192,221361,128,0,221519:0:0:0:0:
320,192,221440,128,0,221598:0:0:0:0:
64,192,221519,128,0,221677:0:0:0:0:
192,192,221598,128,0,221756:0:0:0:0:
320,192,221677,128,0,221835:0:0:0:0:
448,192,221756,128,0,221914:0:0:0:0:
192,192,221835,128,0,221993:0:0:0:0:
320,192,221914,128,0,222072:0:0:0:0:
64,192,221993,128,0,222151:0:0:0:0:
192,192,222072,128,0,222230:0:0:0:0:
448,192,222072,128,0,222230:0:0:0:0:
320,192,222151,128,0,222309:0:0:0:0:
64,192,222230,128,0,222388:0:0:0:0:
192,192,222309,128,0,222467:0:0:0:0:
320,192,222388,128,0,222546:0:0:0:0:
64,192,222467,128,0,222625:0:0:0:0:
448,192,222546,128,0,222625:0:0:0:0:
192,192,222625,128,0,222782:0:0:0:0:
448,192,222703,128,0,222861:0:0:0:0:
64,192,222703,128,0,222861:0:0:0:0:
320,192,222782,128,0,222940:0:0:0:0:
192,192,222861,128,0,223019:0:0:0:0:
64,192,222940,128,0,223098:0:0:0:0:
448,192,223019,128,0,223177:0:0:0:0:
320,192,223098,128,0,223256:0:0:0:0:
64,192,223177,128,0,223256:0:0:0:0:
192,192,223256,128,0,223335:0:0:0:0:
64,192,223335,128,0,223493:0:0:0:0:
320,192,223335,128,0,223493:0:0:0:0:
448,192,223335,128,0,223414:0:0:0:0:
192,192,223414,128,0,223572:0:0:0:0:
448,192,223493,128,0,223651:0:0:0:0:
320,192,223572,128,0,223730:0:0:0:0:
64,192,223651,128,0,223809:0:0:0:0:
192,192,223730,128,0,223888:0:0:0:0:
320,192,223809,128,0,223888:0:0:0:0:
448,192,223888,128,0,224046:0:0:0:0:
320,192,223967,128,0,224125:0:0:0:0:
64,192,224046,128,0,224203:0:0:0:0:
192,192,224125,128,0,224203:0:0:0:0:
320,192,224203,128,0,224361:0:0:0:0:
192,192,224282,128,0,224440:0:0:0:0:
64,192,224361,128,0,224519:0:0:0:0:
320,192,224440,128,0,224598:0:0:0:0:
448,192,224519,128,0,224677:0:0:0:0:
64,192,224598,128,0,224756:0:0:0:0:
192,192,224598,128,0,224756:0:0:0:0:
320,192,224677,128,0,224835:0:0:0:0:
448,192,224756,128,0,224914:0:0:0:0:
64,192,224835,128,0,224993:0:0:0:0:
192,192,224914,128,0,225072:0:0:0:0:
320,192,224993,128,0,225072:0:0:0:0:
448,192,225072,128,0,225230:0:0:0:0:
320,192,225151,128,0,225309:0:0:0:0:
64,192,225230,128,0,225388:0:0:0:0:
192,192,225309,128,0,225467:0:0:0:0:
448,192,225388,128,0,225546:0:0:0:0:
320,192,225467,128,0,225625:0:0:0:0:
64,192,225546,128,0,225625:0:0:0:0:
192,192,225546,128,0,225703:0:0:0:0:
448,192,225625,128,0,225782:0:0:0:0:
320,192,225703,128,0,225782:0:0:0:0:
64,192,225782,128,0,225861:0:0:0:0:
320,192,225861,128,0,225940:0:0:0:0:
448,192,225861,128,0,226019:0:0:0:0:
192,192,225861,128,0,226019:0:0:0:0:
64,192,225940,128,0,226098:0:0:0:0:
320,192,226019,128,0,226177:0:0:0:0:
192,192,226098,128,0,226256:0:0:0:0:
448,192,226177,128,0,226335:0:0:0:0:
320,192,226256,128,0,226414:0:0:0:0:
192,192,226335,128,0,226493:0:0:0:0:
64,192,226414,128,0,226572:0:0:0:0:
448,192,226493,128,0,226572:0:0:0:0:
320,192,226572,128,0,226730:0:0:0:0:
448,192,226651,128,0,226809:0:0:0:0:
192,192,226730,128,0,226888:0:0:0:0:
64,192,226809,128,0,226967:0:0:0:0:
320,192,226888,128,0,227046:0:0:0:0:
448,192,226967,128,0,227125:0:0:0:0:
192,192,227046,128,0,227203:0:0:0:0:
64,192,227125,128,0,227282:0:0:0:0:
320,192,227125,128,0,227282:0:0:0:0:
448,192,227203,128,0,227361:0:0:0:0:
192,192,227282,128,0,227440:0:0:0:0:
320,192,227361,128,0,227519:0:0:0:0:
448,192,227440,128,0,227598:0:0:0:0:
64,192,227519,128,0,227677:0:0:0:0:
192,192,227598,128,0,227756:0:0:0:0:
448,192,227677,128,0,227835:0:0:0:0:
320,192,227756,128,0,227835:0:0:0:0:
192,192,227835,128,0,227993:0:0:0:0:
320,192,227914,128,0,228072:0:0:0:0:
448,192,227993,128,0,228151:0:0:0:0:
64,192,227993,128,0,228151:0:0:0:0:
192,192,228072,128,0,228151:0:0:0:0:
320,192,228151,128,0,228309:0:0:0:0:
192,192,228230,128,0,228309:0:0:0:0:
64,192,228309,128,0,228388:0:0:0:0:
320,192,228388,1,0,0:0:0:0:
448,192,228388,1,0,0:0:0:0:
192,192,228388,1,0,0:0:0:0:
64,192,228466,128,0,228623:0:0:0:0:
448,192,228545,128,0,228702:0:0:0:0:
320,192,228623,128,0,228780:0:0:0:0:
192,192,228702,128,0,228780:0:0:0:0:
64,192,228780,128,0,228937:0:0:0:0:
192,192,228859,128,0,229016:0:0:0:0:
448,192,228937,128,0,229094:0:0:0:0:
64,192,229016,128,0,229173:0:0:0:0:
192,192,229094,128,0,229251:0:0:0:0:
320,192,229173,128,0,229251:0:0:0:0:
448,192,229251,128,0,229408:0:0:0:0:
320,192,229330,128,0,229408:0:0:0:0:
64,192,229408,128,0,229566:0:0:0:0:
320,192,229487,128,0,229566:0:0:0:0:
192,192,229566,128,0,229723:0:0:0:0:
320,192,229644,128,0,229801:0:0:0:0:
448,192,229723,128,0,229880:0:0:0:0:
64,192,229801,128,0,229958:0:0:0:0:
192,192,229880,128,0,230037:0:0:0:0:
320,192,229958,128,0,230037:0:0:0:0:
448,192,230037,128,0,230194:0:0:0:0:
192,192,230115,128,0,230194:0:0:0:0:
64,192,230194,128,0,230351:0:0:0:0:
320,192,230272,128,0,230351:0:0:0:0:
192,192,230351,128,0,230508:0:0:0:0:
320,192,230429,128,0,230508:0:0:0:0:
448,192,230508,128,0,230665:0:0:0:0:
64,192,230586,128,0,230665:0:0:0:0:
192,192,230665,128,0,230744:0:0:0:0:
320,192,230744,128,0,230822:0:0:0:0:
192,192,230822,128,0,230901:0:0:0:0:
320,192,230901,1,0,0:0:0:0:
448,192,230901,1,0,0:0:0:0:
64,192,230901,1,0,0:0:0:0:
64,192,231058,128,0,231215:0:0:0:0:
192,192,231136,128,0,231293:0:0:0:0:
320,192,231215,128,0,231293:0:0:0:0:
448,192,231293,128,0,231529:0:0:0:0:
192,192,231372,128,0,231450:0:0:0:0:
64,192,231450,128,0,231607:0:0:0:0:
320,192,231529,128,0,231607:0:0:0:0:
192,192,231607,128,0,231764:0:0:0:0:
320,192,231686,128,0,231843:0:0:0:0:
448,192,231764,128,0,231922:0:0:0:0:
192,192,231843,128,0,231922:0:0:0:0:
320,192,231922,128,0,232079:0:0:0:0:
192,192,232000,128,0,232157:0:0:0:0:
448,192,232079,128,0,232236:0:0:0:0:
64,192,232157,128,0,232314:0:0:0:0:
320,192,232236,128,0,232393:0:0:0:0:
192,192,232314,128,0,232393:0:0:0:0:
64,192,232393,128,0,232550:0:0:0:0:
320,192,232471,128,0,232550:0:0:0:0:
448,192,232550,128,0,232707:0:0:0:0:
192,192,232628,128,0,232707:0:0:0:0:
320,192,232707,128,0,232864:0:0:0:0:
192,192,232785,128,0,232942:0:0:0:0:
64,192,232864,128,0,233021:0:0:0:0:
320,192,232942,128,0,233100:0:0:0:0:
448,192,233021,128,0,233178:0:0:0:0:
64,192,233100,128,0,233178:0:0:0:0:
320,192,233178,128,0,233257:0:0:0:0:
192,192,233257,128,0,233335:0:0:0:0:
320,192,233335,128,0,233414:0:0:0:0:
192,192,233414,1,0,0:0:0:0:
64,192,233414,1,0,0:0:0:0:
448,192,233414,1,0,0:0:0:0:
448,192,233570,128,0,233726:0:0:0:0:
320,192,233648,128,0,233804:0:0:0:0:
192,192,233726,128,0,233804:0:0:0:0:
64,192,233804,128,0,233960:0:0:0:0:
192,192,233882,128,0,234039:0:0:0:0:
320,192,233960,128,0,234039:0:0:0:0:
448,192,234039,128,0,234195:0:0:0:0:
320,192,234117,128,0,234273:0:0:0:0:
192,192,234195,128,0,234273:0:0:0:0:
64,192,234273,128,0,234429:0:0:0:0:
320,192,234351,128,0,234429:0:0:0:0:
448,192,234429,128,0,234585:0:0:0:0:
192,192,234507,128,0,234585:0:0:0:0:
320,192,234585,128,0,234742:0:0:0:0:
192,192,234664,128,0,234820:0:0:0:0:
64,192,234742,128,0,234898:0:0:0:0:
448,192,234820,128,0,234976:0:0:0:0:
320,192,234898,128,0,235054:0:0:0:0:
192,192,234976,128,0,235132:0:0:0:0:
64,192,235054,128,0,235210:0:0:0:0:
320,192,235132,128,0,235210:0:0:0:0:
448,192,235210,128,0,235445:0:0:0:0:
320,192,235289,128,0,235367:0:0:0:0:
192,192,235367,128,0,235523:0:0:0:0:
320,192,235445,128,0,235523:0:0:0:0:
64,192,235523,128,0,235679:0:0:0:0:
448,192,235601,128,0,235679:0:0:0:0:
192,192,235679,128,0,235757:0:0:0:0:
448,192,235757,128,0,235835:0:0:0:0:
192,192,235835,128,0,235914:0:0:0:0:
320,192,235914,1,0,0:0:0:0:
448,192,235914,1,0,0:0:0:0:
64,192,235914,1,0,0:0:0:0:
448,192,236070,128,0,236226:0:0:0:0:
192,192,236148,128,0,236304:0:0:0:0:
320,192,236226,128,0,236304:0:0:0:0:
64,192,236304,128,0,236460:0:0:0:0:
192,192,236382,128,0,236460:0:0:0:0:
448,192,236460,128,0,236617:0:0:0:0:
320,192,236539,128,0,236617:0:0:0:0:
192,192,236617,128,0,236695:0:0:0:0:
320,192,236695,128,0,236851:0:0:0:0:
64,192,236695,128,0,236851:0:0:0:0:
192,192,236773,128,0,236929:0:0:0:0:
448,192,236851,128,0,237007:0:0:0:0:
64,192,236929,128,0,237085:0:0:0:0:
320,192,237007,128,0,237085:0:0:0:0:
192,192,237085,128,0,237164:0:0:0:0:
320,192,237164,1,0,0:0:0:0:
448,192,237164,1,0,0:0:0:0:
64,192,237164,1,0,0:0:0:0:
192,192,237242,128,0,237398:0:0:0:0:
320,192,237320,128,0,237476:0:0:0:0:
192,192,237476,128,0,237632:0:0:0:0:
320,192,237554,128,0,237632:0:0:0:0:
448,192,237632,128,0,237789:0:0:0:0:
320,192,237710,128,0,237867:0:0:0:0:
64,192,237789,128,0,237945:0:0:0:0:
192,192,237867,128,0,238023:0:0:0:0:
320,192,237945,128,0,238101:0:0:0:0:
64,192,238023,128,0,238179:0:0:0:0:
192,192,238101,128,0,238205:0:0:0:0:
320,192,238153,128,0,238257:0:0:0:0:
448,192,238205,128,0,238309:0:0:0:0:
192,192,238257,128,0,238361:0:0:0:0:
320,192,238309,128,0,238414:0:0:0:0:
448,192,238361,128,0,238414:0:0:0:0:
64,192,238414,1,0,0:0:0:0:
192,192,238414,1,0,0:0:0:0:
320,192,238491,128,0,238647:0:0:0:0:
192,192,238569,128,0,238724:0:0:0:0:
64,192,238647,128,0,238802:0:0:0:0:
320,192,238724,128,0,238880:0:0:0:0:
192,192,238802,128,0,238958:0:0:0:0:
448,192,238880,128,0,239035:0:0:0:0:
320,192,238958,128,0,239113:0:0:0:0:
192,192,239035,128,0,239191:0:0:0:0:
64,192,239113,128,0,239268:0:0:0:0:
448,192,239191,128,0,239346:0:0:0:0:
192,192,239268,128,0,239424:0:0:0:0:
320,192,239346,128,0,239502:0:0:0:0:
64,192,239424,128,0,239579:0:0:0:0:
192,192,239502,128,0,239579:0:0:0:0:
320,192,239579,128,0,239657:0:0:0:0:
448,192,239657,1,0,0:0:0:0:
64,192,239657,1,0,0:0:0:0:
192,192,239657,1,0,0:0:0:0:
320,192,239735,128,0,239890:0:0:0:0:
64,192,239812,128,0,239968:0:0:0:0:
192,192,239890,128,0,240046:0:0:0:0:
448,192,239968,128,0,240123:0:0:0:0:
320,192,240046,128,0,240123:0:0:0:0:
192,192,240123,128,0,240201:0:0:0:0:
320,192,240201,128,0,240357:0:0:0:0:
192,192,240279,128,0,240434:0:0:0:0:
64,192,240357,128,0,240512:0:0:0:0:
320,192,240434,128,0,240590:0:0:0:0:
448,192,240512,128,0,240667:0:0:0:0:
192,192,240590,128,0,240745:0:0:0:0:
64,192,240667,128,0,240823:0:0:0:0:
320,192,240745,128,0,240823:0:0:0:0:
192,192,240823,128,0,240901:0:0:0:0:
448,192,240901,1,0,0:0:0:0:
64,192,240901,1,0,0:0:0:0:
320,192,240901,1,0,0:0:0:0:
192,192,240978,128,0,241134:0:0:0:0:
448,192,241056,128,0,241211:0:0:0:0:
64,192,241134,128,0,241289:0:0:0:0:
192,192,241211,128,0,241289:0:0:0:0:
320,192,241289,128,0,241445:0:0:0:0:
192,192,241367,128,0,241522:0:0:0:0:
64,192,241445,128,0,241600:0:0:0:0:
320,192,241522,128,0,241678:0:0:0:0:
192,192,241600,128,0,241755:0:0:0:0:
448,192,241678,128,0,241833:0:0:0:0:
320,192,241755,128,0,241911:0:0:0:0:
192,192,241833,128,0,241989:0:0:0:0:
64,192,241911,128,0,242066:0:0:0:0:
320,192,241989,128,0,242066:0:0:0:0:
192,192,242066,128,0,242144:0:0:0:0:
448,192,242144,1,0,0:0:0:0:
64,192,242144,1,0,0:0:0:0:
320,192,242144,1,0,0:0:0:0:
192,192,242222,128,0,242377:0:0:0:0:
448,192,242300,128,0,242455:0:0:0:0:
320,192,242377,128,0,242533:0:0:0:0:
64,192,242455,128,0,242610:0:0:0:0:
448,192,242533,128,0,242688:0:0:0:0:
192,192,242610,128,0,242688:0:0:0:0:
320,192,242688,128,0,242766:0:0:0:0:
448,192,242766,1,0,0:0:0:0:
64,192,242766,1,0,0:0:0:0:
192,192,242766,1,0,0:0:0:0:
320,192,242844,128,0,242999:0:0:0:0:
192,192,242921,128,0,243077:0:0:0:0:
448,192,242999,128,0,243077:0:0:0:0:
64,192,243077,128,0,243232:0:0:0:0:
448,192,243154,128,0,243310:0:0:0:0:
192,192,243232,128,0,243310:0:0:0:0:
320,192,243310,128,0,243388:0:0:0:0:
448,192,243388,1,0,0:0:0:0:
64,192,243388,1,0,0:0:0:0:
192,192,243388,1,0,0:0:0:0:
320,192,243465,128,0,243619:0:0:0:0:
64,192,243542,128,0,243697:0:0:0:0:
192,192,243619,128,0,243774:0:0:0:0:
448,192,243697,128,0,243851:0:0:0:0:
64,192,243774,128,0,243929:0:0:0:0:
320,192,243851,128,0,243929:0:0:0:0:
192,192,243929,128,0,244006:0:0:0:0:
448,192,244006,1,0,0:0:0:0:
64,192,244006,128,0,244161:0:0:0:0:
320,192,244006,128,0,244083:0:0:0:0:
192,192,244083,128,0,244238:0:0:0:0:
448,192,244161,128,0,244238:0:0:0:0:
320,192,244238,128,0,244393:0:0:0:0:
448,192,244315,128,0,244470:0:0:0:0:
64,192,244393,128,0,244547:0:0:0:0:
192,192,244470,128,0,244547:0:0:0:0:
320,192,244547,128,0,244625:0:0:0:0:
64,192,244625,1,0,0:0:0:0:
448,192,244625,128,0,244701:0:0:0:0:
192,192,244625,128,0,244701:0:0:0:0:
320,192,244701,128,0,244855:0:0:0:0:
192,192,244778,128,0,244932:0:0:0:0:
448,192,244855,128,0,245009:0:0:0:0:
320,192,244932,128,0,245009:0:0:0:0:
64,192,245009,128,0,245163:0:0:0:0:
320,192,245086,128,0,245163:0:0:0:0:
192,192,245163,128,0,245240:0:0:0:0:
448,192,245240,1,0,0:0:0:0:
64,192,245240,128,0,245394:0:0:0:0:
320,192,245240,128,0,245317:0:0:0:0:
192,192,245317,128,0,245471:0:0:0:0:
448,192,245394,128,0,245548:0:0:0:0:
320,192,245471,128,0,245625:0:0:0:0:
64,192,245548,128,0,245701:0:0:0:0:
448,192,245625,128,0,245778:0:0:0:0:
192,192,245701,128,0,245778:0:0:0:0:
320,192,245778,128,0,245855:0:0:0:0:
64,192,245855,1,0,0:0:0:0:
448,192,245855,1,0,0:0:0:0:
192,192,245855,128,0,246008:0:0:0:0:
320,192,245931,128,0,246084:0:0:0:0:
448,192,246008,128,0,246161:0:0:0:0:
192,192,246084,128,0,246237:0:0:0:0:
64,192,246161,128,0,246314:0:0:0:0:
320,192,246161,1,0,0:0:0:0:
448,192,246237,128,0,246390:0:0:0:0:
192,192,246314,128,0,246467:0:0:0:0:
320,192,246390,128,0,246543:0:0:0:0:
448,192,246467,128,0,246620:0:0:0:0:
64,192,246467,128,0,246620:0:0:0:0:
192,192,246543,128,0,246696:0:0:0:0:
320,192,246620,128,0,246773:0:0:0:0:
448,192,246696,128,0,246849:0:0:0:0:
64,192,246773,128,0,246926:0:0:0:0:
192,192,246773,1,0,0:0:0:0:
320,192,246849,128,0,247002:0:0:0:0:
448,192,246926,128,0,247079:0:0:0:0:
192,192,247002,128,0,247155:0:0:0:0:
320,192,247079,128,0,247231:0:0:0:0:
64,192,247079,1,0,0:0:0:0:
448,192,247155,128,0,247307:0:0:0:0:
64,192,247231,128,0,247383:0:0:0:0:
192,192,247307,128,0,247459:0:0:0:0:
320,192,247383,1,0,0:0:0:0:
448,192,247383,128,0,247535:0:0:0:0:
64,192,247459,128,0,247611:0:0:0:0:
192,192,247535,128,0,247688:0:0:0:0:
320,192,247611,128,0,247764:0:0:0:0:
448,192,247688,1,0,0:0:0:0:
64,192,247688,128,0,247840:0:0:0:0:
192,192,247764,128,0,247916:0:0:0:0:
320,192,247840,128,0,247992:0:0:0:0:
448,192,247916,128,0,248068:0:0:0:0:
64,192,247992,1,0,0:0:0:0:
192,192,247992,128,0,248144:0:0:0:0:
320,192,248068,128,0,248221:0:0:0:0:
448,192,248144,128,0,248221:0:0:0:0:
192,192,248221,128,0,248297:0:0:0:0:
320,192,248297,128,0,248372:0:0:0:0:
448,192,248297,1,0,0:0:0:0:
192,192,248372,128,0,248524:0:0:0:0:
320,192,248448,1,0,0:0:0:0:
64,192,248448,128,0,248524:0:0:0:0:
448,192,248524,128,0,248675:0:0:0:0:
64,192,248600,1,0,0:0:0:0:
192,192,248600,128,0,248675:0:0:0:0:
320,192,248675,128,0,248827:0:0:0:0:
448,192,248751,1,0,0:0:0:0:
192,192,248751,128,0,248903:0:0:0:0:
64,192,248827,128,0,248978:0:0:0:0:
320,192,248903,1,0,0:0:0:0:
448,192,248903,128,0,249054:0:0:0:0:
192,192,248978,128,0,249130:0:0:0:0:
64,192,249054,128,0,249130:0:0:0:0:
320,192,249054,1,0,0:0:0:0:
448,192,249130,128,0,249281:0:0:0:0:
64,192,249206,1,0,0:0:0:0:
320,192,249206,128,0,249281:0:0:0:0:
192,192,249281,128,0,249433:0:0:0:0:
320,192,249357,128,0,249509:0:0:0:0:
64,192,249357,1,0,0:0:0:0:
448,192,249433,128,0,249509:0:0:0:0:
64,192,249509,1,0,0:0:0:0:
192,192,249509,1,0,0:0:0:0:
320,192,249584,5,0,0:0:0:0:
448,192,249584,1,0,0:0:0:0:
192,192,249659,1,0,0:0:0:0:
64,192,249659,1,0,0:0:0:0:
320,192,249735,1,0,0:0:0:0:
448,192,249735,1,0,0:0:0:0:
192,192,249810,1,0,0:0:0:0:
64,192,249810,1,0,0:0:0:0:
320,192,249885,1,0,0:0:0:0:
448,192,249885,1,0,0:0:0:0:
192,192,249961,1,0,0:0:0:0:
64,192,249961,1,0,0:0:0:0:
320,192,250036,1,0,0:0:0:0:
448,192,250036,1,0,0:0:0:0:
192,192,250112,1,0,0:0:0:0:
64,192,250112,1,0,0:0:0:0:
320,192,250187,1,0,0:0:0:0:
448,192,250187,1,0,0:0:0:0:
192,192,250262,1,0,0:0:0:0:
64,192,250262,1,0,0:0:0:0:
320,192,250338,1,0,0:0:0:0:
448,192,250338,1,0,0:0:0:0:
192,192,250413,1,0,0:0:0:0:
64,192,250413,1,0,0:0:0:0:
320,192,250488,1,0,0:0:0:0:
448,192,250488,1,0,0:0:0:0:
192,192,250564,1,0,0:0:0:0:
64,192,250564,1,0,0:0:0:0:
320,192,250639,1,0,0:0:0:0:
448,192,250639,1,0,0:0:0:0:
64,192,250715,128,0,251190:0:0:0:0:
192,192,250740,128,0,251140:0:0:0:0:
320,192,250765,128,0,251090:0:0:0:0:
448,192,250790,128,0,251040:0:0:0:0:
448,192,251115,128,0,251215:0:0:0:0:
320,192,251165,128,0,251265:0:0:0:0:
192,192,251215,128,0,251315:0:0:0:0:
64,192,251265,128,0,251365:0:0:0:0:
448,192,251315,128,0,251390:0:0:0:0:
320,192,251340,128,0,251415:0:0:0:0:
192,192,251365,128,0,251440:0:0:0:0:
448,192,251465,128,0,251540:0:0:0:0:
320,192,251490,128,0,251565:0:0:0:0:
192,192,251515,128,0,251590:0:0:0:0:
448,192,251615,128,0,251690:0:0:0:0:
320,192,251640,128,0,251715:0:0:0:0:
192,192,251665,128,0,251740:0:0:0:0:
448,192,251765,128,0,251840:0:0:0:0:
320,192,251790,128,0,251865:0:0:0:0:
192,192,251815,128,0,251890:0:0:0:0:
64,192,251915,1,0,0:0:0:0:
192,192,251952,1,0,0:0:0:0:
320,192,251990,1,0,0:0:0:0:
448,192,252065,128,0,252140:0:0:0:0:
320,192,252090,128,0,252165:0:0:0:0:
192,192,252115,128,0,252190:0:0:0:0:
448,192,252215,128,0,252290:0:0:0:0:
320,192,252240,128,0,252315:0:0:0:0:
192,192,252265,128,0,252340:0:0:0:0:
448,192,252365,128,0,252440:0:0:0:0:
320,192,252390,128,0,252465:0:0:0:0:
192,192,252415,128,0,252490:0:0:0:0:
64,192,252515,128,0,252665:0:0:0:0:
448,192,252515,128,0,252590:0:0:0:0:
320,192,252590,128,0,252740:0:0:0:0:
448,192,252665,128,0,252815:0:0:0:0:
64,192,252740,128,0,252815:0:0:0:0:
192,192,252815,128,0,252965:0:0:0:0:
64,192,252890,128,0,253040:0:0:0:0:
448,192,252965,128,0,253040:0:0:0:0:
320,192,253040,128,0,253115:0:0:0:0:
64,192,253115,128,0,253265:0:0:0:0:
448,192,253115,128,0,253265:0:0:0:0:
192,192,253115,1,0,0:0:0:0:
320,192,253190,128,0,253265:0:0:0:0:
192,192,253265,128,0,253340:0:0:0:0:
320,192,253340,128,0,253415:0:0:0:0:
64,192,253415,128,0,253515:0:0:0:0:
192,192,253490,128,0,253565:0:0:0:0:
320,192,253527,128,0,253602:0:0:0:0:
448,192,253565,128,0,253715:0:0:0:0:
192,192,253640,128,0,253715:0:0:0:0:
64,192,253715,1,0,0:0:0:0:
320,192,253715,1,0,0:0:0:0:
320,192,253790,128,0,253865:0:0:0:0:
448,192,253865,128,0,254015:0:0:0:0:
64,192,254015,1,0,0:0:0:0:
64,192,254090,128,0,254165:0:0:0:0:
192,192,254165,128,0,254240:0:0:0:0:
320,192,254240,128,0,254315:0:0:0:0:
64,192,254315,1,0,0:0:0:0:
448,192,254315,1,0,0:0:0:0:
192,192,254315,128,0,254465:0:0:0:0:
320,192,254390,128,0,254540:0:0:0:0:
64,192,254465,128,0,254615:0:0:0:0:
448,192,254540,128,0,254690:0:0:0:0:
192,192,254615,128,0,254765:0:0:0:0:
320,192,254690,128,0,254840:0:0:0:0:
64,192,254765,128,0,254840:0:0:0:0:
448,192,254840,128,0,254915:0:0:0:0:
192,192,254915,128,0,255165:0:0:0:0:
64,192,254915,128,0,255215:0:0:0:0:
320,192,254915,128,0,255115:0:0:0:0:
448,192,255065,128,0,255290:0:0:0:0:
320,192,255215,128,0,255315:0:0:0:0:
192,192,255265,128,0,255365:0:0:0:0:
64,192,255315,128,0,255415:0:0:0:0:
448,192,255365,128,0,255465:0:0:0:0:
320,192,255415,128,0,255515:0:0:0:0:
64,192,255515,1,0,0:0:0:0:
448,192,255552,1,0,0:0:0:0:
192,192,255590,1,0,0:0:0:0:
320,192,255627,1,0,0:0:0:0:
64,192,255665,1,0,0:0:0:0:
448,192,255702,1,0,0:0:0:0:
192,192,255740,1,0,0:0:0:0:
320,192,255777,1,0,0:0:0:0:
64,192,255815,128,0,256115:0:0:0:0:
192,192,255840,128,0,256090:0:0:0:0:
320,192,255865,128,0,256065:0:0:0:0:
448,192,255890,128,0,256040:0:0:0:0:
448,192,256115,128,0,256190:0:0:0:0:
320,192,256140,128,0,256215:0:0:0:0:
192,192,256165,128,0,256240:0:0:0:0:
448,192,256265,128,0,256340:0:0:0:0:
320,192,256290,128,0,256365:0:0:0:0:
192,192,256315,128,0,256390:0:0:0:0:
448,192,256415,128,0,256490:0:0:0:0:
320,192,256440,128,0,256515:0:0:0:0:
192,192,256465,128,0,256540:0:0:0:0:
448,192,256565,128,0,256640:0:0:0:0:
320,192,256590,128,0,256665:0:0:0:0:
192,192,256615,128,0,256690:0:0:0:0:
64,192,256715,1,0,0:0:0:0:
448,192,256715,128,0,256790:0:0:0:0:
64,192,256790,128,0,256940:0:0:0:0:
448,192,256865,1,0,0:0:0:0:
448,192,256940,128,0,257015:0:0:0:0:
64,192,257015,128,0,257165:0:0:0:0:
192,192,257040,128,0,257165:0:0:0:0:
448,192,257165,128,0,257315:0:0:0:0:
320,192,257165,128,0,257315:0:0:0:0:
64,192,257315,1,0,0:0:0:0:
192,192,257315,1,0,0:0:0:0:
448,192,257365,128,0,257465:0:0:0:0:
320,192,257415,128,0,257515:0:0:0:0:
192,192,257465,128,0,257565:0:0:0:0:
64,192,257515,128,0,257615:0:0:0:0:
448,192,257565,128,0,257615:0:0:0:0:
192,192,257615,128,0,257765:0:0:0:0:
320,192,257690,128,0,257840:0:0:0:0:
64,192,257765,128,0,257915:0:0:0:0:
448,192,257840,128,0,257990:0:0:0:0:
192,192,257915,1,0,0:0:0:0:
320,192,257915,128,0,258065:0:0:0:0:
64,192,257990,128,0,258140:0:0:0:0:
192,192,258065,128,0,258215:0:0:0:0:
448,192,258140,128,0,258215:0:0:0:0:
320,192,258215,128,0,258365:0:0:0:0:
448,192,258290,128,0,258440:0:0:0:0:
64,192,258365,128,0,258465:0:0:0:0:
192,192,258415,128,0,258515:0:0:0:0:
320,192,258465,128,0,258565:0:0:0:0:
448,192,258515,128,0,258590:0:0:0:0:
192,192,258590,128,0,258740:0:0:0:0:
448,192,258665,128,0,258815:0:0:0:0:
64,192,258815,128,0,258890:0:0:0:0:
320,192,258890,128,0,258965:0:0:0:0:
64,192,258965,128,0,259040:0:0:0:0:
320,192,259040,128,0,259115:0:0:0:0:
192,192,259115,128,0,259215:0:0:0:0:
64,192,259140,128,0,259240:0:0:0:0:
320,192,259215,128,0,259315:0:0:0:0:
448,192,259240,128,0,259340:0:0:0:0:
64,192,259315,128,0,259415:0:0:0:0:
192,192,259340,128,0,259440:0:0:0:0:
448,192,259415,128,0,259515:0:0:0:0:
320,192,259440,128,0,259540:0:0:0:0:
192,192,259515,128,0,259615:0:0:0:0:
64,192,259540,128,0,259640:0:0:0:0:
320,192,259615,128,0,259715:0:0:0:0:
448,192,259640,128,0,259715:0:0:0:0:
64,192,259715,1,0,0:0:0:0:
192,192,259715,128,0,259790:0:0:0:0:
320,192,259790,128,0,259865:0:0:0:0:
192,192,259865,128,0,259940:0:0:0:0:
320,192,259940,128,0,260015:0:0:0:0:
64,192,260015,128,0,260115:0:0:0:0:
192,192,260065,128,0,260165:0:0:0:0:
320,192,260115,128,0,260215:0:0:0:0:
448,192,260165,128,0,260265:0:0:0:0:
64,192,260215,128,0,260315:0:0:0:0:
192,192,260265,128,0,260315:0:0:0:0:
448,192,260315,128,0,260790:0:0:0:0:
320,192,260340,128,0,260740:0:0:0:0:
192,192,260365,128,0,260690:0:0:0:0:
64,192,260390,128,0,260640:0:0:0:0:
64,192,260715,128,0,260815:0:0:0:0:
192,192,260765,128,0,260865:0:0:0:0:
320,192,260815,128,0,260915:0:0:0:0:
448,192,260865,128,0,260965:0:0:0:0:
64,192,260915,128,0,260990:0:0:0:0:
192,192,260940,128,0,261015:0:0:0:0:
320,192,260965,128,0,261040:0:0:0:0:
64,192,261065,128,0,261140:0:0:0:0:
192,192,261090,128,0,261165:0:0:0:0:
320,192,261115,128,0,261190:0:0:0:0:
64,192,261215,128,0,261290:0:0:0:0:
192,192,261240,128,0,261315:0:0:0:0:
320,192,261265,128,0,261340:0:0:0:0:
64,192,261365,128,0,261440:0:0:0:0:
192,192,261390,128,0,261465:0:0:0:0:
320,192,261415,128,0,261490:0:0:0:0:
448,192,261515,1,0,0:0:0:0:
320,192,261552,1,0,0:0:0:0:
192,192,261590,1,0,0:0:0:0:
64,192,261665,128,0,261740:0:0:0:0:
192,192,261690,128,0,261765:0:0:0:0:
320,192,261715,128,0,261790:0:0:0:0:
64,192,261815,128,0,261890:0:0:0:0:
192,192,261840,128,0,261915:0:0:0:0:
320,192,261865,128,0,261940:0:0:0:0:
64,192,261965,128,0,262040:0:0:0:0:
192,192,261990,128,0,262065:0:0:0:0:
320,192,262015,128,0,262090:0:0:0:0:
448,192,262115,128,0,262265:0:0:0:0:
64,192,262115,128,0,262190:0:0:0:0:
192,192,262190,128,0,262340:0:0:0:0:
64,192,262265,128,0,262415:0:0:0:0:
448,192,262340,128,0,262415:0:0:0:0:
320,192,262415,128,0,262565:0:0:0:0:
448,192,262490,128,0,262640:0:0:0:0:
64,192,262565,128,0,262640:0:0:0:0:
192,192,262640,128,0,262715:0:0:0:0:
320,192,262715,1,0,0:0:0:0:
448,192,262715,128,0,262865:0:0:0:0:
64,192,262715,128,0,262865:0:0:0:0:
192,192,262790,128,0,262865:0:0:0:0:
320,192,262865,128,0,262940:0:0:0:0:
192,192,262940,128,0,263015:0:0:0:0:
448,192,263015,128,0,263115:0:0:0:0:
320,192,263065,128,0,263165:0:0:0:0:
192,192,263115,128,0,263215:0:0:0:0:
64,192,263165,128,0,263315:0:0:0:0:
320,192,263240,128,0,263315:0:0:0:0:
448,192,263315,1,0,0:0:0:0:
192,192,263315,1,0,0:0:0:0:
320,192,263365,128,0,263465:0:0:0:0:
192,192,263415,128,0,263515:0:0:0:0:
64,192,263465,128,0,263565:0:0:0:0:
320,192,263515,128,0,263615:0:0:0:0:
192,192,263565,128,0,263665:0:0:0:0:
448,192,263615,1,0,0:0:0:0:
64,192,263615,128,0,263765:0:0:0:0:
448,192,263690,128,0,263765:0:0:0:0:
320,192,263765,128,0,263840:0:0:0:0:
192,192,263840,128,0,263915:0:0:0:0:
448,192,263915,1,0,0:0:0:0:
64,192,263915,1,0,0:0:0:0:
320,192,263915,128,0,264065:0:0:0:0:
192,192,263990,128,0,264140:0:0:0:0:
448,192,264065,128,0,264215:0:0:0:0:
64,192,264140,128,0,264215:0:0:0:0:
320,192,264215,128,0,264290:0:0:0:0:
192,192,264252,128,0,264327:0:0:0:0:
64,192,264290,128,0,264365:0:0:0:0:
448,192,264327,128,0,264402:0:0:0:0:
320,192,264365,128,0,264440:0:0:0:0:
64,192,264440,128,0,264515:0:0:0:0:
320,192,264515,128,0,264815:0:0:0:0:
448,192,264515,128,0,264890:0:0:0:0:
192,192,264515,128,0,264740:0:0:0:0:
64,192,264665,128,0,264890:0:0:0:0:
192,192,264815,128,0,265040:0:0:0:0:
320,192,264890,128,0,265040:0:0:0:0:
448,192,264965,128,0,265040:0:0:0:0:
64,192,264965,128,0,265115:0:0:0:0:
192,192,265115,128,0,265190:0:0:0:0:
320,192,265115,128,0,265265:0:0:0:0:
448,192,265115,128,0,265340:0:0:0:0:
64,192,265265,128,0,265415:0:0:0:0:
192,192,265340,128,0,265490:0:0:0:0:
448,192,265415,128,0,265565:0:0:0:0:
64,192,265490,128,0,265640:0:0:0:0:
320,192,265565,128,0,265715:0:0:0:0:
192,192,265640,128,0,265715:0:0:0:0:
64,192,265715,1,0,0:0:0:0:
448,192,265715,1,0,0:0:0:0:
320,192,265790,128,0,265865:0:0:0:0:
192,192,265865,1,0,0:0:0:0:
320,192,265940,128,0,266015:0:0:0:0:
64,192,266015,1,0,0:0:0:0:
64,192,266090,128,0,266240:0:0:0:0:
320,192,266165,128,0,266315:0:0:0:0:
448,192,266240,128,0,266315:0:0:0:0:
192,192,266315,1,0,0:0:0:0:
64,192,266315,1,0,0:0:0:0:
320,192,266390,128,0,266465:0:0:0:0:
448,192,266465,128,0,266615:0:0:0:0:
320,192,266540,128,0,266690:0:0:0:0:
64,192,266615,128,0,266690:0:0:0:0:
192,192,266690,128,0,266840:0:0:0:0:
64,192,266765,128,0,266915:0:0:0:0:
320,192,266840,128,0,266915:0:0:0:0:
192,192,266915,1,0,0:0:0:0:
448,192,266915,128,0,267065:0:0:0:0:
64,192,266990,128,0,267140:0:0:0:0:
320,192,267065,128,0,267215:0:0:0:0:
448,192,267140,128,0,267215:0:0:0:0:
64,192,267215,1,0,0:0:0:0:
64,192,267290,128,0,267365:0:0:0:0:
320,192,267365,128,0,267515:0:0:0:0:
192,192,267440,128,0,267515:0:0:0:0:
64,192,267515,1,0,0:0:0:0:
448,192,267515,1,0,0:0:0:0:
320,192,267590,1,0,0:0:0:0:
320,192,267665,128,0,267815:0:0:0:0:
192,192,267740,128,0,267890:0:0:0:0:
448,192,267815,1,0,0:0:0:0:
64,192,267815,128,0,267965:0:0:0:0:
320,192,267890,128,0,268040:0:0:0:0:
192,192,267965,128,0,268040:0:0:0:0:
448,192,268040,128,0,268115:0:0:0:0:
64,192,268115,1,0,0:0:0:0:
192,192,268115,128,0,268265:0:0:0:0:
320,192,268190,128,0,268340:0:0:0:0:
64,192,268265,128,0,268415:0:0:0:0:
448,192,268340,128,0,268490:0:0:0:0:
320,192,268415,1,0,0:0:0:0:
192,192,268415,128,0,268565:0:0:0:0:
64,192,268490,128,0,268640:0:0:0:0:
320,192,268565,128,0,268715:0:0:0:0:
448,192,268640,128,0,268715:0:0:0:0:
192,192,268715,1,0,0:0:0:0:
64,192,268715,128,0,268790:0:0:0:0:
320,192,268790,128,0,268865:0:0:0:0:
192,192,268865,128,0,269015:0:0:0:0:
448,192,268865,1,0,0:0:0:0:
64,192,268940,128,0,269015:0:0:0:0:
320,192,269015,128,0,269090:0:0:0:0:
448,192,269015,128,0,269165:0:0:0:0:
192,192,269090,128,0,269240:0:0:0:0:
320,192,269165,128,0,269315:0:0:0:0:
64,192,269165,128,0,269240:0:0:0:0:
448,192,269240,128,0,269315:0:0:0:0:
64,192,269315,1,0,0:0:0:0:
192,192,269315,1,0,0:0:0:0:
320,192,269390,1,0,0:0:0:0:
448,192,269390,1,0,0:0:0:0:
192,192,269465,1,0,0:0:0:0:
64,192,269465,1,0,0:0:0:0:
320,192,269540,1,0,0:0:0:0:
448,192,269540,1,0,0:0:0:0:
64,192,269615,1,0,0:0:0:0:
192,192,269615,1,0,0:0:0:0:
320,192,269690,1,0,0:0:0:0:
448,192,269690,1,0,0:0:0:0:
192,192,269765,1,0,0:0:0:0:
64,192,269765,1,0,0:0:0:0:
320,192,269840,1,0,0:0:0:0:
448,192,269840,1,0,0:0:0:0:
192,192,269915,128,0,270137:0:0:0:0:
64,192,269915,128,0,270137:0:0:0:0:
320,192,270063,128,0,270137:0:0:0:0:
448,192,270063,128,0,270137:0:0:0:0:
192,192,270212,128,0,270286:0:0:0:0:
448,192,270212,128,0,270286:0:0:0:0:
64,192,270212,128,0,270286:0:0:0:0:
320,192,270360,128,0,270434:0:0:0:0:
192,192,270360,128,0,270434:0:0:0:0:
320,192,270509,128,0,270731:0:0:0:0:
64,192,270509,128,0,270731:0:0:0:0:
192,192,270657,128,0,270731:0:0:0:0:
448,192,270657,128,0,270731:0:0:0:0:
64,192,270806,128,0,270880:0:0:0:0:
192,192,270806,128,0,270880:0:0:0:0:
448,192,270806,128,0,270880:0:0:0:0:
320,192,270954,128,0,271028:0:0:0:0:
64,192,270954,128,0,271251:0:0:0:0:
448,192,271103,128,0,271177:0:0:0:0:
320,192,271103,128,0,271325:0:0:0:0:
192,192,271251,128,0,271325:0:0:0:0:
448,192,271251,128,0,271325:0:0:0:0:
320,192,271400,1,0,0:0:0:0:
64,192,271400,1,0,0:0:0:0:
192,192,271400,1,0,0:0:0:0:
448,192,271548,128,0,271622:0:0:0:0:
64,192,271548,128,0,271622:0:0:0:0:
448,192,271697,128,0,271845:0:0:0:0:
320,192,271697,128,0,271771:0:0:0:0:
320,192,271845,128,0,271919:0:0:0:0:
192,192,271845,128,0,271919:0:0:0:0:
192,192,271994,128,0,272142:0:0:0:0:
448,192,271994,128,0,272068:0:0:0:0:
64,192,271994,128,0,272068:0:0:0:0:
64,192,272142,128,0,272216:0:0:0:0:
320,192,272142,128,0,272216:0:0:0:0:
320,192,272291,128,0,272512:0:0:0:0:
448,192,272291,128,0,272512:0:0:0:0:
64,192,272438,128,0,272512:0:0:0:0:
192,192,272438,128,0,272512:0:0:0:0:
448,192,272586,128,0,272660:0:0:0:0:
320,192,272586,128,0,272660:0:0:0:0:
64,192,272586,128,0,272660:0:0:0:0:
192,192,272734,128,0,272808:0:0:0:0:
320,192,272734,128,0,272808:0:0:0:0:
448,192,272882,128,0,272956:0:0:0:0:
64,192,272882,128,0,272956:0:0:0:0:
448,192,273029,128,0,273103:0:0:0:0:
320,192,273029,128,0,273103:0:0:0:0:
64,192,273177,128,0,273251:0:0:0:0:
192,192,273177,128,0,273251:0:0:0:0:
320,192,273177,128,0,273251:0:0:0:0:
192,192,273325,128,0,273621:0:0:0:0:
64,192,273325,128,0,273399:0:0:0:0:
320,192,273473,128,0,273621:0:0:0:0:
448,192,273473,128,0,273547:0:0:0:0:
448,192,273621,128,0,273694:0:0:0:0:
64,192,273621,128,0,273694:0:0:0:0:
320,192,273768,1,0,0:0:0:0:
192,192,273768,1,0,0:0:0:0:
64,192,273768,1,0,0:0:0:0:
320,192,273916,128,0,273990:0:0:0:0:
448,192,273916,128,0,273990:0:0:0:0:
192,192,274064,128,0,274212:0:0:0:0:
320,192,274064,128,0,274138:0:0:0:0:
448,192,274212,128,0,274286:0:0:0:0:
64,192,274212,128,0,274359:0:0:0:0:
448,192,274359,1,0,0:0:0:0:
320,192,274359,1,0,0:0:0:0:
192,192,274433,1,0,0:0:0:0:
64,192,274433,1,0,0:0:0:0:
448,192,274507,1,0,0:0:0:0:
320,192,274507,1,0,0:0:0:0:
192,192,274581,1,0,0:0:0:0:
64,192,274581,1,0,0:0:0:0:
448,192,274655,128,0,274874:0:0:0:0:
320,192,274655,128,0,274874:0:0:0:0:
64,192,274801,128,0,274874:0:0:0:0:
192,192,274801,128,0,274874:0:0:0:0:
192,192,274947,128,0,275020:0:0:0:0:
320,192,274947,128,0,275020:0:0:0:0:
448,192,274947,128,0,275020:0:0:0:0:
64,192,275094,128,0,275167:0:0:0:0:
448,192,275094,128,0,275167:0:0:0:0:
192,192,275240,128,0,275459:0:0:0:0:
320,192,275240,128,0,275459:0:0:0:0:
448,192,275386,128,0,275459:0:0:0:0:
64,192,275386,128,0,275459:0:0:0:0:
64,192,275533,128,0,275606:0:0:0:0:
192,192,275533,128,0,275606:0:0:0:0:
448,192,275533,128,0,275606:0:0:0:0:
320,192,275679,128,0,275972:0:0:0:0:
192,192,275679,128,0,275752:0:0:0:0:
448,192,275825,128,0,275898:0:0:0:0:
64,192,275825,128,0,276045:0:0:0:0:
448,192,275972,128,0,276118:0:0:0:0:
192,192,276118,128,0,276191:0:0:0:0:
320,192,276191,128,0,276264:0:0:0:0:
64,192,276264,128,0,276337:0:0:0:0:
448,192,276337,128,0,276411:0:0:0:0:
64,192,276411,128,0,276508:0:0:0:0:
192,192,276459,128,0,276557:0:0:0:0:
320,192,276508,128,0,276606:0:0:0:0:
448,192,276557,128,0,276655:0:0:0:0:
64,192,276606,128,0,276703:0:0:0:0:
192,192,276655,128,0,276703:0:0:0:0:
320,192,276703,128,0,276801:0:0:0:0:
192,192,276752,128,0,276850:0:0:0:0:
64,192,276801,128,0,276898:0:0:0:0:
448,192,276850,128,0,276947:0:0:0:0:
320,192,276898,128,0,276996:0:0:0:0:
192,192,276947,128,0,276996:0:0:0:0:
64,192,276996,128,0,277213:0:0:0:0:
448,192,276996,128,0,277213:0:0:0:0:
320,192,277140,128,0,277213:0:0:0:0:
192,192,277140,128,0,277213:0:0:0:0:
448,192,277285,128,0,277358:0:0:0:0:
64,192,277285,128,0,277358:0:0:0:0:
192,192,277285,128,0,277358:0:0:0:0:
320,192,277430,128,0,277648:0:0:0:0:
64,192,277430,128,0,277648:0:0:0:0:
448,192,277575,128,0,277648:0:0:0:0:
192,192,277575,128,0,277648:0:0:0:0:
448,192,277720,128,0,277865:0:0:0:0:
320,192,277720,128,0,277793:0:0:0:0:
64,192,277865,1,0,0:0:0:0:
192,192,277865,1,0,0:0:0:0:
320,192,277865,1,0,0:0:0:0:
64,192,278010,128,0,278155:0:0:0:0:
192,192,278010,128,0,278082:0:0:0:0:
448,192,278155,128,0,278300:0:0:0:0:
192,192,278155,128,0,278227:0:0:0:0:
320,192,278300,128,0,278348:0:0:0:0:
192,192,278348,128,0,278396:0:0:0:0:
64,192,278396,128,0,278517:0:0:0:0:
320,192,278445,128,0,278517:0:0:0:0:
448,192,278445,128,0,278517:0:0:0:0:
192,192,278590,128,0,278662:0:0:0:0:
448,192,278590,128,0,278662:0:0:0:0:
192,192,278735,128,0,278880:0:0:0:0:
64,192,278735,128,0,278807:0:0:0:0:
320,192,278880,128,0,278952:0:0:0:0:
448,192,278880,128,0,278952:0:0:0:0:
64,192,279024,128,0,279169:0:0:0:0:
448,192,279024,128,0,279097:0:0:0:0:
192,192,279024,1,0,0:0:0:0:
192,192,279169,1,0,0:0:0:0:
320,192,279169,128,0,279314:0:0:0:0:
64,192,279314,128,0,279527:0:0:0:0:
192,192,279314,128,0,279527:0:0:0:0:
320,192,279456,128,0,279527:0:0:0:0:
448,192,279456,128,0,279527:0:0:0:0:
192,192,279598,128,0,279669:0:0:0:0:
64,192,279598,128,0,279669:0:0:0:0:
448,192,279598,128,0,279669:0:0:0:0:
320,192,279740,128,0,279811:0:0:0:0:
192,192,279740,128,0,279811:0:0:0:0:
64,192,279882,128,0,280095:0:0:0:0:
448,192,279882,128,0,280095:0:0:0:0:
192,192,280024,128,0,280095:0:0:0:0:
320,192,280024,128,0,280095:0:0:0:0:
320,192,280167,128,0,280238:0:0:0:0:
448,192,280167,128,0,280238:0:0:0:0:
64,192,280167,128,0,280238:0:0:0:0:
64,192,280309,128,0,280593:0:0:0:0:
192,192,280309,128,0,280380:0:0:0:0:
320,192,280451,128,0,280664:0:0:0:0:
448,192,280451,128,0,280522:0:0:0:0:
192,192,280593,128,0,280664:0:0:0:0:
448,192,280593,128,0,280664:0:0:0:0:
64,192,280735,1,0,0:0:0:0:
192,192,280735,1,0,0:0:0:0:
320,192,280735,1,0,0:0:0:0:
448,192,280877,128,0,280949:0:0:0:0:
320,192,280877,128,0,280949:0:0:0:0:
448,192,281020,128,0,281233:0:0:0:0:
192,192,281020,128,0,281233:0:0:0:0:
64,192,281162,128,0,281233:0:0:0:0:
320,192,281162,128,0,281233:0:0:0:0:
192,192,281304,128,0,281446:0:0:0:0:
64,192,281304,128,0,281375:0:0:0:0:
448,192,281304,128,0,281375:0:0:0:0:
448,192,281446,128,0,281517:0:0:0:0:
320,192,281446,128,0,281517:0:0:0:0:
320,192,281588,128,0,281799:0:0:0:0:
64,192,281588,128,0,281799:0:0:0:0:
192,192,281728,128,0,281799:0:0:0:0:
448,192,281728,128,0,281799:0:0:0:0:
320,192,281869,128,0,281940:0:0:0:0:
64,192,281869,128,0,281940:0:0:0:0:
448,192,281869,128,0,281940:0:0:0:0:
192,192,282010,128,0,282080:0:0:0:0:
320,192,282010,128,0,282080:0:0:0:0:
64,192,282151,128,0,282221:0:0:0:0:
192,192,282151,128,0,282292:0:0:0:0:
320,192,282292,128,0,282362:0:0:0:0:
448,192,282292,128,0,282362:0:0:0:0:
192,192,282433,128,0,282573:0:0:0:0:
64,192,282433,128,0,282503:0:0:0:0:
320,192,282433,128,0,282503:0:0:0:0:
448,192,282573,128,0,282855:0:0:0:0:
64,192,282573,128,0,282644:0:0:0:0:
192,192,282714,128,0,282855:0:0:0:0:
320,192,282714,128,0,282785:0:0:0:0:
320,192,282855,128,0,282926:0:0:0:0:
64,192,282855,128,0,282926:0:0:0:0:
64,192,282996,1,0,0:0:0:0:
448,192,282996,1,0,0:0:0:0:
192,192,282996,1,0,0:0:0:0:
448,192,283137,128,0,283207:0:0:0:0:
320,192,283137,128,0,283207:0:0:0:0:
448,192,283278,128,0,283418:0:0:0:0:
320,192,283278,128,0,283348:0:0:0:0:
192,192,283418,128,0,283489:0:0:0:0:
64,192,283418,128,0,283489:0:0:0:0:
64,192,283559,128,0,283700:0:0:0:0:
192,192,283559,128,0,283630:0:0:0:0:
448,192,283559,128,0,283630:0:0:0:0:
320,192,283700,128,0,283771:0:0:0:0:
448,192,283700,128,0,283771:0:0:0:0:
192,192,283841,128,0,284048:0:0:0:0:
64,192,283841,128,0,284048:0:0:0:0:
320,192,283979,128,0,284048:0:0:0:0:
448,192,283979,128,0,284048:0:0:0:0:
448,192,284117,128,0,284186:0:0:0:0:
192,192,284117,128,0,284186:0:0:0:0:
64,192,284117,128,0,284186:0:0:0:0:
192,192,284255,128,0,284324:0:0:0:0:
320,192,284255,128,0,284324:0:0:0:0:
320,192,284393,128,0,284601:0:0:0:0:
448,192,284393,128,0,284601:0:0:0:0:
192,192,284532,128,0,284601:0:0:0:0:
64,192,284532,128,0,284601:0:0:0:0:
64,192,284670,128,0,284739:0:0:0:0:
192,192,284670,128,0,284739:0:0:0:0:
448,192,284670,128,0,284739:0:0:0:0:
320,192,284808,128,0,285085:0:0:0:0:
448,192,284808,128,0,284877:0:0:0:0:
192,192,284946,128,0,285085:0:0:0:0:
64,192,284946,128,0,285016:0:0:0:0:
448,192,285085,128,0,285223:0:0:0:0:
192,192,285223,1,0,0:0:0:0:
64,192,285223,128,0,285292:0:0:0:0:
320,192,285292,128,0,285361:0:0:0:0:
192,192,285361,128,0,285430:0:0:0:0:
64,192,285430,128,0,285499:0:0:0:0:
448,192,285499,128,0,285592:0:0:0:0:
320,192,285546,128,0,285638:0:0:0:0:
192,192,285592,128,0,285684:0:0:0:0:
64,192,285638,128,0,285730:0:0:0:0:
448,192,285684,128,0,285776:0:0:0:0:
320,192,285730,128,0,285776:0:0:0:0:
192,192,285776,128,0,285868:0:0:0:0:
320,192,285822,128,0,285914:0:0:0:0:
448,192,285868,128,0,285960:0:0:0:0:
64,192,285914,128,0,286006:0:0:0:0:
192,192,285960,128,0,286052:0:0:0:0:
320,192,286006,128,0,286052:0:0:0:0:
448,192,286052,128,0,286325:0:0:0:0:
192,192,286188,1,0,0:0:0:0:
64,192,286188,1,0,0:0:0:0:
64,192,286325,128,0,286394:0:0:0:0:
320,192,286325,128,0,286394:0:0:0:0:
320,192,286462,128,0,286736:0:0:0:0:
192,192,286462,128,0,286531:0:0:0:0:
448,192,286599,1,0,0:0:0:0:
192,192,286599,1,0,0:0:0:0:
448,192,286736,128,0,286805:0:0:0:0:
64,192,286736,128,0,286805:0:0:0:0:
320,192,286873,1,0,0:0:0:0:
64,192,286873,1,0,0:0:0:0:
192,192,287010,128,0,287147:0:0:0:0:
320,192,287010,128,0,287079:0:0:0:0:
320,192,287147,1,0,0:0:0:0:
448,192,287147,1,0,0:0:0:0:
192,192,287216,1,0,0:0:0:0:
64,192,287216,1,0,0:0:0:0:
320,192,287284,1,0,0:0:0:0:
448,192,287284,1,0,0:0:0:0:
192,192,287353,1,0,0:0:0:0:
64,192,287353,1,0,0:0:0:0:
320,192,287421,1,0,0:0:0:0:
448,192,287421,1,0,0:0:0:0:
192,192,287490,1,0,0:0:0:0:
64,192,287490,1,0,0:0:0:0:
320,192,287558,1,0,0:0:0:0:
448,192,287558,1,0,0:0:0:0:
192,192,287627,1,0,0:0:0:0:
64,192,287627,1,0,0:0:0:0:
448,192,287695,1,0,0:0:0:0:
320,192,287730,1,0,0:0:0:0:
192,192,287764,1,0,0:0:0:0:
320,192,287832,1,0,0:0:0:0:
192,192,287867,1,0,0:0:0:0:
64,192,287901,1,0,0:0:0:0:
448,192,287969,1,0,0:0:0:0:
320,192,288004,1,0,0:0:0:0:
192,192,288038,1,0,0:0:0:0:
320,192,288106,1,0,0:0:0:0:
192,192,288141,1,0,0:0:0:0:
64,192,288175,1,0,0:0:0:0:
320,192,288243,128,0,288447:0:0:0:0:
448,192,288243,128,0,288379:0:0:0:0:
192,192,288379,128,0,288515:0:0:0:0:
64,192,288447,128,0,288583:0:0:0:0:
320,192,288515,128,0,288652:0:0:0:0:
448,192,288515,128,0,288652:0:0:0:0:
192,192,288583,128,0,288652:0:0:0:0:
64,192,288652,1,0,0:0:0:0:
64,192,288720,128,0,288788:0:0:0:0:
320,192,288788,1,0,0:0:0:0:
448,192,288788,1,0,0:0:0:0:
448,192,288856,128,0,288993:0:0:0:0:
192,192,288924,128,0,289061:0:0:0:0:
64,192,289061,128,0,289197:0:0:0:0:
320,192,289061,128,0,289129:0:0:0:0:
192,192,289129,128,0,289265:0:0:0:0:
320,192,289197,128,0,289265:0:0:0:0:
448,192,289265,128,0,289333:0:0:0:0:
192,192,289333,128,0,289470:0:0:0:0:
320,192,289333,128,0,289402:0:0:0:0:
64,192,289402,128,0,289538:0:0:0:0:
448,192,289470,128,0,289606:0:0:0:0:
192,192,289538,128,0,289606:0:0:0:0:
320,192,289606,128,0,289743:0:0:0:0:
64,192,289606,128,0,289674:0:0:0:0:
192,192,289674,128,0,289811:0:0:0:0:
448,192,289743,128,0,289811:0:0:0:0:
320,192,289811,128,0,289947:0:0:0:0:
448,192,289879,128,0,290015:0:0:0:0:
64,192,289879,128,0,289947:0:0:0:0:
192,192,289947,128,0,290083:0:0:0:0:
64,192,290015,128,0,290152:0:0:0:0:
192,192,290152,128,0,290288:0:0:0:0:
448,192,290152,128,0,290220:0:0:0:0:
320,192,290220,128,0,290356:0:0:0:0:
448,192,290288,128,0,290424:0:0:0:0:
192,192,290356,128,0,290424:0:0:0:0:
320,192,290424,128,0,290493:0:0:0:0:
64,192,290424,128,0,290561:0:0:0:0:
192,192,290493,128,0,290561:0:0:0:0:
448,192,290561,128,0,290629:0:0:0:0:
64,192,290629,128,0,290765:0:0:0:0:
320,192,290697,128,0,290765:0:0:0:0:
448,192,290697,128,0,290833:0:0:0:0:
192,192,290765,128,0,290833:0:0:0:0:
64,192,290833,1,0,0:0:0:0:
64,192,290902,128,0,290970:0:0:0:0:
320,192,290970,128,0,291106:0:0:0:0:
448,192,290970,128,0,291038:0:0:0:0:
192,192,291038,128,0,291174:0:0:0:0:
448,192,291106,128,0,291174:0:0:0:0:
64,192,291174,128,0,291311:0:0:0:0:
320,192,291243,128,0,291311:0:0:0:0:
448,192,291243,128,0,291379:0:0:0:0:
192,192,291311,128,0,291447:0:0:0:0:
320,192,291379,128,0,291447:0:0:0:0:
64,192,291447,128,0,291515:0:0:0:0:
320,192,291515,128,0,291652:0:0:0:0:
448,192,291515,128,0,291583:0:0:0:0:
192,192,291583,128,0,291720:0:0:0:0:
64,192,291652,128,0,291720:0:0:0:0:
320,192,291720,128,0,291788:0:0:0:0:
448,192,291788,1,0,0:0:0:0:
64,192,291788,1,0,0:0:0:0:
192,192,291833,1,0,0:0:0:0:
320,192,291879,1,0,0:0:0:0:
448,192,291970,1,0,0:0:0:0:
320,192,292015,1,0,0:0:0:0:
64,192,292061,1,0,0:0:0:0:
192,192,292061,128,0,292129:0:0:0:0:
448,192,292129,1,0,0:0:0:0:
320,192,292129,128,0,292197:0:0:0:0:
64,192,292197,128,0,292265:0:0:0:0:
192,192,292231,1,0,0:0:0:0:
320,192,292265,128,0,292333:0:0:0:0:
64,192,292333,1,0,0:0:0:0:
192,192,292333,128,0,292402:0:0:0:0:
320,192,292402,1,0,0:0:0:0:
448,192,292402,128,0,292470:0:0:0:0:
64,192,292470,1,0,0:0:0:0:
192,192,292504,1,0,0:0:0:0:
320,192,292538,1,0,0:0:0:0:
448,192,292572,1,0,0:0:0:0:
64,192,292606,128,0,292879:0:0:0:0:
192,192,292606,128,0,292743:0:0:0:0:
320,192,292743,128,0,292879:0:0:0:0:
448,192,292743,128,0,292811:0:0:0:0:
192,192,292879,128,0,293015:0:0:0:0:
448,192,292879,128,0,292947:0:0:0:0:
320,192,292947,128,0,293083:0:0:0:0:
64,192,293015,128,0,293083:0:0:0:0:
448,192,293083,128,0,293220:0:0:0:0:
192,192,293152,128,0,293220:0:0:0:0:
64,192,293152,128,0,293220:0:0:0:0:
320,192,293220,1,0,0:0:0:0:
320,192,293288,128,0,293424:0:0:0:0:
448,192,293424,128,0,293561:0:0:0:0:
64,192,293424,128,0,293561:0:0:0:0:
192,192,293493,128,0,293561:0:0:0:0:
320,192,293561,128,0,293629:0:0:0:0:
192,192,293629,128,0,293697:0:0:0:0:
64,192,293697,1,0,0:0:0:0:
448,192,293697,128,0,293788:0:0:0:0:
320,192,293743,128,0,293833:0:0:0:0:
192,192,293788,128,0,293879:0:0:0:0:
64,192,293879,128,0,293970:0:0:0:0:
192,192,293924,128,0,293970:0:0:0:0:
320,192,293970,1,0,0:0:0:0:
448,192,293970,128,0,294038:0:0:0:0:
64,192,294038,128,0,294106:0:0:0:0:
320,192,294106,128,0,294243:0:0:0:0:
192,192,294174,128,0,294311:0:0:0:0:
64,192,294243,128,0,294379:0:0:0:0:
448,192,294243,128,0,294379:0:0:0:0:
320,192,294311,1,0,0:0:0:0:
320,192,294379,128,0,294515:0:0:0:0:
64,192,294515,128,0,294606:0:0:0:0:
448,192,294515,128,0,294583:0:0:0:0:
192,192,294561,128,0,294652:0:0:0:0:
320,192,294606,128,0,294697:0:0:0:0:
64,192,294652,128,0,294743:0:0:0:0:
192,192,294697,128,0,294788:0:0:0:0:
320,192,294743,128,0,294788:0:0:0:0:
448,192,294788,128,0,294924:0:0:0:0:
192,192,294924,128,0,294993:0:0:0:0:
64,192,294993,128,0,295129:0:0:0:0:
192,192,295061,1,0,0:0:0:0:
320,192,295061,128,0,295129:0:0:0:0:
448,192,295129,128,0,295265:0:0:0:0:
320,192,295197,128,0,295333:0:0:0:0:
192,192,295265,128,0,295333:0:0:0:0:
448,192,295333,128,0,295470:0:0:0:0:
64,192,295333,128,0,295402:0:0:0:0:
192,192,295402,128,0,295538:0:0:0:0:
320,192,295470,128,0,295538:0:0:0:0:
64,192,295538,128,0,295606:0:0:0:0:
448,192,295606,1,0,0:0:0:0:
320,192,295606,1,0,0:0:0:0:
192,192,295652,1,0,0:0:0:0:
64,192,295697,1,0,0:0:0:0:
448,192,295743,1,0,0:0:0:0:
320,192,295788,1,0,0:0:0:0:
192,192,295833,1,0,0:0:0:0:
448,192,295879,1,0,0:0:0:0:
320,192,295913,1,0,0:0:0:0:
192,192,295947,1,0,0:0:0:0:
64,192,295981,1,0,0:0:0:0:
448,192,296015,1,0,0:0:0:0:
320,192,296015,128,0,296083:0:0:0:0:
64,192,296083,1,0,0:0:0:0:
192,192,296083,128,0,296152:0:0:0:0:
320,192,296152,1,0,0:0:0:0:
448,192,296152,128,0,296288:0:0:0:0:
64,192,296220,128,0,296288:0:0:0:0:
320,192,296288,1,0,0:0:0:0:
192,192,296333,1,0,0:0:0:0:
64,192,296379,1,0,0:0:0:0:
320,192,296424,1,0,0:0:0:0:
448,192,296424,128,0,296493:0:0:0:0:
192,192,296493,1,0,0:0:0:0:
64,192,296493,128,0,296561:0:0:0:0:
448,192,296561,1,0,0:0:0:0:
320,192,296561,128,0,296629:0:0:0:0:
192,192,296629,128,0,296697:0:0:0:0:
448,192,296697,1,0,0:0:0:0:
320,192,296697,1,0,0:0:0:0:
192,192,296765,1,0,0:0:0:0:
64,192,296765,128,0,296833:0:0:0:0:
320,192,296833,1,0,0:0:0:0:
448,192,296833,128,0,296902:0:0:0:0:
64,192,296902,1,0,0:0:0:0:
192,192,296902,128,0,296970:0:0:0:0:
320,192,296970,1,0,0:0:0:0:
448,192,296970,1,0,0:0:0:0:
192,192,297038,1,0,0:0:0:0:
64,192,297038,1,0,0:0:0:0:
320,192,297106,1,0,0:0:0:0:
448,192,297106,1,0,0:0:0:0:
192,192,297174,1,0,0:0:0:0:
64,192,297174,1,0,0:0:0:0:
320,192,297243,1,0,0:0:0:0:
448,192,297243,1,0,0:0:0:0:
64,192,297311,1,0,0:0:0:0:
192,192,297311,1,0,0:0:0:0:
448,192,297379,1,0,0:0:0:0:
320,192,297379,128,0,297447:0:0:0:0:
192,192,297447,1,0,0:0:0:0:
64,192,297447,128,0,297515:0:0:0:0:
320,192,297515,1,0,0:0:0:0:
448,192,297515,1,0,0:0:0:0:
64,192,297583,1,0,0:0:0:0:
192,192,297583,128,0,297652:0:0:0:0:
448,192,297652,1,0,0:0:0:0:
320,192,297652,128,0,297720:0:0:0:0:
192,192,297720,1,0,0:0:0:0:
64,192,297720,128,0,297788:0:0:0:0:
320,192,297788,1,0,0:0:0:0:
448,192,297788,128,0,297856:0:0:0:0:
448,192,297924,1,0,0:0:0:0:
320,192,297924,128,0,297993:0:0:0:0:
192,192,297993,1,0,0:0:0:0:
64,192,297993,128,0,298061:0:0:0:0:
320,192,298061,1,0,0:0:0:0:
448,192,298061,128,0,298129:0:0:0:0:
192,192,298129,1,0,0:0:0:0:
64,192,298129,128,0,298197:0:0:0:0:
448,192,298197,1,0,0:0:0:0:
320,192,298231,1,0,0:0:0:0:
192,192,298265,1,0,0:0:0:0:
64,192,298299,1,0,0:0:0:0:
448,192,298333,1,0,0:0:0:0:
320,192,298333,128,0,298402:0:0:0:0:
64,192,298402,1,0,0:0:0:0:
192,192,298402,128,0,298470:0:0:0:0:
448,192,298470,1,0,0:0:0:0:
320,192,298504,1,0,0:0:0:0:
192,192,298538,1,0,0:0:0:0:
64,192,298572,1,0,0:0:0:0:
320,192,298606,1,0,0:0:0:0:
448,192,298606,128,0,298674:0:0:0:0:
320,192,298743,1,0,0:0:0:0:
448,192,298743,128,0,298811:0:0:0:0:
192,192,298811,1,0,0:0:0:0:
64,192,298811,1,0,0:0:0:0:
448,192,298879,1,0,0:0:0:0:
320,192,298913,1,0,0:0:0:0:
192,192,298947,1,0,0:0:0:0:
64,192,298981,1,0,0:0:0:0:
448,192,299015,1,0,0:0:0:0:
320,192,299015,128,0,299083:0:0:0:0:
192,192,299083,128,0,299152:0:0:0:0:
64,192,299152,128,0,299288:0:0:0:0:
448,192,299152,128,0,299288:0:0:0:0:
320,192,299152,128,0,299220:0:0:0:0:
192,192,299220,128,0,299356:0:0:0:0:
320,192,299288,128,0,299424:0:0:0:0:
64,192,299356,128,0,299493:0:0:0:0:
192,192,299424,128,0,299493:0:0:0:0:
448,192,299424,128,0,299493:0:0:0:0:
320,192,299493,128,0,299561:0:0:0:0:
192,192,299561,128,0,299629:0:0:0:0:
64,192,299561,1,0,0:0:0:0:
320,192,299629,1,0,0:0:0:0:
448,192,299629,128,0,299697:0:0:0:0:
64,192,299697,128,0,299765:0:0:0:0:
192,192,299697,1,0,0:0:0:0:
64,192,299833,1,0,0:0:0:0:
192,192,299833,128,0,299902:0:0:0:0:
320,192,299902,1,0,0:0:0:0:
448,192,299902,128,0,299970:0:0:0:0:
64,192,299970,1,0,0:0:0:0:
192,192,300004,1,0,0:0:0:0:
320,192,300038,1,0,0:0:0:0:
448,192,300072,1,0,0:0:0:0:
192,192,300106,1,0,0:0:0:0:
64,192,300106,128,0,300174:0:0:0:0:
448,192,300174,128,0,300243:0:0:0:0:
64,192,300243,1,0,0:0:0:0:
192,192,300265,1,0,0:0:0:0:
320,192,300288,1,0,0:0:0:0:
448,192,300311,1,0,0:0:0:0:
64,192,300333,1,0,0:0:0:0:
192,192,300356,1,0,0:0:0:0:
320,192,300379,1,0,0:0:0:0:
448,192,300447,128,0,300515:0:0:0:0:
64,192,300515,1,0,0:0:0:0:
192,192,300549,1,0,0:0:0:0:
320,192,300583,1,0,0:0:0:0:
448,192,300618,1,0,0:0:0:0:
64,192,300652,1,0,0:0:0:0:
192,192,300674,1,0,0:0:0:0:
320,192,300697,1,0,0:0:0:0:
448,192,300720,1,0,0:0:0:0:
64,192,300788,1,0,0:0:0:0:
192,192,300788,128,0,300856:0:0:0:0:
320,192,300856,1,0,0:0:0:0:
448,192,300856,128,0,300924:0:0:0:0:
64,192,300924,1,0,0:0:0:0:
192,192,300970,1,0,0:0:0:0:
320,192,301015,1,0,0:0:0:0:
448,192,301061,1,0,0:0:0:0:
192,192,301129,128,0,301197:0:0:0:0:
448,192,301197,1,0,0:0:0:0:
320,192,301197,128,0,301265:0:0:0:0:
64,192,301265,1,0,0:0:0:0:
192,192,301265,128,0,301333:0:0:0:0:
320,192,301333,1,0,0:0:0:0:
448,192,301333,128,0,301402:0:0:0:0:
192,192,301402,1,0,0:0:0:0:
64,192,301402,128,0,301470:0:0:0:0:
448,192,301470,1,0,0:0:0:0:
320,192,301470,128,0,301538:0:0:0:0:
64,192,301538,128,0,301606:0:0:0:0:
192,192,301538,1,0,0:0:0:0:
448,192,301606,1,0,0:0:0:0:
320,192,301629,1,0,0:0:0:0:
192,192,301652,1,0,0:0:0:0:
64,192,301674,1,0,0:0:0:0:
448,192,301697,1,0,0:0:0:0:
320,192,301720,1,0,0:0:0:0:
192,192,301743,1,0,0:0:0:0:
448,192,301811,128,0,301879:0:0:0:0:
64,192,301879,1,0,0:0:0:0:
192,192,301879,128,0,301947:0:0:0:0:
320,192,301947,1,0,0:0:0:0:
448,192,301947,128,0,302015:0:0:0:0:
64,192,302015,1,0,0:0:0:0:
192,192,302038,1,0,0:0:0:0:
320,192,302061,1,0,0:0:0:0:
448,192,302083,1,0,0:0:0:0:
64,192,302106,1,0,0:0:0:0:
192,192,302129,1,0,0:0:0:0:
320,192,302152,1,0,0:0:0:0:
448,192,302220,128,0,302288:0:0:0:0:
64,192,302288,1,0,0:0:0:0:
192,192,302322,1,0,0:0:0:0:
320,192,302356,1,0,0:0:0:0:
448,192,302356,128,0,302424:0:0:0:0:
192,192,302424,1,0,0:0:0:0:
64,192,302424,128,0,302493:0:0:0:0:
320,192,302493,128,0,302561:0:0:0:0:
448,192,302493,1,0,0:0:0:0:
64,192,302561,1,0,0:0:0:0:
192,192,302561,128,0,302629:0:0:0:0:
320,192,302629,1,0,0:0:0:0:
448,192,302629,128,0,302697:0:0:0:0:
64,192,302697,1,0,0:0:0:0:
192,192,302731,1,0,0:0:0:0:
320,192,302765,1,0,0:0:0:0:
64,192,302833,1,0,0:0:0:0:
192,192,302833,128,0,302902:0:0:0:0:
320,192,302902,1,0,0:0:0:0:
448,192,302902,128,0,302970:0:0:0:0:
64,192,302970,1,0,0:0:0:0:
192,192,303004,1,0,0:0:0:0:
320,192,303038,1,0,0:0:0:0:
448,192,303106,1,0,0:0:0:0:
320,192,303140,1,0,0:0:0:0:
192,192,303174,1,0,0:0:0:0:
64,192,303243,128,0,303311:0:0:0:0:
320,192,303311,1,0,0:0:0:0:
448,192,303311,128,0,303379:0:0:0:0:
64,192,303379,1,0,0:0:0:0:
192,192,303413,1,0,0:0:0:0:
320,192,303447,1,0,0:0:0:0:
448,192,303481,1,0,0:0:0:0:
192,192,303515,128,0,303652:0:0:0:0:
64,192,303515,128,0,303652:0:0:0:0:
320,192,303583,128,0,303652:0:0:0:0:
192,192,303720,128,0,303856:0:0:0:0:
320,192,303720,128,0,303856:0:0:0:0:
448,192,303788,128,0,303856:0:0:0:0:
64,192,303924,128,0,304061:0:0:0:0:
448,192,303924,128,0,304061:0:0:0:0:
320,192,303993,128,0,304061:0:0:0:0:
64,192,304129,128,0,304265:0:0:0:0:
448,192,304129,128,0,304265:0:0:0:0:
192,192,304197,128,0,304265:0:0:0:0:
320,192,304333,128,0,304470:0:0:0:0:
448,192,304333,128,0,304470:0:0:0:0:
64,192,304402,128,0,304470:0:0:0:0:
64,192,304538,128,0,304674:0:0:0:0:
192,192,304538,128,0,304674:0:0:0:0:
320,192,304606,128,0,304674:0:0:0:0:
64,192,304743,128,0,304879:0:0:0:0:
320,192,304743,128,0,304879:0:0:0:0:
448,192,304811,128,0,304879:0:0:0:0:
448,192,304947,128,0,305083:0:0:0:0:
192,192,304947,128,0,305083:0:0:0:0:
320,192,305015,128,0,305083:0:0:0:0:
64,192,305152,128,0,305288:0:0:0:0:
192,192,305152,128,0,305288:0:0:0:0:
448,192,305220,128,0,305288:0:0:0:0:
320,192,305288,128,0,305356:0:0:0:0:
448,192,305356,128,0,305493:0:0:0:0:
192,192,305356,128,0,305493:0:0:0:0:
64,192,305424,128,0,305493:0:0:0:0:
320,192,305493,128,0,305561:0:0:0:0:
64,192,305561,128,0,305697:0:0:0:0:
192,192,305561,128,0,305629:0:0:0:0:
448,192,305561,128,0,305629:0:0:0:0:
192,192,305697,1,0,0:0:0:0:
320,192,305697,1,0,0:0:0:0:
448,192,305697,128,0,314356:0:0:0:0:
320,192,305970,128,0,306106:0:0:0:0:
192,192,306106,1,0,0:0:0:0:
64,192,306243,128,0,306379:0:0:0:0:
320,192,306379,128,0,306515:0:0:0:0:
192,192,306515,128,0,306652:0:0:0:0:
64,192,306652,128,0,306788:0:0:0:0:
320,192,306788,128,0,306924:0:0:0:0:
192,192,306924,1,0,0:0:0:0:
64,192,307061,128,0,307197:0:0:0:0:
192,192,307197,128,0,307333:0:0:0:0:
320,192,307333,128,0,307470:0:0:0:0:
64,192,307470,1,0,0:0:0:0:
192,192,307606,128,0,307743:0:0:0:0:
64,192,307743,128,0,307879:0:0:0:0:
320,192,307879,128,0,308015:0:0:0:0:
64,192,308015,1,0,0:0:0:0:
320,192,308152,128,0,308288:0:0:0:0:
192,192,308288,1,0,0:0:0:0:
64,192,308424,128,0,308561:0:0:0:0:
320,192,308561,128,0,308697:0:0:0:0:
192,192,308697,128,0,308833:0:0:0:0:
64,192,308833,128,0,308970:0:0:0:0:
320,192,308970,128,0,309106:0:0:0:0:
192,192,309106,1,0,0:0:0:0:
64,192,309243,128,0,309379:0:0:0:0:
192,192,309379,128,0,309515:0:0:0:0:
64,192,309515,128,0,309652:0:0:0:0:
320,192,309652,1,0,0:0:0:0:
192,192,309788,128,0,309924:0:0:0:0:
320,192,309924,128,0,310061:0:0:0:0:
64,192,310061,1,0,0:0:0:0:
192,192,310197,128,0,310333:0:0:0:0:
320,192,310333,128,0,310470:0:0:0:0:
192,192,310470,1,0,0:0:0:0:
64,192,310606,128,0,310743:0:0:0:0:
320,192,310743,128,0,310879:0:0:0:0:
192,192,310879,128,0,311015:0:0:0:0:
64,192,311015,128,0,311152:0:0:0:0:
320,192,311152,128,0,311288:0:0:0:0:
192,192,311288,1,0,0:0:0:0:
64,192,311424,128,0,311561:0:0:0:0:
192,192,311561,1,0,0:0:0:0:
320,192,311697,128,0,311833:0:0:0:0:
64,192,311833,1,0,0:0:0:0:
192,192,311970,128,0,312106:0:0:0:0:
64,192,312106,128,0,312243:0:0:0:0:
320,192,312243,128,0,312379:0:0:0:0:
64,192,312379,1,0,0:0:0:0:
320,192,312515,128,0,312652:0:0:0:0:
192,192,312652,1,0,0:0:0:0:
64,192,312788,128,0,312924:0:0:0:0:
320,192,312924,128,0,313061:0:0:0:0:
192,192,313061,128,0,313197:0:0:0:0:
64,192,313197,128,0,313333:0:0:0:0:
320,192,313333,128,0,313470:0:0:0:0:
192,192,313470,1,0,0:0:0:0:
64,192,313606,128,0,313743:0:0:0:0:
192,192,313743,128,0,313879:0:0:0:0:
64,192,313879,128,0,314015:0:0:0:0:
320,192,314015,1,0,0:0:0:0:
192,192,314152,128,0,314288:0:0:0:0:
320,192,314288,128,0,314424:0:0:0:0:
64,192,314424,1,0,0:0:0:0:
448,192,314424,1,0,0:0:0:0:
192,192,314561,128,0,314697:0:0:0:0:
320,192,314697,128,0,314833:0:0:0:0:
192,192,314833,1,0,0:0:0:0:
64,192,314970,128,0,315106:0:0:0:0:
192,192,315106,128,0,315243:0:0:0:0:
64,192,315243,128,0,315379:0:0:0:0:
320,192,315379,128,0,315515:0:0:0:0:
448,192,315515,128,0,315652:0:0:0:0:
320,192,315652,1,0,0:0:0:0:
192,192,315788,128,0,315924:0:0:0:0:
64,192,315924,128,0,316061:0:0:0:0:
448,192,316061,128,0,316197:0:0:0:0:
64,192,316197,1,0,0:0:0:0:
320,192,316333,128,0,316470:0:0:0:0:
448,192,316470,128,0,316606:0:0:0:0:
192,192,316606,128,0,316743:0:0:0:0:
64,192,316743,1,0,0:0:0:0:
448,192,316879,128,0,317015:0:0:0:0:
320,192,317015,1,0,0:0:0:0:
192,192,317152,128,0,317288:0:0:0:0:
320,192,317288,128,0,317424:0:0:0:0:
448,192,317424,128,0,317561:0:0:0:0:
320,192,317561,128,0,317697:0:0:0:0:
192,192,317697,128,0,317833:0:0:0:0:
64,192,317833,1,0,0:0:0:0:
320,192,317970,128,0,318106:0:0:0:0:
64,192,318106,128,0,318243:0:0:0:0:
448,192,318243,128,0,318379:0:0:0:0:
192,192,318379,1,0,0:0:0:0:
320,192,318515,128,0,318652:0:0:0:0:
448,192,318652,128,0,318788:0:0:0:0:
320,192,318788,1,0,0:0:0:0:
64,192,318924,128,0,319061:0:0:0:0:
192,192,319061,128,0,319197:0:0:0:0:
320,192,319197,1,0,0:0:0:0:
64,192,319333,128,0,319470:0:0:0:0:
320,192,319470,128,0,319606:0:0:0:0:
448,192,319606,128,0,319743:0:0:0:0:
320,192,319743,128,0,319879:0:0:0:0:
192,192,319879,128,0,320015:0:0:0:0:
64,192,320015,1,0,0:0:0:0:
320,192,320152,128,0,320288:0:0:0:0:
192,192,320288,128,0,320424:0:0:0:0:
448,192,320424,128,0,320561:0:0:0:0:
320,192,320561,1,0,0:0:0:0:
64,192,320697,128,0,320833:0:0:0:0:
192,192,320833,128,0,320970:0:0:0:0:
320,192,320970,128,0,321106:0:0:0:0:
448,192,321106,1,0,0:0:0:0:
64,192,321243,128,0,321379:0:0:0:0:
192,192,321379,1,0,0:0:0:0:
320,192,321515,128,0,321652:0:0:0:0:
448,192,321652,128,0,321788:0:0:0:0:
192,192,321788,128,0,321924:0:0:0:0:
320,192,321924,128,0,322061:0:0:0:0:
64,192,322061,128,0,322197:0:0:0:0:
192,192,322197,1,0,0:0:0:0:
320,192,322333,128,0,322470:0:0:0:0:
192,192,322470,128,0,322606:0:0:0:0:
64,192,322606,128,0,322743:0:0:0:0:
192,192,322743,1,0,0:0:0:0:
320,192,322879,128,0,323015:0:0:0:0:
448,192,323015,128,0,323152:0:0:0:0:
