osu file format v14

[General]
AudioFilename: audio.mp3
AudioLeadIn: 0
PreviewTime: 22319
Countdown: 0
SampleSet: Normal
StackLeniency: 0.7
Mode: 0
LetterboxInBreaks: 0
WidescreenStoryboard: 1

[Editor]
DistanceSpacing: 0.8
BeatDivisor: 4
GridSize: 4
TimelineZoom: 1

[Metadata]
Title:Head Shoulders Knees and Toes
TitleUnicode:Head Shoulders Knees and Toes
Artist:tinyschool.tv
ArtistUnicode:tinyschool.tv
Creator:Supev
Version:Hard
Source:
Tags:brain oh my shoulders gachiGASM kneesocks and tatoe and mouth as well dont forget that five night at freddy 6 leaked gameplay freddy fazbear fnaf WutFace kids scare bear teddy gangsta
BeatmapID:921874
BeatmapSetID:425635

[Difficulty]
HPDrainRate:5
CircleSize:3.8
OverallDifficulty:6
ApproachRate:7.5
SliderMultiplier:1.40000000596046
SliderTickRate:1

[Events]
//Background and Video events
0,0,"maxresdefault Cropped.jpg",0,0
//Break Periods
2,18246,21419
2,36546,39510
//Storyboard Layer 0 (Background)
//Storyboard Layer 1 (Fail)
//Storyboard Layer 2 (Pass)
//Storyboard Layer 3 (Foreground)
//Storyboard Sound Samples

[TimingPoints]
385,483.870967741935,4,1,0,100,1,0
385,-133.333333333333,4,1,0,100,0,0
22340,361.44578313253,4,1,0,100,1,0
40335,294.117647058824,4,1,0,100,1,0
40335,-80,4,1,0,100,0,0
45040,-80,4,1,0,100,0,1

[HitObjects]
224,96,385,5,0,0:0:0:0:
132,144,868,1,8,0:0:0:0:
132,144,1110,2,0,P|100:176|100:180,1,52.5000022262336,8|0,0:0|0:0,0:0:0:0:
192,224,1594,1,0,0:0:0:0:
288,188,1836,2,0,P|300:232|300:292,1,105.000004452467
188,208,2804,5,8,0:0:0:0:
224,112,3046,1,4,0:0:0:0:
296,192,3288,1,0,0:0:0:0:
384,248,3530,2,0,L|428:212,2,52.5000022262334
276,248,4255,6,0,P|260:192|292:132,1,105.000004452467
372,140,4981,1,0,0:0:0:0:
472,128,5223,2,0,P|448:72|400:52,1,105.000004452467
312,76,5949,1,0,0:0:0:0:
312,76,6191,1,0,0:0:0:0:
168,160,6675,5,0,0:0:0:0:
252,208,6917,1,0,0:0:0:0:
340,172,7159,2,0,P|340:108|300:84,1,105.000004452467
152,92,8126,5,4,0:0:0:0:
184,224,8610,1,4,0:0:0:0:
276,124,9094,1,4,0:0:0:0:
140,164,9578,1,4,0:0:0:0:
256,196,10062,1,4,0:0:0:0:
160,284,10546,1,0,0:0:0:0:
76,196,11030,1,4,0:0:0:0:
324,84,11997,6,0,P|348:140|348:192,1,105.000004452467
284,288,12965,2,0,P|232:288|176:280,1,105.000004452467
80,248,13691,1,0,0:0:0:0:
136,160,13933,1,0,0:0:0:0:
328,56,14417,5,8,0:0:0:0:
396,176,14659,1,8,0:0:0:0:
264,208,14901,1,8,0:0:0:0:
256,192,16231,12,0,18046,0:0:0:0:
296,64,22340,6,0,P|332:104|356:192,1,140.000000596046
260,228,23062,2,0,P|220:204|216:168,1,70.000000298023
160,264,23424,1,0,0:0:0:0:
88,196,23605,2,0,P|64:156|68:108,1,70.000000298023
184,80,24147,5,8,0:0:0:0:
324,80,24327,1,4,0:0:0:0:
256,196,24508,1,0,0:0:0:0:
144,244,24689,6,0,P|132:296|128:320,2,70.000000298023
240,288,25231,5,0,0:0:0:0:
364,256,25593,2,0,L|368:172,1,70.000000298023
244,184,25954,2,0,P|188:148|168:120,1,70.000000298023
264,76,26315,1,8,0:0:0:0:
136,88,26496,1,4,0:0:0:0:
96,204,26677,1,0,0:0:0:0:
208,304,27038,6,0,P|200:244|204:212,1,70.000000298023
232,136,27400,1,0,0:0:0:0:
340,144,27580,2,0,L|424:148,1,70.000000298023
360,52,28123,5,4,0:0:0:0:
240,84,28484,1,4,0:0:0:0:
328,184,28846,1,4,0:0:0:0:
200,176,29207,1,4,0:0:0:0:
264,280,29568,1,4,0:0:0:0:
140,288,29930,1,4,0:0:0:0:
88,184,30291,1,4,0:0:0:0:
144,112,30653,6,0,B|180:76|180:76|232:80,1,70.000000298023
304,124,31014,1,0,0:0:0:0:
424,288,31737,6,0,B|372:288|372:288|348:268,1,70.000000298023,4|0,0:0|0:0,0:0:0:0:
300,192,32099,1,0,0:0:0:0:
240,280,32279,2,0,P|176:256|160:236,1,70.000000298023
148,124,32821,5,8,0:0:0:0:
284,76,33002,1,8,0:0:0:0:
328,208,33183,1,8,0:0:0:0:
256,192,34538,12,0,36346,0:0:0:0:
360,72,40335,6,0,P|296:84|196:148,1,175.000000745057
116,220,40923,2,0,B|128:272|188:276,1,87.5000003725287
240,196,41217,1,0,0:0:0:0:
320,268,41364,2,0,P|368:252|368:188,1,87.5000003725287
352,108,41805,5,8,0:0:0:0:
252,156,41952,1,4,0:0:0:0:
236,260,42099,1,0,0:0:0:0:
336,308,42246,6,0,L|436:252,2,87.5000003725287
340,204,42687,1,0,0:0:0:0:
244,288,42982,6,8,L|132:280,1,87.5000003725287
104,196,43276,2,0,P|104:104|180:60,1,175.000000745057
264,80,43717,1,0,0:0:0:0:
352,144,43864,1,0,0:0:0:0:
368,268,44158,2,0,P|280:308|164:296,1,175.000000745057
104,264,44746,2,0,P|72:236|56:184,1,87.5000003725287
176,164,45040,5,4,0:0:0:0:
304,84,45335,1,4,0:0:0:0:
312,236,45629,1,4,0:0:0:0:
216,100,45923,1,4,0:0:0:0:
184,248,46217,1,4,0:0:0:0:
316,160,46511,1,4,0:0:0:0:
160,172,46805,1,4,0:0:0:0:
296,304,47393,6,0,P|232:228|220:144,1,175.000000745057
320,72,47982,1,0,0:0:0:0:
184,72,48129,1,0,0:0:0:0:
320,72,48276,1,0,0:0:0:0:
184,72,48423,1,0,0:0:0:0:
320,64,48570,1,0,0:0:0:0:
212,112,48864,5,8,0:0:0:0:
288,224,49011,1,8,0:0:0:0:
392,140,49158,1,8,0:0:0:0:
256,192,49746,12,0,51764,0:0:0:0:
