osu file format v14

[General]
AudioFilename: audio.mp3
AudioLeadIn: 0
PreviewTime: 27968
Countdown: 0
SampleSet: Soft
StackLeniency: 0.7
Mode: 3
LetterboxInBreaks: 0
SpecialStyle: 0
WidescreenStoryboard: 1

[Editor]
DistanceSpacing: 0.8
BeatDivisor: 4
GridSize: 32
TimelineZoom: 2.3

[Metadata]
Title:fly a rocket to the center of your heart
TitleUnicode:fly a rocket to the center of your heart
Artist:tiku sens
ArtistUnicode:tiku sens
Creator:Reyi
Version:insane
Source:
Tags:vanilla girl ep jkzu123 indoroid tigerinity Ucitysm twee pop breakcore drum loop electronic instrumental english
BeatmapID:3883715
BeatmapSetID:1886203

[Difficulty]
HPDrainRate:8
CircleSize:4
OverallDifficulty:8
ApproachRate:10
SliderMultiplier:1.4
SliderTickRate:1

[Events]
//Background and Video events
0,0,"bggggg.jpg",0,0
//Break Periods
//Storyboard Layer 0 (Background)
//Storyboard Layer 1 (Fail)
//Storyboard Layer 2 (Pass)
//Storyboard Layer 3 (Foreground)
//Storyboard Layer 4 (Overlay)
//Storyboard Sound Samples
Sample,27733,0,"kick.wav",70
Sample,37345,0,"amenbreak_kick.wav",40
Sample,67345,0,"kick.wav",70
Sample,76957,0,"amenbreak_kick.wav",40

[TimingPoints]
64,291.26213592233,4,2,1,30,1,0
28025,-100,4,2,1,30,0,1
33704,-100,4,2,1,30,0,0
35015,-100,4,2,1,30,0,1
36034,-100,4,2,1,30,0,0
67636,-100,4,2,1,30,0,1
73316,-100,4,2,1,30,0,0
74627,-100,4,2,1,30,0,1
75646,-100,4,2,1,30,0,0

[HitObjects]
64,192,64,5,0,0:0:0:70:kick.wav
192,192,64,1,0,0:0:0:70:cymbal.wav
448,192,64,1,0,0:0:0:0:
320,192,209,1,0,0:0:0:0:
64,192,355,1,0,0:0:0:70:snare.wav
448,192,355,1,0,0:0:0:0:
192,192,500,1,0,0:0:0:0:
320,192,573,1,0,0:0:0:0:
64,192,646,1,0,0:0:0:70:kick.wav
192,192,646,1,0,0:0:0:0:
64,192,792,1,0,0:0:0:70:snare.wav
448,192,792,1,0,0:0:0:0:
320,192,937,1,0,0:0:0:0:
64,192,1010,1,0,0:0:0:70:kick.wav
192,192,1010,1,0,0:0:0:0:
320,192,1083,1,0,0:0:0:70:kick.wav
448,192,1083,1,0,0:0:0:0:
192,192,1229,1,0,0:0:0:70:kick.wav
448,192,1229,1,0,0:0:0:0:
192,192,1374,1,0,0:0:0:0:
64,192,1520,1,0,0:0:0:70:snare.wav
448,192,1520,1,0,0:0:0:0:
64,192,1665,1,0,0:0:0:70:kick.wav
192,192,1665,1,0,0:0:0:0:
448,192,1738,1,0,0:0:0:0:
320,192,1811,1,0,0:0:0:0:
448,192,1957,1,0,0:0:0:0:
64,192,2005,1,0,0:0:0:0:
192,192,2054,1,0,0:0:0:0:
320,192,2102,1,0,0:0:0:0:
64,192,2175,1,0,0:0:0:0:
448,192,2248,1,0,0:0:0:0:
320,192,2321,1,0,0:0:0:0:
64,192,2394,1,0,0:0:0:70:amenbreak_kick.wav
448,192,2394,1,0,0:0:0:0:
192,192,2539,1,0,0:0:0:70:amenbreak_kick.wav
320,192,2539,1,0,0:0:0:0:
64,192,2685,1,0,0:0:0:70:amenbreak_snare.wav
192,192,2685,1,0,0:0:0:0:
448,192,2685,1,0,0:0:0:0:
320,192,2830,1,0,0:0:0:0:
64,192,2903,1,0,0:0:0:70:amenbreak_hat.wav
192,192,2976,1,0,0:0:0:0:
448,192,3049,1,0,0:0:0:70:amenbreak_hat.wav
64,192,3122,1,0,0:0:0:70:amenbreak_kick.wav
320,192,3122,1,0,0:0:0:0:
192,192,3267,1,0,0:0:0:70:amenbreak_snare.wav
320,192,3267,1,0,0:0:0:0:
448,192,3267,1,0,0:0:0:0:
64,192,3413,1,0,0:0:0:0:
320,192,3486,1,0,0:0:0:70:amenbreak_hat.wav
64,192,3559,1,0,0:0:0:70:amenbreak_kick.wav
192,192,3559,1,0,0:0:0:0:
192,192,3704,1,0,0:0:0:70:amenbreak_kick.wav
448,192,3704,1,0,0:0:0:0:
64,192,3850,1,0,0:0:0:70:amenbreak_snare.wav
320,192,3850,1,0,0:0:0:0:
448,192,3850,1,0,0:0:0:0:
192,192,3996,1,0,0:0:0:0:
320,192,4068,1,0,0:0:0:70:amenbreak_hat.wav
64,192,4141,1,0,0:0:0:0:
448,192,4214,1,0,0:0:0:70:amenbreak_hat.wav
192,192,4287,1,0,0:0:0:70:amenbreak_kick.wav
320,192,4287,1,0,0:0:0:0:
64,192,4432,1,0,0:0:0:70:amenbreak_snare.wav
192,192,4432,1,0,0:0:0:0:
448,192,4432,1,0,0:0:0:0:
320,192,4578,1,0,0:0:0:0:
192,192,4651,1,0,0:0:0:70:amenbreak_hat.wav
64,192,4724,1,0,0:0:0:70:kick.wav
320,192,4724,1,0,0:0:0:70:cymbal.wav
448,192,4724,1,0,0:0:0:0:
448,192,4869,1,0,0:0:0:0:
64,192,5015,1,0,0:0:0:70:snare.wav
192,192,5015,1,0,0:0:0:0:
320,192,5161,1,0,0:0:0:0:
64,192,5233,1,0,0:0:0:0:
192,192,5306,1,0,0:0:0:70:kick.wav
448,192,5306,1,0,0:0:0:0:
64,192,5452,1,0,0:0:0:70:snare.wav
320,192,5452,1,0,0:0:0:0:
448,192,5597,1,0,0:0:0:0:
64,192,5670,1,0,0:0:0:70:kick.wav
192,192,5670,1,0,0:0:0:0:
320,192,5743,1,0,0:0:0:70:kick.wav
448,192,5743,1,0,0:0:0:0:
192,192,5889,1,0,0:0:0:70:kick.wav
320,192,5889,1,0,0:0:0:0:
192,192,6034,1,0,0:0:0:0:
64,192,6180,1,0,0:0:0:70:snare.wav
448,192,6180,1,0,0:0:0:0:
64,192,6326,1,0,0:0:0:70:kick.wav
192,192,6326,1,0,0:0:0:0:
320,192,6471,1,0,0:0:0:0:
64,192,6617,1,0,0:0:0:0:
448,192,6665,1,0,0:0:0:0:
320,192,6714,1,0,0:0:0:0:
192,192,6763,1,0,0:0:0:0:
448,192,6835,1,0,0:0:0:0:
64,192,6908,1,0,0:0:0:0:
192,192,6981,1,0,0:0:0:0:
64,192,7054,1,0,0:0:0:70:amenbreak_kick.wav
448,192,7054,1,0,0:0:0:0:
192,192,7199,1,0,0:0:0:70:amenbreak_kick.wav
320,192,7199,1,0,0:0:0:0:
64,192,7345,1,0,0:0:0:70:amenbreak_snare.wav
320,192,7345,1,0,0:0:0:0:
448,192,7345,1,0,0:0:0:0:
192,192,7491,1,0,0:0:0:0:
320,192,7563,1,0,0:0:0:70:amenbreak_hat.wav
64,192,7636,1,0,0:0:0:0:
320,192,7709,1,0,0:0:0:70:amenbreak_hat.wav
192,192,7782,1,0,0:0:0:70:amenbreak_kick.wav
448,192,7782,1,0,0:0:0:0:
64,192,7928,1,0,0:0:0:70:amenbreak_snare.wav
320,192,7928,1,0,0:0:0:0:
448,192,7928,1,0,0:0:0:0:
192,192,8073,1,0,0:0:0:0:
320,192,8146,1,0,0:0:0:70:amenbreak_hat.wav
64,192,8219,1,0,0:0:0:70:amenbreak_kick.wav
192,192,8219,1,0,0:0:0:0:
64,192,8364,1,0,0:0:0:70:amenbreak_kick.wav
448,192,8364,1,0,0:0:0:0:
192,192,8510,1,0,0:0:0:70:amenbreak_snare.wav
320,192,8510,1,0,0:0:0:0:
448,192,8510,1,0,0:0:0:0:
64,192,8656,1,0,0:0:0:0:
320,192,8729,1,0,0:0:0:70:amenbreak_hat.wav
192,192,8801,1,0,0:0:0:0:
448,192,8874,1,0,0:0:0:70:amenbreak_hat.wav
64,192,8947,1,0,0:0:0:70:amenbreak_kick.wav
320,192,8947,1,0,0:0:0:0:
64,192,9093,1,0,0:0:0:70:amenbreak_snare.wav
192,192,9093,1,0,0:0:0:0:
448,192,9093,1,0,0:0:0:0:
320,192,9238,1,0,0:0:0:0:
192,192,9311,1,0,0:0:0:70:amenbreak_hat.wav
64,192,9384,1,0,0:0:0:70:kick.wav
320,192,9384,1,0,0:0:0:70:cymbal.wav
448,192,9384,1,0,0:0:0:0:
64,192,9530,1,0,0:0:0:0:
320,192,9675,1,0,0:0:0:70:snare.wav
448,192,9675,1,0,0:0:0:0:
192,192,9821,1,0,0:0:0:0:
448,192,9894,1,0,0:0:0:0:
64,192,9966,1,0,0:0:0:70:kick.wav
320,192,9966,1,0,0:0:0:0:
192,192,10112,1,0,0:0:0:70:snare.wav
320,192,10112,1,0,0:0:0:0:
64,192,10258,1,0,0:0:0:0:
320,192,10330,1,0,0:0:0:70:kick.wav
448,192,10330,1,0,0:0:0:0:
64,192,10403,1,0,0:0:0:70:kick.wav
192,192,10403,1,0,0:0:0:0:
192,192,10549,1,0,0:0:0:70:kick.wav
320,192,10549,1,0,0:0:0:0:
320,192,10695,1,0,0:0:0:0:
64,192,10840,1,0,0:0:0:70:snare.wav
448,192,10840,1,0,0:0:0:0:
192,192,10986,1,0,0:0:0:70:kick.wav
320,192,10986,1,0,0:0:0:0:
64,192,11059,1,0,0:0:0:0:
320,192,11131,1,0,0:0:0:0:
448,192,11277,1,0,0:0:0:0:
64,192,11326,1,0,0:0:0:0:
192,192,11374,1,0,0:0:0:0:
320,192,11423,1,0,0:0:0:0:
64,192,11496,1,0,0:0:0:0:
448,192,11568,1,0,0:0:0:0:
320,192,11641,1,0,0:0:0:0:
64,192,11714,1,0,0:0:0:70:amenbreak_kick.wav
448,192,11714,1,0,0:0:0:0:
192,192,11860,1,0,0:0:0:70:amenbreak_kick.wav
320,192,11860,1,0,0:0:0:0:
64,192,12005,1,0,0:0:0:70:amenbreak_snare.wav
192,192,12005,1,0,0:0:0:0:
448,192,12005,1,0,0:0:0:0:
320,192,12151,1,0,0:0:0:0:
64,192,12224,1,0,0:0:0:70:amenbreak_hat.wav
192,192,12297,1,0,0:0:0:0:
448,192,12369,1,0,0:0:0:70:amenbreak_hat.wav
64,192,12442,1,0,0:0:0:70:amenbreak_kick.wav
320,192,12442,1,0,0:0:0:0:
192,192,12588,1,0,0:0:0:70:amenbreak_snare.wav
320,192,12588,1,0,0:0:0:0:
448,192,12588,1,0,0:0:0:0:
64,192,12733,1,0,0:0:0:0:
320,192,12806,1,0,0:0:0:70:amenbreak_hat.wav
64,192,12879,1,0,0:0:0:70:amenbreak_kick.wav
192,192,12879,1,0,0:0:0:0:
192,192,13025,1,0,0:0:0:70:amenbreak_kick.wav
448,192,13025,1,0,0:0:0:0:
64,192,13170,1,0,0:0:0:70:amenbreak_snare.wav
320,192,13170,1,0,0:0:0:0:
448,192,13170,1,0,0:0:0:0:
192,192,13316,1,0,0:0:0:0:
320,192,13389,1,0,0:0:0:70:amenbreak_hat.wav
64,192,13462,1,0,0:0:0:0:
448,192,13534,1,0,0:0:0:70:amenbreak_hat.wav
192,192,13607,1,0,0:0:0:70:amenbreak_kick.wav
320,192,13607,1,0,0:0:0:0:
64,192,13753,1,0,0:0:0:70:amenbreak_snare.wav
192,192,13753,1,0,0:0:0:0:
448,192,13753,1,0,0:0:0:0:
320,192,13898,1,0,0:0:0:0:
192,192,13971,1,0,0:0:0:70:amenbreak_hat.wav
64,192,14044,1,0,0:0:0:70:kick.wav
320,192,14044,1,0,0:0:0:70:cymbal.wav
448,192,14044,1,0,0:0:0:0:
448,192,14190,1,0,0:0:0:0:
64,192,14335,1,0,0:0:0:70:snare.wav
192,192,14335,1,0,0:0:0:0:
320,192,14481,1,0,0:0:0:0:
64,192,14554,1,0,0:0:0:0:
320,192,14627,1,0,0:0:0:70:snare.wav
448,192,14627,1,0,0:0:0:0:
64,192,14772,1,0,0:0:0:0:
192,192,14918,1,0,0:0:0:70:snare.wav
448,192,14918,1,0,0:0:0:0:
192,192,15063,1,0,0:0:0:70:kick.wav
320,192,15063,1,0,0:0:0:0:
64,192,15209,1,0,0:0:0:70:snare.wav
448,192,15209,1,0,0:0:0:0:
320,192,15355,1,0,0:0:0:0:
64,192,15500,1,0,0:0:0:70:kick.wav
320,192,15500,1,0,0:0:0:0:
64,192,15646,1,0,0:0:0:70:snare.wav
192,192,15646,1,0,0:0:0:0:
320,192,15792,1,0,0:0:0:70:kick.wav
448,192,15792,1,0,0:0:0:0:
64,192,15937,1,0,0:0:0:70:snare.wav
448,192,15937,1,0,0:0:0:0:
192,192,16083,1,0,0:0:0:0:
320,192,16156,1,0,0:0:0:70:kick.wav
448,192,16156,1,0,0:0:0:0:
64,192,16229,1,0,0:0:0:0:
192,192,16301,1,0,0:0:0:0:
64,192,16374,1,0,0:0:0:70:amenbreak_kick.wav
448,192,16374,1,0,0:0:0:0:
192,192,16520,1,0,0:0:0:70:amenbreak_kick.wav
320,192,16520,1,0,0:0:0:0:
64,192,16665,1,0,0:0:0:70:amenbreak_snare.wav
320,192,16665,1,0,0:0:0:0:
448,192,16665,1,0,0:0:0:0:
192,192,16811,1,0,0:0:0:0:
320,192,16884,1,0,0:0:0:70:amenbreak_hat.wav
64,192,16957,1,0,0:0:0:0:
448,192,17030,1,0,0:0:0:70:amenbreak_hat.wav
192,192,17102,1,0,0:0:0:70:amenbreak_kick.wav
320,192,17102,1,0,0:0:0:0:
64,192,17248,1,0,0:0:0:70:amenbreak_snare.wav
192,192,17248,1,0,0:0:0:0:
448,192,17248,1,0,0:0:0:0:
320,192,17394,1,0,0:0:0:0:
192,192,17466,1,0,0:0:0:70:amenbreak_hat.wav
320,192,17539,1,0,0:0:0:70:amenbreak_kick.wav
448,192,17539,1,0,0:0:0:0:
64,192,17685,1,0,0:0:0:70:amenbreak_kick.wav
448,192,17685,1,0,0:0:0:0:
64,192,17830,1,0,0:0:0:70:amenbreak_snare.wav
192,192,17830,1,0,0:0:0:0:
320,192,17830,1,0,0:0:0:0:
448,192,17976,1,0,0:0:0:0:
192,192,18049,1,0,0:0:0:70:amenbreak_hat.wav
320,192,18122,1,0,0:0:0:0:
64,192,18195,1,0,0:0:0:70:amenbreak_hat.wav
192,192,18267,1,0,0:0:0:70:amenbreak_kick.wav
448,192,18267,1,0,0:0:0:0:
64,192,18413,1,0,0:0:0:70:amenbreak_snare.wav
320,192,18413,1,0,0:0:0:0:
448,192,18413,1,0,0:0:0:0:
192,192,18559,1,0,0:0:0:0:
320,192,18631,1,0,0:0:0:70:amenbreak_hat.wav
64,192,18704,1,0,0:0:0:70:kick.wav
192,192,18704,1,0,0:0:0:70:cymbal.wav
448,192,18704,1,0,0:0:0:0:
320,192,18996,1,0,0:0:0:0:
64,192,19141,1,0,0:0:0:0:
320,192,19214,1,0,0:0:0:0:
64,192,19287,1,0,0:0:0:70:snare.wav
192,192,19287,1,0,0:0:0:0:
448,192,19432,1,0,0:0:0:70:kick.wav
64,192,19578,1,0,0:0:0:0:
448,192,19724,1,0,0:0:0:70:kick.wav
192,192,19869,1,0,0:0:0:0:
448,192,20015,1,0,0:0:0:70:kick.wav
64,192,20161,1,0,0:0:0:0:
448,192,20306,1,0,0:0:0:70:kick.wav
192,192,20379,1,0,0:0:0:70:kick.wav
320,192,20452,1,0,0:0:0:70:snare.wav
448,192,20452,1,0,0:0:0:0:
64,192,20597,1,0,0:0:0:70:kick.wav
192,192,20743,1,0,0:0:0:70:psst.ogg
448,192,20889,1,0,0:0:0:70:kick.wav
192,192,21034,1,0,0:0:0:70:kick.wav
320,192,21180,1,0,0:0:0:0:
64,192,21326,1,0,0:0:0:0:
448,192,21471,1,0,0:0:0:0:
192,192,21544,1,0,0:0:0:0:
320,192,21617,1,0,0:0:0:70:snare.wav
448,192,21617,1,0,0:0:0:0:
64,192,21763,1,0,0:0:0:70:kick.wav
448,192,21908,1,0,0:0:0:0:
64,192,22054,1,0,0:0:0:70:kick.wav
320,192,22199,1,0,0:0:0:0:
64,192,22345,1,0,0:0:0:70:kick.wav
448,192,22491,1,0,0:0:0:0:
64,192,22636,1,0,0:0:0:70:kick.wav
320,192,22709,1,0,0:0:0:70:kick.wav
64,192,22782,1,0,0:0:0:70:snare.wav
192,192,22782,1,0,0:0:0:0:
448,192,22928,1,0,0:0:0:70:kick.wav
192,192,23073,1,0,0:0:0:70:psst.ogg
448,192,23219,1,0,0:0:0:70:kick.wav
64,192,23364,1,0,0:0:0:70:kick.wav
192,192,23364,128,0,23510:0:0:0:70:cymbal.wav
448,192,23510,1,0,0:0:0:0:
64,192,23656,128,0,23801:0:0:0:0:
320,192,23801,1,0,0:0:0:0:
64,192,23947,1,0,0:0:0:70:snare.wav
448,192,23947,128,0,24093:0:0:0:0:
320,192,24093,1,0,0:0:0:70:kick.wav
192,192,24238,128,0,24384:0:0:0:0:
448,192,24384,128,0,24530:0:0:0:70:kick.wav
64,192,24530,1,0,0:0:0:0:
320,192,24675,128,0,24821:0:0:0:70:kick.wav
448,192,24821,1,0,0:0:0:0:
192,192,24966,128,0,25112:0:0:0:70:kick.wav
320,192,25039,1,0,0:0:0:70:kick.wav
64,192,25112,1,0,0:0:0:70:snare.wav
448,192,25112,1,0,0:0:0:0:
320,192,25258,128,0,25403:0:0:0:70:kick.wav
64,192,25403,1,0,0:0:0:70:psst.ogg
448,192,25549,128,0,25695:0:0:0:70:kick.wav
64,192,25695,128,0,25840:0:0:0:70:kick.wav
192,192,25840,1,0,0:0:0:0:
320,192,25986,128,0,26131:0:0:0:0:
448,192,26131,1,0,0:0:0:0:
320,192,26204,1,0,0:0:0:0:
64,192,26277,1,0,0:0:0:70:snare.wav
192,192,26277,128,0,26423:0:0:0:0:
448,192,26423,1,0,0:0:0:70:kick.wav
320,192,26568,128,0,26714:0:0:0:0:
64,192,26714,128,0,26860:0:0:0:70:kick.wav
192,192,26860,1,0,0:0:0:0:
448,192,27005,128,0,27151:0:0:0:70:kick.wav
320,192,27151,1,0,0:0:0:0:
64,192,27297,128,0,27442:0:0:0:70:kick.wav
320,192,27442,1,0,0:0:0:70:snare.wav
448,192,27442,1,0,0:0:0:0:
192,192,27515,1,0,0:0:0:0:
448,192,27588,1,0,0:0:0:0:
320,192,27661,1,0,0:0:0:0:
64,192,27733,1,0,0:0:0:70:psst.ogg
192,192,27806,1,0,0:0:0:0:
448,192,27879,1,0,0:0:0:70:kick.wav
320,192,27952,1,0,0:0:0:0:
64,192,28025,1,0,0:0:0:70:kick.wav
192,192,28025,1,0,0:0:0:70:cymbal.wav
448,192,28025,1,0,0:0:0:0:
320,192,28097,1,0,0:0:0:0:
64,192,28170,1,0,0:0:0:0:
320,192,28243,1,0,0:0:0:0:
64,192,28316,1,0,0:0:0:70:kick.wav
192,192,28316,1,0,0:0:0:0:
448,192,28389,1,0,0:0:0:0:
192,192,28462,1,0,0:0:0:0:
448,192,28534,1,0,0:0:0:0:
64,192,28607,1,0,0:0:0:70:kick.wav
320,192,28607,1,0,0:0:0:0:
192,192,28680,1,0,0:0:0:0:
448,192,28753,1,0,0:0:0:0:
64,192,28826,1,0,0:0:0:0:
320,192,28898,1,0,0:0:0:70:kick.wav
448,192,28898,1,0,0:0:0:0:
64,192,28971,1,0,0:0:0:0:
320,192,29044,1,0,0:0:0:0:
192,192,29117,1,0,0:0:0:0:
64,192,29190,1,0,0:0:0:70:kick.wav
448,192,29190,1,0,0:0:0:0:
320,192,29263,1,0,0:0:0:0:
448,192,29335,1,0,0:0:0:0:
64,192,29408,1,0,0:0:0:0:
192,192,29481,1,0,0:0:0:70:kick.wav
320,192,29481,1,0,0:0:0:0:
448,192,29554,1,0,0:0:0:0:
64,192,29627,1,0,0:0:0:0:
448,192,29699,1,0,0:0:0:0:
64,192,29772,1,0,0:0:0:70:kick.wav
320,192,29772,1,0,0:0:0:0:
192,192,29845,1,0,0:0:0:0:
448,192,29918,1,0,0:0:0:0:
64,192,29991,1,0,0:0:0:0:
320,192,30063,1,0,0:0:0:70:kick.wav
448,192,30063,1,0,0:0:0:0:
64,192,30136,1,0,0:0:0:0:
320,192,30209,1,0,0:0:0:0:
448,192,30282,1,0,0:0:0:0:
64,192,30355,1,0,0:0:0:70:kick.wav
192,192,30355,1,0,0:0:0:0:
448,192,30428,1,0,0:0:0:0:
192,192,30500,1,0,0:0:0:0:
64,192,30573,1,0,0:0:0:0:
320,192,30646,1,0,0:0:0:70:kick.wav
448,192,30646,1,0,0:0:0:0:
192,192,30719,1,0,0:0:0:0:
320,192,30792,1,0,0:0:0:0:
64,192,30864,1,0,0:0:0:0:
192,192,30937,1,0,0:0:0:70:kick.wav
448,192,30937,1,0,0:0:0:0:
64,192,31010,1,0,0:0:0:0:
448,192,31083,1,0,0:0:0:0:
192,192,31156,1,0,0:0:0:0:
320,192,31229,1,0,0:0:0:70:kick.wav
448,192,31229,1,0,0:0:0:0:
192,192,31301,1,0,0:0:0:0:
320,192,31374,1,0,0:0:0:0:
64,192,31447,1,0,0:0:0:0:
192,192,31520,1,0,0:0:0:70:kick.wav
448,192,31520,1,0,0:0:0:0:
64,192,31593,1,0,0:0:0:0:
320,192,31665,1,0,0:0:0:0:
448,192,31738,1,0,0:0:0:0:
64,192,31811,1,0,0:0:0:70:kick.wav
192,192,31811,1,0,0:0:0:0:
448,192,31884,1,0,0:0:0:0:
64,192,31957,1,0,0:0:0:0:
320,192,32030,1,0,0:0:0:0:
64,192,32102,1,0,0:0:0:70:kick.wav
192,192,32102,1,0,0:0:0:0:
448,192,32175,1,0,0:0:0:0:
192,192,32248,1,0,0:0:0:0:
448,192,32321,1,0,0:0:0:0:
64,192,32394,1,0,0:0:0:70:kick.wav
320,192,32394,1,0,0:0:0:0:
448,192,32466,1,0,0:0:0:0:
192,192,32539,1,0,0:0:0:0:
320,192,32612,1,0,0:0:0:0:
64,192,32685,1,0,0:0:0:70:kick.wav
192,192,32685,1,0,0:0:0:0:
448,192,32758,1,0,0:0:0:0:
64,192,32830,1,0,0:0:0:0:
448,192,32903,1,0,0:0:0:0:
192,192,32976,1,0,0:0:0:70:kick.wav
320,192,32976,1,0,0:0:0:0:
64,192,33049,1,0,0:0:0:0:
320,192,33122,1,0,0:0:0:0:
64,192,33195,1,0,0:0:0:0:
192,192,33267,1,0,0:0:0:70:kick.wav
448,192,33267,1,0,0:0:0:0:
320,192,33340,1,0,0:0:0:0:
64,192,33413,1,0,0:0:0:0:
448,192,33486,1,0,0:0:0:0:
192,192,33559,1,0,0:0:0:0:
448,192,33631,1,0,0:0:0:0:
64,192,33704,1,0,0:0:0:70:kick.wav
192,192,33704,1,0,0:0:0:70:cymbal.wav
320,192,33704,1,0,0:0:0:0:
64,192,33971,1,0,0:0:0:0:
320,192,34232,128,0,35015:0:0:0:0:
64,192,35015,1,0,0:0:0:70:kick.wav
448,192,35015,1,0,0:0:0:0:
192,192,35088,1,0,0:0:0:0:
64,192,35161,1,0,0:0:0:0:
448,192,35233,1,0,0:0:0:0:
192,192,35306,1,0,0:0:0:70:kick.wav
320,192,35306,1,0,0:0:0:0:
448,192,35379,1,0,0:0:0:0:
64,192,35452,1,0,0:0:0:0:
192,192,35525,1,0,0:0:0:0:
320,192,35597,1,0,0:0:0:70:kick.wav
448,192,35597,1,0,0:0:0:0:
192,192,35670,1,0,0:0:0:0:
320,192,35743,1,0,0:0:0:0:
64,192,35816,1,0,0:0:0:0:
448,192,35889,1,0,0:0:0:0:
320,192,35962,1,0,0:0:0:0:
64,192,36034,1,0,0:0:0:70:kick.wav
192,192,36034,1,0,0:0:0:70:cymbal.wav
448,192,36034,1,0,0:0:0:0:
192,192,36301,1,0,0:0:0:0:
448,192,36562,128,0,37345:0:0:0:0:
192,192,36908,1,0,0:0:0:0:
320,192,37054,128,0,37345:0:0:0:0:
64,192,37345,1,0,0:0:0:30:cymbal.wav
64,192,37491,1,0,0:0:0:40:amenbreak_kick.wav
320,192,37636,1,0,0:0:0:40:amenbreak_snare.wav
192,192,37855,1,0,0:0:0:40:amenbreak_hat.wav
448,192,37928,1,0,0:0:0:0:
64,192,38073,1,0,0:0:0:40:amenbreak_kick.wav
320,192,38073,1,0,0:0:0:0:
64,192,38219,1,0,0:0:0:40:amenbreak_snare.wav
448,192,38219,1,0,0:0:0:0:
320,192,38364,1,0,0:0:0:0:
448,192,38437,1,0,0:0:0:40:amenbreak_hat.wav
64,192,38510,1,0,0:0:0:55:amenbreak_kick.wav
192,192,38510,1,0,0:0:0:0:
64,192,38656,1,0,0:0:0:55:amenbreak_kick.wav
192,192,38656,1,0,0:0:0:0:
320,192,38801,1,0,0:0:0:55:amenbreak_snare.wav
448,192,38801,1,0,0:0:0:0:
192,192,39020,1,0,0:0:0:55:amenbreak_hat.wav
448,192,39093,1,0,0:0:0:0:
64,192,39165,1,0,0:0:0:55:amenbreak_hat.wav
320,192,39238,1,0,0:0:0:55:amenbreak_kick.wav
448,192,39238,1,0,0:0:0:0:
64,192,39384,1,0,0:0:0:55:amenbreak_snare.wav
192,192,39384,1,0,0:0:0:0:
320,192,39384,1,0,0:0:0:0:
64,192,39675,1,0,0:0:0:70:cymbal.wav
320,192,39675,1,0,0:0:0:70:amenbreak_kick.wav
448,192,39675,1,0,0:0:0:0:
192,192,39821,1,0,0:0:0:70:amenbreak_kick.wav
320,192,39821,1,0,0:0:0:0:
64,192,39966,1,0,0:0:0:70:amenbreak_snare.wav
192,192,39966,1,0,0:0:0:0:
448,192,39966,1,0,0:0:0:0:
320,192,40112,1,0,0:0:0:0:
192,192,40185,1,0,0:0:0:70:amenbreak_hat.wav
448,192,40258,1,0,0:0:0:0:
320,192,40330,1,0,0:0:0:70:amenbreak_hat.wav
64,192,40403,1,0,0:0:0:70:amenbreak_kick.wav
448,192,40403,1,0,0:0:0:0:
64,192,40549,1,0,0:0:0:70:amenbreak_snare.wav
192,192,40549,1,0,0:0:0:0:
320,192,40549,1,0,0:0:0:0:
192,192,40695,1,0,0:0:0:0:
448,192,40767,1,0,0:0:0:70:amenbreak_hat.wav
64,192,40840,1,0,0:0:0:70:amenbreak_kick.wav
320,192,40840,1,0,0:0:0:0:
192,192,40986,1,0,0:0:0:70:amenbreak_kick.wav
448,192,40986,1,0,0:0:0:0:
64,192,41131,1,0,0:0:0:70:amenbreak_snare.wav
320,192,41131,1,0,0:0:0:0:
448,192,41131,1,0,0:0:0:0:
192,192,41277,1,0,0:0:0:0:
320,192,41350,1,0,0:0:0:70:amenbreak_hat.wav
64,192,41423,1,0,0:0:0:0:
192,192,41496,1,0,0:0:0:70:amenbreak_hat.wav
64,192,41568,1,0,0:0:0:70:amenbreak_kick.wav
448,192,41568,1,0,0:0:0:0:
64,192,41714,1,0,0:0:0:70:amenbreak_snare.wav
192,192,41714,1,0,0:0:0:0:
320,192,41714,1,0,0:0:0:0:
320,192,41860,1,0,0:0:0:0:
192,192,41932,1,0,0:0:0:70:amenbreak_hat.wav
64,192,42005,1,0,0:0:0:70:amenbreak_kick.wav
448,192,42005,1,0,0:0:0:0:
64,192,42151,1,0,0:0:0:70:amenbreak_kick.wav
320,192,42151,1,0,0:0:0:0:
192,192,42297,1,0,0:0:0:70:amenbreak_snare.wav
320,192,42297,1,0,0:0:0:0:
448,192,42297,1,0,0:0:0:0:
64,192,42442,1,0,0:0:0:0:
320,192,42515,1,0,0:0:0:70:amenbreak_hat.wav
192,192,42588,1,0,0:0:0:0:
448,192,42661,1,0,0:0:0:70:amenbreak_hat.wav
64,192,42733,1,0,0:0:0:70:amenbreak_kick.wav
320,192,42733,1,0,0:0:0:0:
64,192,42879,1,0,0:0:0:70:amenbreak_snare.wav
192,192,42879,1,0,0:0:0:0:
448,192,42879,1,0,0:0:0:0:
192,192,43025,1,0,0:0:0:0:
448,192,43097,1,0,0:0:0:70:amenbreak_hat.wav
64,192,43170,1,0,0:0:0:70:amenbreak_kick.wav
320,192,43170,1,0,0:0:0:0:
192,192,43316,1,0,0:0:0:70:amenbreak_kick.wav
320,192,43316,1,0,0:0:0:0:
64,192,43462,1,0,0:0:0:70:amenbreak_snare.wav
192,192,43462,1,0,0:0:0:0:
448,192,43462,1,0,0:0:0:0:
320,192,43607,1,0,0:0:0:0:
64,192,43680,1,0,0:0:0:70:amenbreak_hat.wav
192,192,43753,1,0,0:0:0:0:
448,192,43826,1,0,0:0:0:70:amenbreak_hat.wav
64,192,43898,1,0,0:0:0:70:amenbreak_kick.wav
320,192,43898,1,0,0:0:0:0:
64,192,44044,1,0,0:0:0:70:amenbreak_snare.wav
192,192,44044,1,0,0:0:0:0:
448,192,44044,1,0,0:0:0:0:
192,192,44190,1,0,0:0:0:0:
320,192,44263,1,0,0:0:0:70:amenbreak_hat.wav
64,192,44335,1,0,0:0:0:70:amenbreak_kick.wav
448,192,44335,1,0,0:0:0:0:
192,192,44481,1,0,0:0:0:70:amenbreak_kick.wav
448,192,44481,1,0,0:0:0:0:
64,192,44627,1,0,0:0:0:70:amenbreak_snare.wav
192,192,44627,1,0,0:0:0:0:
320,192,44627,1,0,0:0:0:0:
448,192,44772,1,0,0:0:0:0:
320,192,44845,1,0,0:0:0:70:amenbreak_hat.wav
64,192,44918,1,0,0:0:0:0:
192,192,44991,1,0,0:0:0:70:amenbreak_hat.wav
64,192,45063,1,0,0:0:0:70:amenbreak_kick.wav
448,192,45063,1,0,0:0:0:0:
192,192,45209,1,0,0:0:0:70:amenbreak_snare.wav
320,192,45209,1,0,0:0:0:0:
448,192,45209,1,0,0:0:0:0:
192,192,45355,1,0,0:0:0:0:
448,192,45428,1,0,0:0:0:70:amenbreak_hat.wav
64,192,45500,1,0,0:0:0:70:amenbreak_kick.wav
320,192,45500,1,0,0:0:0:0:
192,192,45646,1,0,0:0:0:70:amenbreak_kick.wav
320,192,45646,1,0,0:0:0:0:
64,192,45792,1,0,0:0:0:70:amenbreak_snare.wav
192,192,45792,1,0,0:0:0:0:
448,192,45792,1,0,0:0:0:0:
320,192,45937,1,0,0:0:0:0:
192,192,46010,1,0,0:0:0:70:amenbreak_hat.wav
448,192,46083,1,0,0:0:0:0:
320,192,46156,1,0,0:0:0:70:amenbreak_hat.wav
64,192,46229,1,0,0:0:0:70:amenbreak_kick.wav
448,192,46229,1,0,0:0:0:0:
64,192,46374,1,0,0:0:0:70:amenbreak_snare.wav
192,192,46374,1,0,0:0:0:0:
320,192,46374,1,0,0:0:0:0:
192,192,46520,1,0,0:0:0:0:
448,192,46593,1,0,0:0:0:70:amenbreak_hat.wav
64,192,46665,1,0,0:0:0:70:amenbreak_kick.wav
320,192,46665,1,0,0:0:0:0:
192,192,46811,1,0,0:0:0:70:amenbreak_kick.wav
320,192,46811,1,0,0:0:0:0:
64,192,46957,1,0,0:0:0:70:amenbreak_snare.wav
192,192,46957,1,0,0:0:0:0:
448,192,46957,1,0,0:0:0:0:
320,192,47102,1,0,0:0:0:0:
192,192,47175,1,0,0:0:0:70:amenbreak_hat.wav
448,192,47248,1,0,0:0:0:0:
192,192,47321,1,0,0:0:0:70:amenbreak_hat.wav
64,192,47394,1,0,0:0:0:70:amenbreak_kick.wav
320,192,47394,1,0,0:0:0:0:
64,192,47539,1,0,0:0:0:70:amenbreak_snare.wav
192,192,47539,1,0,0:0:0:0:
448,192,47539,1,0,0:0:0:0:
192,192,47685,1,0,0:0:0:0:
320,192,47758,1,0,0:0:0:70:amenbreak_hat.wav
64,192,47830,1,0,0:0:0:70:amenbreak_kick.wav
448,192,47830,1,0,0:0:0:0:
192,192,47976,1,0,0:0:0:70:amenbreak_kick.wav
448,192,47976,1,0,0:0:0:0:
64,192,48122,1,0,0:0:0:70:amenbreak_snare.wav
192,192,48122,1,0,0:0:0:0:
320,192,48122,1,0,0:0:0:0:
448,192,48267,1,0,0:0:0:0:
192,192,48340,1,0,0:0:0:70:amenbreak_hat.wav
320,192,48413,1,0,0:0:0:0:
64,192,48486,1,0,0:0:0:70:amenbreak_hat.wav
192,192,48559,1,0,0:0:0:70:amenbreak_kick.wav
448,192,48559,1,0,0:0:0:0:
64,192,48704,1,0,0:0:0:70:amenbreak_snare.wav
320,192,48704,1,0,0:0:0:0:
448,192,48704,1,0,0:0:0:0:
192,192,48850,1,0,0:0:0:0:
320,192,48923,1,0,0:0:0:70:amenbreak_hat.wav
64,192,48996,1,0,0:0:0:70:cymbal.wav
192,192,48996,1,0,0:0:0:70:amenbreak_snare.wav
448,192,48996,1,0,0:0:0:0:
448,192,49141,1,0,0:0:0:0:
64,192,49287,1,0,0:0:0:70:amenbreak_kick.wav
192,192,49287,1,0,0:0:0:0:
64,192,49432,1,0,0:0:0:70:amenbreak_kick.wav
320,192,49432,1,0,0:0:0:0:
192,192,49578,1,0,0:0:0:70:amenbreak_snare.wav
320,192,49578,1,0,0:0:0:0:
448,192,49578,1,0,0:0:0:0:
64,192,49724,1,0,0:0:0:0:
448,192,49797,1,0,0:0:0:70:amenbreak_hat.wav
64,192,49869,1,0,0:0:0:70:amenbreak_snare.wav
192,192,49869,1,0,0:0:0:0:
320,192,49869,1,0,0:0:0:0:
192,192,50015,1,0,0:0:0:0:
448,192,50088,1,0,0:0:0:70:amenbreak_hat.wav
64,192,50161,1,0,0:0:0:70:amenbreak_kick.wav
320,192,50161,1,0,0:0:0:0:
192,192,50306,1,0,0:0:0:70:amenbreak_kick.wav
320,192,50306,1,0,0:0:0:0:
64,192,50452,1,0,0:0:0:70:amenbreak_snare.wav
192,192,50452,1,0,0:0:0:0:
448,192,50452,1,0,0:0:0:0:
320,192,50597,1,0,0:0:0:0:
64,192,50670,1,0,0:0:0:70:amenbreak_hat.wav
192,192,50743,1,0,0:0:0:70:amenbreak_snare.wav
320,192,50743,1,0,0:0:0:0:
448,192,50743,1,0,0:0:0:0:
192,192,50889,1,0,0:0:0:0:
320,192,50962,1,0,0:0:0:70:amenbreak_hat.wav
64,192,51034,1,0,0:0:0:70:amenbreak_kick.wav
448,192,51034,1,0,0:0:0:0:
64,192,51180,1,0,0:0:0:70:amenbreak_kick.wav
320,192,51180,1,0,0:0:0:0:
192,192,51326,1,0,0:0:0:70:amenbreak_snare.wav
320,192,51326,1,0,0:0:0:0:
448,192,51326,1,0,0:0:0:0:
64,192,51471,1,0,0:0:0:0:
448,192,51544,1,0,0:0:0:70:amenbreak_hat.wav
64,192,51617,1,0,0:0:0:70:amenbreak_snare.wav
192,192,51617,1,0,0:0:0:0:
320,192,51617,1,0,0:0:0:0:
448,192,51763,1,0,0:0:0:0:
192,192,51835,1,0,0:0:0:70:amenbreak_hat.wav
320,192,51908,1,0,0:0:0:0:
64,192,51981,1,0,0:0:0:70:amenbreak_hat.wav
192,192,52054,1,0,0:0:0:70:amenbreak_kick.wav
448,192,52054,1,0,0:0:0:0:
64,192,52199,1,0,0:0:0:70:amenbreak_snare.wav
192,192,52199,1,0,0:0:0:0:
320,192,52199,1,0,0:0:0:0:
448,192,52345,1,0,0:0:0:0:
192,192,52418,1,0,0:0:0:70:amenbreak_hat.wav
320,192,52491,1,0,0:0:0:70:amenbreak_kick.wav
448,192,52491,1,0,0:0:0:0:
64,192,52636,1,0,0:0:0:70:amenbreak_kick.wav
320,192,52636,1,0,0:0:0:0:
64,192,52782,1,0,0:0:0:70:amenbreak_snare.wav
192,192,52782,1,0,0:0:0:0:
448,192,52782,1,0,0:0:0:0:
320,192,52928,1,0,0:0:0:0:
64,192,53000,1,0,0:0:0:70:amenbreak_hat.wav
192,192,53073,1,0,0:0:0:70:amenbreak_kick.wav
448,192,53073,1,0,0:0:0:0:
192,192,53219,1,0,0:0:0:70:amenbreak_kick.wav
320,192,53219,1,0,0:0:0:0:
64,192,53364,1,0,0:0:0:70:amenbreak_snare.wav
320,192,53364,1,0,0:0:0:0:
448,192,53364,1,0,0:0:0:0:
192,192,53510,1,0,0:0:0:0:
320,192,53583,1,0,0:0:0:70:amenbreak_hat.wav
64,192,53656,1,0,0:0:0:70:cymbal.wav
192,192,53656,1,0,0:0:0:70:amenbreak_snare.wav
448,192,53656,1,0,0:0:0:0:
64,192,53801,1,0,0:0:0:0:
192,192,53947,1,0,0:0:0:70:amenbreak_kick.wav
448,192,53947,1,0,0:0:0:0:
192,192,54093,1,0,0:0:0:70:amenbreak_kick.wav
320,192,54093,1,0,0:0:0:0:
64,192,54238,1,0,0:0:0:70:amenbreak_snare.wav
320,192,54238,1,0,0:0:0:0:
448,192,54238,1,0,0:0:0:0:
192,192,54384,1,0,0:0:0:0:
448,192,54457,1,0,0:0:0:70:amenbreak_hat.wav
64,192,54530,1,0,0:0:0:70:amenbreak_snare.wav
192,192,54530,1,0,0:0:0:0:
320,192,54530,1,0,0:0:0:0:
320,192,54675,1,0,0:0:0:0:
64,192,54748,1,0,0:0:0:70:amenbreak_hat.wav
192,192,54821,1,0,0:0:0:70:amenbreak_kick.wav
448,192,54821,1,0,0:0:0:0:
64,192,54966,1,0,0:0:0:70:amenbreak_kick.wav
448,192,54966,1,0,0:0:0:0:
64,192,55112,1,0,0:0:0:70:amenbreak_snare.wav
192,192,55112,1,0,0:0:0:0:
320,192,55112,1,0,0:0:0:0:
448,192,55258,1,0,0:0:0:0:
320,192,55330,1,0,0:0:0:70:amenbreak_hat.wav
64,192,55403,1,0,0:0:0:70:amenbreak_snare.wav
192,192,55403,1,0,0:0:0:0:
448,192,55403,1,0,0:0:0:0:
320,192,55549,1,0,0:0:0:0:
64,192,55622,1,0,0:0:0:70:amenbreak_hat.wav
192,192,55695,1,0,0:0:0:70:amenbreak_kick.wav
448,192,55695,1,0,0:0:0:0:
192,192,55840,1,0,0:0:0:70:amenbreak_kick.wav
320,192,55840,1,0,0:0:0:0:
64,192,55986,1,0,0:0:0:70:amenbreak_snare.wav
320,192,55986,1,0,0:0:0:0:
448,192,55986,1,0,0:0:0:0:
192,192,56131,1,0,0:0:0:0:
448,192,56204,1,0,0:0:0:70:amenbreak_hat.wav
64,192,56277,1,0,0:0:0:70:amenbreak_snare.wav
192,192,56277,1,0,0:0:0:0:
320,192,56277,1,0,0:0:0:0:
448,192,56423,1,0,0:0:0:0:
192,192,56496,1,0,0:0:0:70:amenbreak_hat.wav
320,192,56568,1,0,0:0:0:0:
64,192,56641,1,0,0:0:0:70:amenbreak_hat.wav
192,192,56714,1,0,0:0:0:70:amenbreak_kick.wav
448,192,56714,1,0,0:0:0:0:
64,192,56860,1,0,0:0:0:70:amenbreak_snare.wav
320,192,56860,1,0,0:0:0:0:
448,192,56860,1,0,0:0:0:0:
192,192,57005,1,0,0:0:0:0:
320,192,57078,1,0,0:0:0:70:amenbreak_hat.wav
64,192,57151,1,0,0:0:0:70:amenbreak_kick.wav
192,192,57151,1,0,0:0:0:0:
64,192,57297,1,0,0:0:0:70:amenbreak_kick.wav
448,192,57297,1,0,0:0:0:0:
192,192,57442,1,0,0:0:0:70:amenbreak_snare.wav
320,192,57442,1,0,0:0:0:0:
448,192,57442,1,0,0:0:0:0:
64,192,57588,1,0,0:0:0:0:
320,192,57661,1,0,0:0:0:70:amenbreak_hat.wav
64,192,57733,1,0,0:0:0:70:amenbreak_kick.wav
192,192,57733,1,0,0:0:0:0:
192,192,57879,1,0,0:0:0:70:amenbreak_kick.wav
448,192,57879,1,0,0:0:0:0:
64,192,58025,1,0,0:0:0:70:amenbreak_snare.wav
320,192,58025,1,0,0:0:0:0:
448,192,58025,1,0,0:0:0:0:
192,192,58170,1,0,0:0:0:0:
320,192,58243,1,0,0:0:0:70:amenbreak_hat.wav
64,192,58316,1,0,0:0:0:70:kick.wav
192,192,58316,1,0,0:0:0:70:cymbal.wav
448,192,58316,1,0,0:0:0:0:
192,192,58607,1,0,0:0:0:0:
448,192,58753,1,0,0:0:0:0:
192,192,58826,1,0,0:0:0:0:
320,192,58898,1,0,0:0:0:70:snare.wav
448,192,58898,1,0,0:0:0:0:
64,192,59044,1,0,0:0:0:70:kick.wav
448,192,59190,1,0,0:0:0:0:
64,192,59335,1,0,0:0:0:70:kick.wav
320,192,59481,1,0,0:0:0:0:
64,192,59627,1,0,0:0:0:70:kick.wav
448,192,59772,1,0,0:0:0:0:
64,192,59918,1,0,0:0:0:70:kick.wav
320,192,59991,1,0,0:0:0:70:kick.wav
64,192,60063,1,0,0:0:0:70:snare.wav
192,192,60063,1,0,0:0:0:0:
448,192,60209,1,0,0:0:0:70:kick.wav
320,192,60355,1,0,0:0:0:70:psst.ogg
64,192,60500,1,0,0:0:0:70:kick.wav
320,192,60646,1,0,0:0:0:70:kick.wav
192,192,60792,1,0,0:0:0:0:
448,192,60937,1,0,0:0:0:0:
64,192,61083,1,0,0:0:0:0:
320,192,61156,1,0,0:0:0:0:
64,192,61229,1,0,0:0:0:70:snare.wav
192,192,61229,1,0,0:0:0:0:
448,192,61374,1,0,0:0:0:70:kick.wav
64,192,61520,1,0,0:0:0:0:
448,192,61665,1,0,0:0:0:70:kick.wav
192,192,61811,1,0,0:0:0:0:
448,192,61957,1,0,0:0:0:70:kick.wav
64,192,62102,1,0,0:0:0:0:
448,192,62248,1,0,0:0:0:70:kick.wav
192,192,62321,1,0,0:0:0:70:kick.wav
320,192,62394,1,0,0:0:0:70:snare.wav
448,192,62394,1,0,0:0:0:0:
64,192,62539,1,0,0:0:0:70:kick.wav
320,192,62685,1,0,0:0:0:70:psst.ogg
192,192,62830,1,0,0:0:0:70:kick.wav
320,192,62976,128,0,63122:0:0:0:70:kick.wav
448,192,62976,1,0,0:0:0:70:cymbal.wav
64,192,63122,1,0,0:0:0:0:
448,192,63267,128,0,63413:0:0:0:0:
192,192,63413,1,0,0:0:0:0:
64,192,63559,128,0,63704:0:0:0:70:snare.wav
448,192,63559,1,0,0:0:0:0:
192,192,63704,1,0,0:0:0:70:kick.wav
320,192,63850,128,0,63996:0:0:0:0:
64,192,63996,128,0,64141:0:0:0:70:kick.wav
448,192,64141,1,0,0:0:0:0:
192,192,64287,128,0,64432:0:0:0:70:kick.wav
64,192,64432,1,0,0:0:0:0:
320,192,64578,128,0,64724:0:0:0:70:kick.wav
192,192,64651,1,0,0:0:0:70:kick.wav
64,192,64724,1,0,0:0:0:70:snare.wav
448,192,64724,1,0,0:0:0:0:
192,192,64869,128,0,65015:0:0:0:70:kick.wav
448,192,65015,1,0,0:0:0:70:psst.ogg
64,192,65161,128,0,65306:0:0:0:70:kick.wav
448,192,65306,128,0,65452:0:0:0:70:kick.wav
320,192,65452,1,0,0:0:0:0:
192,192,65597,128,0,65743:0:0:0:0:
64,192,65743,1,0,0:0:0:0:
320,192,65889,128,0,66034:0:0:0:70:snare.wav
448,192,65889,1,0,0:0:0:0:
64,192,66034,1,0,0:0:0:70:kick.wav
192,192,66180,128,0,66326:0:0:0:0:
448,192,66326,128,0,66471:0:0:0:70:kick.wav
320,192,66471,1,0,0:0:0:0:
64,192,66617,128,0,66908:0:0:0:70:kick.wav
320,192,66763,1,0,0:0:0:0:
192,192,66908,1,0,0:0:0:70:kick.wav
320,192,67054,1,0,0:0:0:70:snare.wav
448,192,67054,1,0,0:0:0:0:
192,192,67127,1,0,0:0:0:0:
448,192,67199,1,0,0:0:0:0:
320,192,67272,1,0,0:0:0:0:
64,192,67345,1,0,0:0:0:70:psst.ogg
192,192,67418,1,0,0:0:0:0:
448,192,67491,1,0,0:0:0:70:kick.wav
320,192,67563,1,0,0:0:0:0:
64,192,67636,1,0,0:0:0:70:kick.wav
192,192,67636,1,0,0:0:0:70:cymbal.wav
448,192,67636,1,0,0:0:0:0:
320,192,67709,1,0,0:0:0:0:
64,192,67782,1,0,0:0:0:0:
320,192,67855,1,0,0:0:0:0:
64,192,67928,1,0,0:0:0:70:kick.wav
192,192,67928,1,0,0:0:0:0:
448,192,68000,1,0,0:0:0:0:
320,192,68073,1,0,0:0:0:0:
64,192,68146,1,0,0:0:0:0:
192,192,68219,1,0,0:0:0:70:kick.wav
448,192,68219,1,0,0:0:0:0:
64,192,68292,1,0,0:0:0:0:
448,192,68364,1,0,0:0:0:0:
192,192,68437,1,0,0:0:0:0:
320,192,68510,1,0,0:0:0:70:kick.wav
448,192,68510,1,0,0:0:0:0:
64,192,68583,1,0,0:0:0:0:
192,192,68656,1,0,0:0:0:0:
448,192,68729,1,0,0:0:0:0:
192,192,68801,1,0,0:0:0:70:kick.wav
320,192,68801,1,0,0:0:0:0:
64,192,68874,1,0,0:0:0:0:
320,192,68947,1,0,0:0:0:0:
64,192,69020,1,0,0:0:0:0:
192,192,69093,1,0,0:0:0:70:kick.wav
320,192,69093,1,0,0:0:0:0:
448,192,69165,1,0,0:0:0:0:
192,192,69238,1,0,0:0:0:0:
448,192,69311,1,0,0:0:0:0:
64,192,69384,1,0,0:0:0:70:kick.wav
192,192,69384,1,0,0:0:0:0:
448,192,69457,1,0,0:0:0:0:
320,192,69530,1,0,0:0:0:0:
64,192,69602,1,0,0:0:0:0:
320,192,69675,1,0,0:0:0:70:kick.wav
448,192,69675,1,0,0:0:0:0:
192,192,69748,1,0,0:0:0:0:
448,192,69821,1,0,0:0:0:0:
64,192,69894,1,0,0:0:0:0:
192,192,69966,1,0,0:0:0:70:kick.wav
320,192,69966,1,0,0:0:0:0:
64,192,70039,1,0,0:0:0:0:
192,192,70112,1,0,0:0:0:0:
448,192,70185,1,0,0:0:0:0:
192,192,70258,1,0,0:0:0:70:kick.wav
320,192,70258,1,0,0:0:0:0:
448,192,70330,1,0,0:0:0:0:
64,192,70403,1,0,0:0:0:0:
320,192,70476,1,0,0:0:0:0:
64,192,70549,1,0,0:0:0:70:kick.wav
192,192,70549,1,0,0:0:0:0:
448,192,70622,1,0,0:0:0:0:
320,192,70695,1,0,0:0:0:0:
64,192,70767,1,0,0:0:0:0:
192,192,70840,1,0,0:0:0:70:kick.wav
448,192,70840,1,0,0:0:0:0:
64,192,70913,1,0,0:0:0:0:
320,192,70986,1,0,0:0:0:0:
192,192,71059,1,0,0:0:0:0:
320,192,71131,1,0,0:0:0:70:kick.wav
448,192,71131,1,0,0:0:0:0:
192,192,71204,1,0,0:0:0:0:
448,192,71277,1,0,0:0:0:0:
320,192,71350,1,0,0:0:0:0:
64,192,71423,1,0,0:0:0:70:kick.wav
192,192,71423,1,0,0:0:0:0:
448,192,71496,1,0,0:0:0:0:
64,192,71568,1,0,0:0:0:0:
320,192,71641,1,0,0:0:0:0:
64,192,71714,1,0,0:0:0:70:kick.wav
192,192,71714,1,0,0:0:0:0:
448,192,71787,1,0,0:0:0:0:
192,192,71860,1,0,0:0:0:0:
448,192,71932,1,0,0:0:0:0:
64,192,72005,1,0,0:0:0:70:kick.wav
320,192,72005,1,0,0:0:0:0:
448,192,72078,1,0,0:0:0:0:
192,192,72151,1,0,0:0:0:0:
320,192,72224,1,0,0:0:0:0:
64,192,72297,1,0,0:0:0:70:kick.wav
192,192,72297,1,0,0:0:0:0:
448,192,72369,1,0,0:0:0:0:
64,192,72442,1,0,0:0:0:0:
448,192,72515,1,0,0:0:0:0:
192,192,72588,1,0,0:0:0:70:kick.wav
320,192,72588,1,0,0:0:0:0:
64,192,72661,1,0,0:0:0:0:
320,192,72733,1,0,0:0:0:0:
64,192,72806,1,0,0:0:0:0:
192,192,72879,1,0,0:0:0:70:kick.wav
448,192,72879,1,0,0:0:0:0:
320,192,72952,1,0,0:0:0:0:
64,192,73025,1,0,0:0:0:0:
448,192,73097,1,0,0:0:0:0:
192,192,73170,1,0,0:0:0:0:
448,192,73243,1,0,0:0:0:0:
64,192,73316,1,0,0:0:0:70:kick.wav
192,192,73316,1,0,0:0:0:70:cymbal.wav
320,192,73316,1,0,0:0:0:0:
64,192,73583,1,0,0:0:0:0:
320,192,73844,128,0,74627:0:0:0:0:
64,192,74627,1,0,0:0:0:70:kick.wav
448,192,74627,1,0,0:0:0:0:
192,192,74699,1,0,0:0:0:0:
64,192,74772,1,0,0:0:0:0:
448,192,74845,1,0,0:0:0:0:
192,192,74918,1,0,0:0:0:70:kick.wav
320,192,74918,1,0,0:0:0:0:
448,192,74991,1,0,0:0:0:0:
64,192,75063,1,0,0:0:0:0:
192,192,75136,1,0,0:0:0:0:
320,192,75209,1,0,0:0:0:70:kick.wav
448,192,75209,1,0,0:0:0:0:
192,192,75282,1,0,0:0:0:0:
320,192,75355,1,0,0:0:0:0:
64,192,75428,1,0,0:0:0:0:
448,192,75500,1,0,0:0:0:0:
320,192,75573,1,0,0:0:0:0:
64,192,75646,1,0,0:0:0:70:kick.wav
192,192,75646,1,0,0:0:0:70:cymbal.wav
448,192,75646,1,0,0:0:0:0:
192,192,75913,1,0,0:0:0:0:
448,192,76174,128,0,76811:0:0:0:0:
320,192,76520,128,0,76957:0:0:0:0:
64,192,76957,1,0,0:0:0:30:cymbal.wav
64,192,77102,1,0,0:0:0:40:amenbreak_kick.wav
320,192,77248,1,0,0:0:0:40:amenbreak_snare.wav
192,192,77466,1,0,0:0:0:40:amenbreak_hat.wav
448,192,77539,1,0,0:0:0:0:
64,192,77685,1,0,0:0:0:40:amenbreak_kick.wav
320,192,77685,1,0,0:0:0:0:
64,192,77830,1,0,0:0:0:40:amenbreak_snare.wav
448,192,77830,1,0,0:0:0:0:
320,192,77976,1,0,0:0:0:0:
448,192,78049,1,0,0:0:0:40:amenbreak_hat.wav
64,192,78122,1,0,0:0:0:55:amenbreak_kick.wav
192,192,78122,1,0,0:0:0:0:
64,192,78267,1,0,0:0:0:55:amenbreak_kick.wav
192,192,78267,1,0,0:0:0:0:
320,192,78413,1,0,0:0:0:55:amenbreak_snare.wav
448,192,78413,1,0,0:0:0:0:
192,192,78631,1,0,0:0:0:55:amenbreak_hat.wav
448,192,78704,1,0,0:0:0:0:
64,192,78777,1,0,0:0:0:55:amenbreak_hat.wav
320,192,78850,1,0,0:0:0:55:amenbreak_kick.wav
448,192,78850,1,0,0:0:0:0:
64,192,78996,1,0,0:0:0:55:amenbreak_snare.wav
192,192,78996,1,0,0:0:0:0:
320,192,78996,1,0,0:0:0:0:
64,192,79287,1,0,0:0:0:70:kick.wav
320,192,79287,1,0,0:0:0:70:cymbal.wav
448,192,79287,1,0,0:0:0:0:
64,192,79578,1,0,0:0:0:0:
448,192,79869,1,0,0:0:0:0:
192,192,80161,1,0,0:0:0:0:
448,192,80306,1,0,0:0:0:0:
320,192,80597,1,0,0:0:0:0:
64,192,80889,1,0,0:0:0:0:
448,192,81034,1,0,0:0:0:0:
192,192,81326,1,0,0:0:0:0:
64,192,81617,1,0,0:0:0:0:
448,192,81908,1,0,0:0:0:0:
192,192,82054,1,0,0:0:0:0:
320,192,82199,1,0,0:0:0:0:
64,192,82491,1,0,0:0:0:0:
320,192,82636,1,0,0:0:0:0:
192,192,82928,1,0,0:0:0:0:
448,192,83219,1,0,0:0:0:0:
64,192,83364,1,0,0:0:0:0:
320,192,83437,1,0,0:0:0:0:
64,192,83510,1,0,0:0:0:0:
192,192,83583,1,0,0:0:0:0:
448,192,83656,1,0,0:0:0:0:
320,192,83729,1,0,0:0:0:0:
64,192,83801,1,0,0:0:0:0:
192,192,83874,1,0,0:0:0:0:
64,192,83947,1,0,0:0:0:70:cymbal.wav
320,192,83947,1,0,0:0:0:70:amenbreak_kick.wav
448,192,83947,1,0,0:0:0:0:
192,192,84093,1,0,0:0:0:70:amenbreak_kick.wav
320,192,84093,1,0,0:0:0:0:
64,192,84238,1,0,0:0:0:70:amenbreak_snare.wav
192,192,84238,1,0,0:0:0:0:
448,192,84238,1,0,0:0:0:0:
320,192,84384,1,0,0:0:0:0:
192,192,84457,1,0,0:0:0:70:amenbreak_hat.wav
448,192,84530,1,0,0:0:0:0:
320,192,84602,1,0,0:0:0:70:amenbreak_hat.wav
64,192,84675,1,0,0:0:0:70:amenbreak_kick.wav
448,192,84675,1,0,0:0:0:0:
64,192,84821,1,0,0:0:0:70:amenbreak_snare.wav
192,192,84821,1,0,0:0:0:0:
320,192,84821,1,0,0:0:0:0:
192,192,84966,1,0,0:0:0:0:
448,192,85039,1,0,0:0:0:70:amenbreak_hat.wav
64,192,85112,1,0,0:0:0:70:amenbreak_kick.wav
320,192,85112,1,0,0:0:0:0:
192,192,85258,1,0,0:0:0:70:amenbreak_kick.wav
320,192,85258,1,0,0:0:0:0:
64,192,85403,1,0,0:0:0:70:amenbreak_snare.wav
192,192,85403,1,0,0:0:0:0:
448,192,85403,1,0,0:0:0:0:
320,192,85549,1,0,0:0:0:0:
64,192,85622,1,0,0:0:0:70:amenbreak_hat.wav
448,192,85695,1,0,0:0:0:0:
192,192,85767,1,0,0:0:0:70:amenbreak_hat.wav
320,192,85840,1,0,0:0:0:70:amenbreak_kick.wav
448,192,85840,1,0,0:0:0:0:
64,192,85986,1,0,0:0:0:70:amenbreak_snare.wav
192,192,85986,1,0,0:0:0:0:
320,192,85986,1,0,0:0:0:0:
192,192,86131,1,0,0:0:0:0:
64,192,86204,1,0,0:0:0:70:amenbreak_hat.wav
320,192,86277,1,0,0:0:0:70:amenbreak_kick.wav
448,192,86277,1,0,0:0:0:0:
192,192,86423,1,0,0:0:0:70:amenbreak_kick.wav
448,192,86423,1,0,0:0:0:0:
64,192,86568,1,0,0:0:0:70:amenbreak_snare.wav
192,192,86568,1,0,0:0:0:0:
320,192,86568,1,0,0:0:0:0:
448,192,86714,1,0,0:0:0:0:
320,192,86787,1,0,0:0:0:70:amenbreak_hat.wav
64,192,86860,1,0,0:0:0:0:
192,192,86932,1,0,0:0:0:70:amenbreak_hat.wav
64,192,87005,1,0,0:0:0:70:amenbreak_kick.wav
448,192,87005,1,0,0:0:0:0:
192,192,87151,1,0,0:0:0:70:amenbreak_snare.wav
320,192,87151,1,0,0:0:0:0:
448,192,87151,1,0,0:0:0:0:
320,192,87297,1,0,0:0:0:0:
64,192,87369,1,0,0:0:0:70:amenbreak_hat.wav
192,192,87442,1,0,0:0:0:70:amenbreak_kick.wav
448,192,87442,1,0,0:0:0:0:
192,192,87588,1,0,0:0:0:70:amenbreak_kick.wav
320,192,87588,1,0,0:0:0:0:
64,192,87733,1,0,0:0:0:70:amenbreak_snare.wav
320,192,87733,1,0,0:0:0:0:
448,192,87733,1,0,0:0:0:0:
192,192,87879,1,0,0:0:0:0:
320,192,87952,1,0,0:0:0:70:amenbreak_hat.wav
192,192,88025,1,0,0:0:0:0:
448,192,88097,1,0,0:0:0:70:amenbreak_hat.wav
64,192,88170,1,0,0:0:0:70:amenbreak_kick.wav
320,192,88170,1,0,0:0:0:0:
64,192,88316,1,0,0:0:0:70:amenbreak_snare.wav
192,192,88316,1,0,0:0:0:0:
448,192,88316,1,0,0:0:0:0:
192,192,88462,1,0,0:0:0:0:
320,192,88534,1,0,0:0:0:70:amenbreak_hat.wav
64,192,88607,1,0,0:0:0:70:amenbreak_kick.wav
448,192,88607,1,0,0:0:0:0:
192,192,88753,1,0,0:0:0:70:amenbreak_kick.wav
448,192,88753,1,0,0:0:0:0:
64,192,88898,1,0,0:0:0:70:amenbreak_snare.wav
192,192,88898,1,0,0:0:0:0:
320,192,88898,1,0,0:0:0:0:
448,192,89044,1,0,0:0:0:0:
192,192,89117,1,0,0:0:0:70:amenbreak_hat.wav
320,192,89190,1,0,0:0:0:0:
64,192,89263,1,0,0:0:0:70:amenbreak_hat.wav
192,192,89335,1,0,0:0:0:70:amenbreak_kick.wav
448,192,89335,1,0,0:0:0:0:
64,192,89481,1,0,0:0:0:70:amenbreak_snare.wav
320,192,89481,1,0,0:0:0:0:
448,192,89481,1,0,0:0:0:0:
320,192,89627,1,0,0:0:0:0:
448,192,89699,1,0,0:0:0:70:amenbreak_hat.wav
64,192,89772,1,0,0:0:0:70:amenbreak_kick.wav
192,192,89772,1,0,0:0:0:0:
192,192,89918,1,0,0:0:0:70:amenbreak_kick.wav
320,192,89918,1,0,0:0:0:0:
64,192,90063,1,0,0:0:0:70:amenbreak_snare.wav
320,192,90063,1,0,0:0:0:0:
448,192,90063,1,0,0:0:0:0:
192,192,90209,1,0,0:0:0:0:
448,192,90282,1,0,0:0:0:70:amenbreak_hat.wav
320,192,90355,1,0,0:0:0:0:
64,192,90428,1,0,0:0:0:70:amenbreak_hat.wav
192,192,90500,1,0,0:0:0:70:amenbreak_kick.wav
448,192,90500,1,0,0:0:0:0:
64,192,90646,1,0,0:0:0:70:amenbreak_snare.wav
320,192,90646,1,0,0:0:0:0:
448,192,90646,1,0,0:0:0:0:
320,192,90792,1,0,0:0:0:0:
64,192,90864,1,0,0:0:0:70:amenbreak_hat.wav
192,192,90937,1,0,0:0:0:70:amenbreak_kick.wav
448,192,90937,1,0,0:0:0:0:
192,192,91083,1,0,0:0:0:70:amenbreak_kick.wav
320,192,91083,1,0,0:0:0:0:
64,192,91229,1,0,0:0:0:70:amenbreak_snare.wav
320,192,91229,1,0,0:0:0:0:
448,192,91229,1,0,0:0:0:0:
192,192,91374,1,0,0:0:0:0:
448,192,91447,1,0,0:0:0:70:amenbreak_hat.wav
320,192,91520,1,0,0:0:0:0:
64,192,91593,1,0,0:0:0:70:amenbreak_hat.wav
192,192,91665,1,0,0:0:0:70:amenbreak_kick.wav
320,192,91665,1,0,0:0:0:0:
64,192,91811,1,0,0:0:0:70:amenbreak_snare.wav
192,192,91811,1,0,0:0:0:0:
448,192,91811,1,0,0:0:0:0:
64,192,91957,1,0,0:0:0:0:
320,192,92030,1,0,0:0:0:70:amenbreak_hat.wav
192,192,92102,1,0,0:0:0:70:amenbreak_kick.wav
448,192,92102,1,0,0:0:0:0:
64,192,92248,1,0,0:0:0:70:amenbreak_kick.wav
448,192,92248,1,0,0:0:0:0:
64,192,92394,1,0,0:0:0:70:amenbreak_snare.wav
192,192,92394,1,0,0:0:0:0:
320,192,92394,1,0,0:0:0:0:
448,192,92539,1,0,0:0:0:0:
192,192,92612,1,0,0:0:0:70:amenbreak_hat.wav
320,192,92685,1,0,0:0:0:0:
64,192,92758,1,0,0:0:0:70:amenbreak_hat.wav
192,192,92830,1,0,0:0:0:70:amenbreak_kick.wav
448,192,92830,1,0,0:0:0:0:
64,192,92976,1,0,0:0:0:70:amenbreak_snare.wav
320,192,92976,1,0,0:0:0:0:
448,192,92976,1,0,0:0:0:0:
192,192,93122,1,0,0:0:0:0:
320,192,93195,1,0,0:0:0:70:amenbreak_hat.wav
64,192,93267,1,0,0:0:0:70:cymbal.wav
192,192,93267,1,0,0:0:0:70:amenbreak_snare.wav
448,192,93267,1,0,0:0:0:0:
448,192,93413,1,0,0:0:0:0:
64,192,93559,1,0,0:0:0:70:amenbreak_kick.wav
320,192,93559,1,0,0:0:0:0:
192,192,93704,1,0,0:0:0:70:amenbreak_kick.wav
320,192,93704,1,0,0:0:0:0:
64,192,93850,1,0,0:0:0:70:amenbreak_kick.wav
448,192,93850,1,0,0:0:0:0:
192,192,93996,1,0,0:0:0:70:amenbreak_kick.wav
448,192,93996,1,0,0:0:0:0:
192,192,94141,1,0,0:0:0:70:amenbreak_kick.wav
320,192,94141,1,0,0:0:0:0:
64,192,94287,1,0,0:0:0:70:amenbreak_kick.wav
448,192,94287,1,0,0:0:0:0:
320,192,94432,1,0,0:0:0:0:
64,192,94578,1,0,0:0:0:70:amenbreak_kick.wav
320,192,94578,1,0,0:0:0:0:
192,192,94724,1,0,0:0:0:0:
64,192,94869,1,0,0:0:0:70:amenbreak_kick.wav
448,192,94869,1,0,0:0:0:0:
192,192,95015,1,0,0:0:0:70:amenbreak_kick.wav
448,192,95015,1,0,0:0:0:0:
192,192,95161,1,0,0:0:0:70:amenbreak_kick.wav
320,192,95161,1,0,0:0:0:0:
64,192,95306,1,0,0:0:0:70:amenbreak_kick.wav
448,192,95306,1,0,0:0:0:0:
64,192,95452,1,0,0:0:0:70:amenbreak_kick.wav
320,192,95452,1,0,0:0:0:0:
192,192,95597,1,0,0:0:0:70:amenbreak_snare.wav
320,192,95597,1,0,0:0:0:0:
448,192,95597,1,0,0:0:0:0:
64,192,95743,1,0,0:0:0:0:
448,192,95816,1,0,0:0:0:70:amenbreak_hat.wav
64,192,95889,1,0,0:0:0:70:amenbreak_snare.wav
192,192,95889,1,0,0:0:0:0:
320,192,95889,1,0,0:0:0:0:
448,192,96034,1,0,0:0:0:0:
192,192,96107,1,0,0:0:0:70:amenbreak_hat.wav
320,192,96180,1,0,0:0:0:70:amenbreak_kick.wav
448,192,96180,1,0,0:0:0:0:
64,192,96326,1,0,0:0:0:70:amenbreak_kick.wav
320,192,96326,1,0,0:0:0:0:
64,192,96471,1,0,0:0:0:0:
192,192,96617,1,0,0:0:0:70:amenbreak_kick.wav
320,192,96617,1,0,0:0:0:0:
192,192,96763,1,0,0:0:0:0:
64,192,96908,1,0,0:0:0:70:amenbreak_kick.wav
320,192,96908,1,0,0:0:0:0:
64,192,97054,1,0,0:0:0:70:amenbreak_snare.wav
192,192,97054,1,0,0:0:0:0:
448,192,97054,1,0,0:0:0:0:
320,192,97199,1,0,0:0:0:0:
192,192,97272,1,0,0:0:0:70:amenbreak_hat.wav
320,192,97345,1,0,0:0:0:0:
448,192,97345,1,0,0:0:0:0:
64,192,97491,1,0,0:0:0:70:amenbreak_kick.wav
192,192,97491,1,0,0:0:0:0:
64,192,97636,1,0,0:0:0:70:amenbreak_snare.wav
320,192,97636,1,0,0:0:0:0:
448,192,97636,1,0,0:0:0:0:
192,192,97782,1,0,0:0:0:0:
320,192,97855,1,0,0:0:0:70:amenbreak_hat.wav
64,192,97928,1,0,0:0:0:70:cymbal.wav
192,192,97928,1,0,0:0:0:70:amenbreak_kick.wav
448,192,97928,1,0,0:0:0:0:
64,192,98073,1,0,0:0:0:70:amenbreak_kick.wav
320,192,98073,1,0,0:0:0:0:
320,192,98219,1,0,0:0:0:0:
64,192,98364,1,0,0:0:0:70:amenbreak_kick.wav
448,192,98364,1,0,0:0:0:0:
64,192,98510,1,0,0:0:0:70:amenbreak_snare.wav
192,192,98510,1,0,0:0:0:0:
320,192,98510,1,0,0:0:0:0:
448,192,98656,1,0,0:0:0:0:
320,192,98729,1,0,0:0:0:70:amenbreak_hat.wav
64,192,98801,1,0,0:0:0:70:amenbreak_snare.wav
192,192,98801,1,0,0:0:0:0:
448,192,98801,1,0,0:0:0:0:
320,192,98947,1,0,0:0:0:0:
192,192,99020,1,0,0:0:0:70:amenbreak_hat.wav
64,192,99093,1,0,0:0:0:70:amenbreak_snare.wav
320,192,99093,1,0,0:0:0:0:
448,192,99093,1,0,0:0:0:0:
192,192,99238,1,0,0:0:0:0:
64,192,99311,1,0,0:0:0:70:amenbreak_hat.wav
192,192,99384,1,0,0:0:0:70:amenbreak_snare.wav
320,192,99384,1,0,0:0:0:0:
448,192,99384,1,0,0:0:0:0:
320,192,99530,1,0,0:0:0:0:
448,192,99602,1,0,0:0:0:70:amenbreak_hat.wav
64,192,99675,1,0,0:0:0:0:
320,192,99748,1,0,0:0:0:70:amenbreak_hat.wav
192,192,99821,1,0,0:0:0:70:amenbreak_kick.wav
448,192,99821,1,0,0:0:0:0:
64,192,99966,1,0,0:0:0:70:amenbreak_snare.wav
320,192,99966,1,0,0:0:0:0:
448,192,99966,1,0,0:0:0:0:
192,192,100112,1,0,0:0:0:0:
64,192,100258,1,0,0:0:0:70:amenbreak_kick.wav
448,192,100258,1,0,0:0:0:0:
64,192,100403,1,0,0:0:0:70:amenbreak_kick.wav
320,192,100403,1,0,0:0:0:0:
192,192,100549,1,0,0:0:0:70:amenbreak_kick.wav
320,192,100549,1,0,0:0:0:0:
192,192,100695,1,0,0:0:0:70:amenbreak_kick.wav
448,192,100695,1,0,0:0:0:0:
448,192,100840,1,0,0:0:0:0:
192,192,100913,1,0,0:0:0:70:amenbreak_hat.wav
64,192,100986,1,0,0:0:0:70:amenbreak_kick.wav
320,192,100986,1,0,0:0:0:0:
192,192,101131,1,0,0:0:0:70:amenbreak_kick.wav
320,192,101131,1,0,0:0:0:0:
64,192,101277,1,0,0:0:0:70:amenbreak_kick.wav
448,192,101277,1,0,0:0:0:0:
320,192,101423,1,0,0:0:0:0:
64,192,101496,1,0,0:0:0:70:amenbreak_hat.wav
192,192,101568,1,0,0:0:0:70:amenbreak_kick.wav
448,192,101568,1,0,0:0:0:0:
64,192,101714,1,0,0:0:0:70:amenbreak_snare.wav
320,192,101714,1,0,0:0:0:0:
448,192,101714,1,0,0:0:0:0:
192,192,101860,1,0,0:0:0:0:
320,192,101932,1,0,0:0:0:70:amenbreak_hat.wav
64,192,102005,1,0,0:0:0:70:amenbreak_snare.wav
192,192,102005,1,0,0:0:0:0:
448,192,102005,1,0,0:0:0:0:
320,192,102151,1,0,0:0:0:0:
448,192,102224,1,0,0:0:0:70:amenbreak_hat.wav
64,192,102297,1,0,0:0:0:70:amenbreak_kick.wav
192,192,102297,1,0,0:0:0:0:
192,192,102442,1,0,0:0:0:70:amenbreak_kick.wav
448,192,102442,1,0,0:0:0:0:
64,192,102588,1,0,0:0:0:70:amenbreak_kick.wav
448,192,102588,1,0,0:0:0:0:
192,192,102733,1,0,0:0:0:70:amenbreak_kick.wav
320,192,102733,1,0,0:0:0:0:
64,192,102879,1,0,0:0:0:70:amenbreak_snare.wav
320,192,102879,1,0,0:0:0:0:
448,192,102879,1,0,0:0:0:0:
192,192,103025,1,0,0:0:0:0:
320,192,103097,1,0,0:0:0:70:amenbreak_hat.wav
192,192,103170,1,0,0:0:0:0:
448,192,103243,1,0,0:0:0:70:amenbreak_hat.wav
64,192,103316,1,0,0:0:0:70:amenbreak_kick.wav
320,192,103316,1,0,0:0:0:0:
192,192,103462,1,0,0:0:0:70:amenbreak_snare.wav
320,192,103462,1,0,0:0:0:0:
448,192,103462,1,0,0:0:0:0:
64,192,103607,1,0,0:0:0:0:
320,192,103680,1,0,0:0:0:70:amenbreak_hat.wav
64,192,103753,1,0,0:0:0:70:amenbreak_kick.wav
192,192,103753,1,0,0:0:0:0:
192,192,103898,1,0,0:0:0:70:amenbreak_kick.wav
448,192,103898,1,0,0:0:0:0:
64,192,104044,1,0,0:0:0:70:amenbreak_snare.wav
320,192,104044,1,0,0:0:0:0:
448,192,104044,1,0,0:0:0:0:
320,192,104190,1,0,0:0:0:0:
192,192,104263,1,0,0:0:0:70:amenbreak_hat.wav
448,192,104335,1,0,0:0:0:0:
64,192,104408,1,0,0:0:0:70:amenbreak_hat.wav
192,192,104481,1,0,0:0:0:70:amenbreak_kick.wav
448,192,104481,1,0,0:0:0:0:
64,192,104627,1,0,0:0:0:70:amenbreak_snare.wav
192,192,104627,1,0,0:0:0:0:
320,192,104627,1,0,0:0:0:0:
448,192,104772,1,0,0:0:0:0:
320,192,104845,1,0,0:0:0:70:amenbreak_hat.wav
64,192,104918,1,0,0:0:0:70:kick.wav
192,192,104918,1,0,0:0:0:70:cymbal.wav
448,192,104918,1,0,0:0:0:0:
