osu file format v14

[General]
AudioFilename: audio.mp3
AudioLeadIn: 0
PreviewTime: 27968
Countdown: 0
SampleSet: Normal
StackLeniency: 0.7
Mode: 1
LetterboxInBreaks: 0
WidescreenStoryboard: 0

[Editor]
DistanceSpacing: 0.8
BeatDivisor: 4
GridSize: 32
TimelineZoom: 1.8

[Metadata]
Title:fly a rocket to the center of your heart
TitleUnicode:fly a rocket to the center of your heart
Artist:tiku sens
ArtistUnicode:tiku sens
Creator:Nifty
Version:muzukashii
Source:
Tags:twee pop breakcore drum loop electronic english shotacore lolicore
BeatmapID:2882338
BeatmapSetID:1396458

[Difficulty]
HPDrainRate:6
CircleSize:2
OverallDifficulty:4.5
ApproachRate:10
SliderMultiplier:1.4
SliderTickRate:1

[Events]
//Background and Video events
0,0,"lose.jpg",0,100
//Break Periods
//Storyboard Layer 0 (Background)
//Storyboard Layer 1 (Fail)
//Storyboard Layer 2 (Pass)
//Storyboard Layer 3 (Foreground)
//Storyboard Layer 4 (Overlay)
//Storyboard Sound Samples

[TimingPoints]
76,291.26213592233,4,1,0,70,1,0
76,-111.111111111111,4,1,0,70,0,0
2187,-99.9999999999999,4,1,0,80,0,0
4904,-111.111111111111,4,1,0,70,0,0
6847,-99.9999999999999,4,1,0,80,0,0
9524,-111.111111111111,4,1,0,70,0,0
11508,-99.9999999999999,4,1,0,80,0,0
14225,-111.111111111111,4,1,0,70,0,0
16168,-99.9999999999999,4,1,0,80,0,0
19080,-125,4,1,0,60,0,0
27163,-111.111111111111,4,1,0,70,0,0
27964,-100,4,1,0,80,0,0
28037,-100,4,1,0,80,0,1
33716,-100,4,1,0,80,0,0
33789,-125,4,1,0,80,0,0
35027,-100,4,1,0,80,0,1
36046,-100,4,1,0,80,0,0
36119,-125,4,1,0,60,0,0
38376,-125,4,1,0,70,0,0
39542,-111.111111111111,4,1,0,80,0,0
58478,-125,4,1,0,60,0,0
66993,-111.111111111111,4,1,0,70,0,0
67575,-100,4,1,0,80,0,0
67648,-100,4,1,0,80,0,1
73328,-100,4,1,0,80,0,0
73401,-125,4,1,0,80,0,0
74639,-100,4,1,0,80,0,1
75658,-100,4,1,0,80,0,0
75731,-125,4,1,0,60,0,0
77988,-111.111111111111,4,1,0,70,0,0
79551,-125,4,1,0,60,0,0
83886,-111.111111111111,4,1,0,80,0,0
105204,-125,4,1,0,80,0,0
106529,-142.857142857143,4,1,0,80,0,0

[HitObjects]
349,123,76,5,12,0:0:0:0:
369,118,367,1,8,0:0:0:0:
371,114,658,1,0,0:0:0:0:
372,121,804,1,8,0:0:0:0:
373,125,1095,1,0,0:0:0:0:
388,122,1241,1,0,0:0:0:0:
388,122,1677,1,0,0:0:0:0:
402,140,1969,1,8,0:0:0:0:
407,124,2114,1,0,0:0:0:0:
406,124,2406,1,0,0:0:0:0:
417,130,2551,1,0,0:0:0:0:
417,130,2697,1,8,0:0:0:0:
417,130,2842,1,0,0:0:0:0:
417,130,2915,1,0,0:0:0:0:
417,130,2988,1,0,0:0:0:0:
417,130,3134,1,0,0:0:0:0:
417,130,3279,1,8,0:0:0:0:
417,130,3571,1,0,0:0:0:0:
417,130,3716,1,0,0:0:0:0:
417,130,3862,1,8,0:0:0:0:
405,140,4008,1,0,0:0:0:0:
405,140,4080,1,0,0:0:0:0:
405,140,4153,1,0,0:0:0:0:
401,141,4299,1,0,0:0:0:0:
401,141,4444,1,8,0:0:0:0:
402,142,4736,1,8,0:0:0:0:
407,129,5027,1,8,0:0:0:0:
407,129,5318,1,0,0:0:0:0:
407,129,5464,1,8,0:0:0:0:
407,137,5755,1,0,0:0:0:0:
406,137,5901,1,0,0:0:0:0:
416,128,6338,1,0,0:0:0:0:
408,119,6629,1,8,0:0:0:0:
400,126,6775,1,0,0:0:0:0:
408,119,7066,1,0,0:0:0:0:
408,119,7211,1,0,0:0:0:0:
408,119,7357,1,8,0:0:0:0:
408,119,7503,1,0,0:0:0:0:
408,120,7575,1,0,0:0:0:0:
408,120,7648,1,0,0:0:0:0:
408,119,7794,1,0,0:0:0:0:
408,119,7940,1,8,0:0:0:0:
408,119,8231,1,0,0:0:0:0:
407,136,8376,1,0,0:0:0:0:
407,136,8522,1,8,0:0:0:0:
407,136,8668,1,0,0:0:0:0:
407,134,8741,1,0,0:0:0:0:
407,134,8886,1,0,0:0:0:0:
407,134,8959,1,0,0:0:0:0:
407,134,9105,1,8,0:0:0:0:
407,136,9396,1,8,0:0:0:0:
407,136,9687,1,8,0:0:0:0:
407,134,9978,1,0,0:0:0:0:
407,134,10124,1,8,0:0:0:0:
407,136,10415,1,0,0:0:0:0:
407,136,10561,1,0,0:0:0:0:
407,134,10998,1,0,0:0:0:0:
407,136,11289,1,8,0:0:0:0:
407,136,11435,1,0,0:0:0:0:
419,142,11726,5,0,0:0:0:0:
414,143,11872,5,0,0:0:0:0:
414,143,12017,5,8,0:0:0:0:
414,143,12163,1,0,0:0:0:0:
412,143,12236,1,0,0:0:0:0:
412,143,12309,1,0,0:0:0:0:
412,143,12454,1,0,0:0:0:0:
412,143,12600,1,8,0:0:0:0:
418,137,12891,1,0,0:0:0:0:
420,143,13037,1,0,0:0:0:0:
420,143,13182,1,8,0:0:0:0:
420,143,13328,1,0,0:0:0:0:
420,143,13401,1,0,0:0:0:0:
420,143,13474,1,0,0:0:0:0:
420,143,13619,1,0,0:0:0:0:
420,143,13765,1,8,0:0:0:0:
420,143,14056,1,8,0:0:0:0:
420,143,14347,1,0,0:0:0:0:
416,151,14639,1,8,0:0:0:0:
438,160,14784,1,0,0:0:0:0:
438,160,15075,1,0,0:0:0:0:
426,155,15367,1,0,0:0:0:0:
438,151,15512,1,0,0:0:0:0:
438,160,15658,1,8,0:0:0:0:
464,118,15804,1,0,0:0:0:0:
432,157,16386,1,0,0:0:0:0:
431,157,16532,1,0,0:0:0:0:
430,157,16677,1,8,0:0:0:0:
429,127,16823,1,0,0:0:0:0:
429,127,16896,1,0,0:0:0:0:
427,126,16969,1,0,0:0:0:0:
427,125,17114,1,0,0:0:0:0:
427,125,17260,1,8,0:0:0:0:
426,125,17551,1,0,0:0:0:0:
426,125,17697,1,0,0:0:0:0:
429,127,17842,1,8,0:0:0:0:
427,126,17988,1,0,0:0:0:0:
427,125,18061,1,0,0:0:0:0:
427,125,18207,1,0,0:0:0:0:
427,125,18279,1,0,0:0:0:0:
426,125,18425,1,8,0:0:0:0:
426,125,18716,1,4,0:0:0:0:
445,128,19299,1,8,0:0:0:0:
442,132,19736,5,0,0:0:0:0:
445,128,20027,1,0,0:0:0:0:
439,135,20318,1,0,0:0:0:0:
442,132,20464,1,8,0:0:0:0:
442,132,20755,1,8,0:0:0:0:
441,136,21046,1,0,0:0:0:0:
442,132,21483,1,0,0:0:0:0:
442,132,21629,5,8,0:0:0:0:
456,107,21920,1,8,0:0:0:0:
456,112,22066,1,0,0:0:0:0:
426,112,22357,1,0,0:0:0:0:
428,112,22648,1,0,0:0:0:0:
428,112,22794,1,8,0:0:0:0:
429,111,23085,1,8,0:0:0:0:
426,112,23376,1,0,0:0:0:0:
427,119,23668,1,0,0:0:0:0:
428,119,23959,1,8,0:0:0:0:
428,119,24250,1,0,0:0:0:0:
426,112,24396,1,0,0:0:0:0:
417,116,24687,1,0,0:0:0:0:
417,113,24978,1,0,0:0:0:0:
417,113,25124,1,8,0:0:0:0:
429,124,25415,1,8,0:0:0:0:
429,124,25561,1,8,0:0:0:0:
429,124,25707,1,0,0:0:0:0:
418,126,25998,1,0,0:0:0:0:
418,126,26289,1,8,0:0:0:0:
414,117,26726,1,0,0:0:0:0:
430,120,27017,1,0,0:0:0:0:
430,120,27309,1,0,0:0:0:0:
429,124,27454,1,8,0:0:0:0:
429,124,27600,1,0,0:0:0:0:
400,109,27673,1,0,0:0:0:0:
424,118,27745,1,0,0:0:0:0:
423,115,28037,1,8,0:0:0:0:
430,120,28182,1,0,0:0:0:0:
416,117,28328,5,8,0:0:0:0:
413,137,28474,1,0,0:0:0:0:
411,127,28619,5,8,0:0:0:0:
435,132,28765,1,8,0:0:0:0:
435,132,28910,1,0,0:0:0:0:
413,128,29056,1,0,0:0:0:0:
413,129,29202,1,8,0:0:0:0:
413,129,29275,1,8,0:0:0:0:
413,129,29347,1,8,0:0:0:0:
413,129,29493,1,0,0:0:0:0:
411,127,29639,1,8,0:0:0:0:
423,124,30221,1,0,0:0:0:0:
413,129,30367,1,8,0:0:0:0:
402,120,30512,1,0,0:0:0:0:
402,120,30585,1,0,0:0:0:0:
402,120,30658,1,0,0:0:0:0:
402,120,30804,1,0,0:0:0:0:
402,120,30949,1,8,0:0:0:0:
402,120,31095,1,0,0:0:0:0:
402,120,31241,1,8,0:0:0:0:
402,120,31386,1,0,0:0:0:0:
402,120,31823,1,8,0:0:0:0:
402,120,31969,1,0,0:0:0:0:
402,120,32042,1,0,0:0:0:0:
402,120,32114,1,0,0:0:0:0:
402,120,32260,1,8,0:0:0:0:
402,120,32406,1,0,0:0:0:0:
396,125,32697,1,0,0:0:0:0:
402,120,32842,1,0,0:0:0:0:
402,120,32988,1,8,0:0:0:0:
402,120,33134,1,0,0:0:0:0:
402,120,33207,1,0,0:0:0:0:
402,120,33279,1,0,0:0:0:0:
402,120,33425,1,8,0:0:0:0:
396,125,33716,1,12,0:0:0:0:
394,120,35027,5,0,0:0:0:0:
394,120,35173,1,0,0:0:0:0:
394,120,35318,1,8,0:0:0:0:
394,120,35464,1,0,0:0:0:0:
394,120,35537,1,0,0:0:0:0:
394,120,35609,1,0,0:0:0:0:
394,120,35755,1,8,0:0:0:0:
394,120,36046,1,12,0:0:0:0:
414,125,36920,1,0,0:0:0:0:
414,125,37066,1,8,0:0:0:0:
424,151,37357,1,0,0:0:0:0:
408,131,37503,1,0,0:0:0:0:
413,132,37648,1,8,0:0:0:0:
406,112,37794,1,0,0:0:0:0:
420,127,37867,1,0,0:0:0:0:
420,127,37940,1,0,0:0:0:0:
420,127,38085,1,0,0:0:0:0:
420,127,38231,1,8,0:0:0:0:
401,117,38522,1,0,0:0:0:0:
411,120,38668,1,0,0:0:0:0:
419,121,38813,1,8,0:0:0:0:
420,127,38959,1,0,0:0:0:0:
420,127,39032,1,0,0:0:0:0:
420,127,39105,1,0,0:0:0:0:
420,127,39250,1,0,0:0:0:0:
421,120,39396,1,8,0:0:0:0:
420,124,39687,1,8,0:0:0:0:
419,121,39833,1,0,0:0:0:0:
440,107,39978,1,8,0:0:0:0:
445,108,40124,1,0,0:0:0:0:
442,109,40197,1,0,0:0:0:0:
442,109,40270,1,0,0:0:0:0:
441,108,40415,1,0,0:0:0:0:
441,108,40561,1,8,0:0:0:0:
437,124,40852,1,0,0:0:0:0:
444,121,40998,1,0,0:0:0:0:
444,121,41143,1,8,0:0:0:0:
444,120,41289,1,0,0:0:0:0:
444,120,41435,1,8,0:0:0:0:
466,114,41508,1,8,0:0:0:0:
445,115,41580,1,8,0:0:0:0:
442,115,41726,1,8,0:0:0:0:
444,121,42017,1,0,0:0:0:0:
444,121,42163,1,0,0:0:0:0:
424,118,42309,1,8,0:0:0:0:
431,116,42454,1,0,0:0:0:0:
432,115,42527,1,0,0:0:0:0:
432,115,42600,1,0,0:0:0:0:
432,115,42745,1,0,0:0:0:0:
432,115,42891,1,8,0:0:0:0:
444,121,43182,1,0,0:0:0:0:
444,121,43328,1,0,0:0:0:0:
441,111,43474,1,8,0:0:0:0:
442,111,43910,1,0,0:0:0:0:
440,112,44056,1,8,0:0:0:0:
452,117,44347,1,0,0:0:0:0:
442,121,44493,1,0,0:0:0:0:
434,108,44639,1,8,0:0:0:0:
440,112,44784,1,0,0:0:0:0:
431,108,44857,1,0,0:0:0:0:
431,108,44930,1,0,0:0:0:0:
432,107,45075,1,0,0:0:0:0:
436,101,45221,1,8,0:0:0:0:
442,121,45512,1,0,0:0:0:0:
442,121,45658,1,0,0:0:0:0:
440,112,45804,1,8,0:0:0:0:
440,104,45949,1,0,0:0:0:0:
448,112,46095,1,8,0:0:0:0:
446,117,46168,1,8,0:0:0:0:
448,117,46241,1,8,0:0:0:0:
452,117,46386,1,8,0:0:0:0:
449,113,46677,1,0,0:0:0:0:
449,113,46823,1,0,0:0:0:0:
431,100,46969,1,8,0:0:0:0:
435,101,47114,1,0,0:0:0:0:
434,95,47187,1,0,0:0:0:0:
435,101,47260,1,0,0:0:0:0:
435,101,47406,1,0,0:0:0:0:
435,101,47551,1,8,0:0:0:0:
442,104,47842,1,0,0:0:0:0:
442,104,47988,1,0,0:0:0:0:
447,101,48134,1,8,0:0:0:0:
447,101,48571,1,0,0:0:0:0:
432,94,48717,1,8,0:0:0:0:
442,104,49008,1,8,0:0:0:0:
442,104,49153,1,8,0:0:0:0:
434,101,49299,1,0,0:0:0:0:
439,92,49444,1,0,0:0:0:0:
439,92,49590,1,8,0:0:0:0:
439,92,49881,1,8,0:0:0:0:
438,88,50027,1,0,0:0:0:0:
439,88,50173,1,0,0:0:0:0:
438,90,50318,1,0,0:0:0:0:
439,92,50464,1,8,0:0:0:0:
439,92,50755,1,8,0:0:0:0:
439,92,50901,1,0,0:0:0:0:
438,88,50974,1,0,0:0:0:0:
438,88,51046,1,0,0:0:0:0:
439,88,51192,1,0,0:0:0:0:
438,90,51338,1,8,0:0:0:0:
439,92,51483,1,0,0:0:0:0:
439,92,51629,1,8,0:0:0:0:
438,88,52066,1,0,0:0:0:0:
439,88,52211,1,8,0:0:0:0:
439,92,52503,1,0,0:0:0:0:
439,92,52648,1,0,0:0:0:0:
439,92,52794,1,8,0:0:0:0:
439,92,52940,1,0,0:0:0:0:
438,88,53012,1,0,0:0:0:0:
438,88,53085,1,0,0:0:0:0:
439,88,53231,1,0,0:0:0:0:
446,83,53376,1,8,0:0:0:0:
455,85,53668,1,8,0:0:0:0:
453,86,53959,1,0,0:0:0:0:
453,86,54105,1,0,0:0:0:0:
439,88,54250,1,8,0:0:0:0:
443,89,54542,1,8,0:0:0:0:
445,90,54687,1,0,0:0:0:0:
445,90,54833,1,0,0:0:0:0:
453,86,54978,1,0,0:0:0:0:
453,86,55124,1,8,0:0:0:0:
457,90,55415,1,8,0:0:0:0:
457,90,55561,1,0,0:0:0:0:
458,90,55634,1,0,0:0:0:0:
458,90,55707,1,0,0:0:0:0:
458,90,55852,1,0,0:0:0:0:
433,83,55998,1,8,0:0:0:0:
457,89,56289,1,8,0:0:0:0:
457,90,56435,1,0,0:0:0:0:
458,90,56726,1,0,0:0:0:0:
458,90,56872,1,8,0:0:0:0:
454,85,57163,1,0,0:0:0:0:
457,89,57309,1,0,0:0:0:0:
457,90,57454,1,8,0:0:0:0:
458,90,57600,1,0,0:0:0:0:
458,90,57673,1,0,0:0:0:0:
451,94,57745,1,0,0:0:0:0:
451,94,57891,1,0,0:0:0:0:
451,94,58037,1,8,0:0:0:0:
451,75,58328,1,8,0:0:0:0:
460,92,58910,1,8,0:0:0:0:
460,92,59056,1,0,0:0:0:0:
444,85,59347,1,0,0:0:0:0:
431,85,59639,1,0,0:0:0:0:
446,86,59930,1,0,0:0:0:0:
445,82,60075,1,8,0:0:0:0:
444,85,60367,1,8,0:0:0:0:
445,82,60658,1,0,0:0:0:0:
444,85,61241,1,8,0:0:0:0:
444,85,61386,1,0,0:0:0:0:
445,82,61677,1,0,0:0:0:0:
447,82,61969,1,0,0:0:0:0:
444,85,62260,1,0,0:0:0:0:
444,85,62406,1,8,0:0:0:0:
436,91,62697,1,8,0:0:0:0:
436,91,62988,1,0,0:0:0:0:
436,91,63279,1,0,0:0:0:0:
436,91,63571,1,8,0:0:0:0:
443,91,63862,1,0,0:0:0:0:
443,91,64008,1,0,0:0:0:0:
443,90,64299,1,0,0:0:0:0:
443,90,64590,1,0,0:0:0:0:
443,91,64736,1,8,0:0:0:0:
459,88,64881,1,0,0:0:0:0:
443,91,65027,1,8,0:0:0:0:
436,91,65318,1,0,0:0:0:0:
443,90,65609,1,0,0:0:0:0:
428,92,65755,1,0,0:0:0:0:
443,91,65901,1,8,0:0:0:0:
436,91,66192,1,0,0:0:0:0:
436,91,66338,1,0,0:0:0:0:
439,81,66629,1,0,0:0:0:0:
439,81,67066,1,8,0:0:0:0:
423,101,67139,1,8,0:0:0:0:
427,91,67211,1,8,0:0:0:0:
436,91,67357,1,0,0:0:0:0:
443,97,67503,1,0,0:0:0:0:
423,115,67648,1,8,0:0:0:0:
430,120,67794,1,0,0:0:0:0:
416,117,67940,5,8,0:0:0:0:
413,137,68085,1,0,0:0:0:0:
411,127,68231,5,8,0:0:0:0:
435,132,68376,1,8,0:0:0:0:
435,132,68522,1,0,0:0:0:0:
413,128,68668,1,0,0:0:0:0:
413,129,68813,1,8,0:0:0:0:
413,129,68886,1,8,0:0:0:0:
413,129,68959,1,8,0:0:0:0:
413,129,69105,1,0,0:0:0:0:
411,127,69250,1,8,0:0:0:0:
423,124,69833,1,0,0:0:0:0:
413,129,69978,1,8,0:0:0:0:
402,120,70124,1,0,0:0:0:0:
402,120,70197,1,0,0:0:0:0:
402,120,70270,1,0,0:0:0:0:
402,120,70415,1,0,0:0:0:0:
402,120,70561,1,8,0:0:0:0:
402,120,70707,1,0,0:0:0:0:
402,120,70852,1,8,0:0:0:0:
402,120,70998,1,0,0:0:0:0:
402,120,71435,1,8,0:0:0:0:
402,120,71580,1,0,0:0:0:0:
402,120,71653,1,0,0:0:0:0:
402,120,71726,1,0,0:0:0:0:
402,120,71872,1,8,0:0:0:0:
402,120,72017,1,0,0:0:0:0:
396,125,72309,1,0,0:0:0:0:
402,120,72454,1,0,0:0:0:0:
402,120,72600,1,8,0:0:0:0:
402,120,72745,1,0,0:0:0:0:
402,120,72818,1,0,0:0:0:0:
402,120,72891,1,0,0:0:0:0:
402,120,73037,1,8,0:0:0:0:
396,125,73328,1,12,0:0:0:0:
394,120,74639,5,0,0:0:0:0:
394,120,74784,1,0,0:0:0:0:
394,120,74930,1,8,0:0:0:0:
394,120,75075,1,0,0:0:0:0:
394,120,75148,1,0,0:0:0:0:
394,120,75221,1,0,0:0:0:0:
394,120,75367,1,8,0:0:0:0:
394,120,75658,1,12,0:0:0:0:
414,125,76532,5,0,0:0:0:0:
414,125,76677,1,8,0:0:0:0:
424,151,76969,1,0,0:0:0:0:
408,131,77114,1,0,0:0:0:0:
413,132,77260,1,8,0:0:0:0:
406,112,77406,1,0,0:0:0:0:
420,127,77478,1,0,0:0:0:0:
420,127,77551,1,0,0:0:0:0:
420,127,77697,1,0,0:0:0:0:
420,127,77842,1,8,0:0:0:0:
401,117,78134,1,0,0:0:0:0:
411,120,78279,1,0,0:0:0:0:
419,121,78425,1,8,0:0:0:0:
420,127,78571,1,0,0:0:0:0:
420,127,78643,1,0,0:0:0:0:
420,127,78716,1,0,0:0:0:0:
420,127,78862,1,0,0:0:0:0:
421,120,79008,1,8,0:0:0:0:
443,128,79153,1,8,0:0:0:0:
439,126,79299,1,4,0:0:0:0:
420,124,83959,1,8,0:0:0:0:
419,121,84105,1,0,0:0:0:0:
440,107,84250,1,8,0:0:0:0:
445,108,84396,1,0,0:0:0:0:
442,109,84469,1,0,0:0:0:0:
442,109,84542,1,0,0:0:0:0:
441,108,84687,1,0,0:0:0:0:
441,108,84833,1,8,0:0:0:0:
437,124,85124,1,0,0:0:0:0:
444,121,85270,1,0,0:0:0:0:
444,121,85415,1,8,0:0:0:0:
444,120,85561,1,0,0:0:0:0:
444,120,85707,1,8,0:0:0:0:
462,125,85779,1,8,0:0:0:0:
464,121,85852,1,8,0:0:0:0:
442,115,85998,1,8,0:0:0:0:
444,121,86289,1,0,0:0:0:0:
444,121,86435,1,0,0:0:0:0:
424,118,86580,1,8,0:0:0:0:
431,116,86726,1,0,0:0:0:0:
432,115,86799,1,0,0:0:0:0:
432,115,86872,1,0,0:0:0:0:
432,115,87017,1,0,0:0:0:0:
432,115,87163,1,8,0:0:0:0:
444,121,87309,1,0,0:0:0:0:
444,121,87454,1,0,0:0:0:0:
444,121,87600,1,0,0:0:0:0:
441,111,87745,1,8,0:0:0:0:
442,112,88182,1,0,0:0:0:0:
440,112,88328,1,8,0:0:0:0:
452,117,88619,1,0,0:0:0:0:
442,121,88765,1,0,0:0:0:0:
434,108,88910,1,8,0:0:0:0:
440,112,89056,1,0,0:0:0:0:
431,108,89129,1,0,0:0:0:0:
431,108,89202,1,0,0:0:0:0:
432,107,89347,1,0,0:0:0:0:
436,101,89493,1,8,0:0:0:0:
442,121,89784,1,0,0:0:0:0:
442,121,89930,1,0,0:0:0:0:
440,112,90075,1,8,0:0:0:0:
440,104,90221,1,0,0:0:0:0:
448,112,90367,1,8,0:0:0:0:
448,112,90440,1,8,0:0:0:0:
448,112,90512,1,8,0:0:0:0:
452,117,90658,1,8,0:0:0:0:
449,113,90949,1,0,0:0:0:0:
449,113,91095,1,0,0:0:0:0:
431,100,91241,1,8,0:0:0:0:
435,101,91386,1,0,0:0:0:0:
434,95,91459,1,0,0:0:0:0:
420,102,91532,1,0,0:0:0:0:
435,101,91677,1,0,0:0:0:0:
435,101,91823,1,8,0:0:0:0:
442,104,91969,1,0,0:0:0:0:
442,104,92114,1,0,0:0:0:0:
442,104,92260,1,0,0:0:0:0:
447,101,92406,1,8,0:0:0:0:
447,101,92842,1,0,0:0:0:0:
447,101,92988,1,8,0:0:0:0:
442,104,93279,1,8,0:0:0:0:
434,101,93571,1,0,0:0:0:0:
439,92,93716,1,0,0:0:0:0:
449,92,93862,1,0,0:0:0:0:
441,92,94008,1,0,0:0:0:0:
448,96,94153,1,0,0:0:0:0:
374,104,94299,1,0,0:0:0:0:
442,89,94590,1,0,0:0:0:0:
439,92,94736,1,8,0:0:0:0:
442,88,94881,1,0,0:0:0:0:
442,88,94954,1,0,0:0:0:0:
442,88,95027,1,0,0:0:0:0:
442,88,95173,1,0,0:0:0:0:
441,92,95318,1,0,0:0:0:0:
430,97,95464,1,0,0:0:0:0:
442,89,95609,1,8,0:0:0:0:
439,92,95755,1,0,0:0:0:0:
442,88,95901,1,8,0:0:0:0:
430,72,96192,1,0,0:0:0:0:
438,78,96338,1,0,0:0:0:0:
435,78,96483,5,8,0:0:0:0:
435,78,96556,1,8,0:0:0:0:
435,78,96629,1,8,0:0:0:0:
434,78,96920,1,0,0:0:0:0:
432,78,97066,1,8,0:0:0:0:
432,78,97211,1,0,0:0:0:0:
438,78,97284,1,0,0:0:0:0:
438,78,97357,1,0,0:0:0:0:
435,78,97503,1,0,0:0:0:0:
435,78,97648,1,8,0:0:0:0:
443,84,97940,1,0,0:0:0:0:
443,84,98085,1,0,0:0:0:0:
442,64,98231,1,8,0:0:0:0:
432,84,98376,1,0,0:0:0:0:
436,84,98522,1,8,0:0:0:0:
439,84,98668,1,8,0:0:0:0:
425,89,98741,1,8,0:0:0:0:
443,84,98813,1,8,0:0:0:0:
449,75,99105,1,8,0:0:0:0:
449,75,99250,1,8,0:0:0:0:
451,74,99323,1,8,0:0:0:0:
452,71,99396,1,8,0:0:0:0:
452,71,99687,1,8,0:0:0:0:
452,71,99833,1,0,0:0:0:0:
450,75,99978,1,8,0:0:0:0:
428,91,100270,1,0,0:0:0:0:
440,80,100415,1,0,0:0:0:0:
440,80,100561,1,0,0:0:0:0:
452,71,100707,1,0,0:0:0:0:
443,74,100852,1,8,0:0:0:0:
450,75,100925,1,8,0:0:0:0:
450,75,100998,1,8,0:0:0:0:
449,75,101143,1,0,0:0:0:0:
443,74,101289,1,0,0:0:0:0:
443,74,101435,1,8,0:0:0:0:
443,74,101508,1,8,0:0:0:0:
443,74,101580,1,8,0:0:0:0:
441,73,101726,1,8,0:0:0:0:
441,73,102017,1,8,0:0:0:0:
443,74,102600,1,0,0:0:0:0:
441,73,102745,1,0,0:0:0:0:
443,74,102891,1,8,0:0:0:0:
454,69,103037,1,0,0:0:0:0:
455,72,103109,1,0,0:0:0:0:
455,69,103182,1,0,0:0:0:0:
455,72,103328,1,0,0:0:0:0:
455,69,103474,1,8,0:0:0:0:
456,70,103765,1,0,0:0:0:0:
465,71,103910,1,0,0:0:0:0:
465,71,104056,1,8,0:0:0:0:
464,71,104202,1,0,0:0:0:0:
466,69,104275,1,0,0:0:0:0:
469,68,104420,1,0,0:0:0:0:
469,68,104493,1,0,0:0:0:0:
477,57,104639,1,8,0:0:0:0:
475,57,104784,1,0,0:0:0:0:
475,57,104930,1,12,0:0:0:0:
