osu file format v14

[General]
AudioFilename: audio.mp3
AudioLeadIn: 0
PreviewTime: 27968
Countdown: 0
SampleSet: Normal
StackLeniency: 0.7
Mode: 1
LetterboxInBreaks: 0
WidescreenStoryboard: 0

[Editor]
DistanceSpacing: 0.8
BeatDivisor: 4
GridSize: 32
TimelineZoom: 1.8

[Metadata]
Title:fly a rocket to the center of your heart
TitleUnicode:fly a rocket to the center of your heart
Artist:tiku sens
ArtistUnicode:tiku sens
Creator:Nifty
Version:kantan
Source:
Tags:twee pop breakcore drum loop electronic english shotacore lolicore
BeatmapID:2882337
BeatmapSetID:1396458

[Difficulty]
HPDrainRate:7
CircleSize:2
OverallDifficulty:3
ApproachRate:10
SliderMultiplier:1.4
SliderTickRate:1

[Events]
//Background and Video events
0,0,"lose.jpg",0,100
//Break Periods
//Storyboard Layer 0 (Background)
//Storyboard Layer 1 (Fail)
//Storyboard Layer 2 (Pass)
//Storyboard Layer 3 (Foreground)
//Storyboard Layer 4 (Overlay)
//Storyboard Sound Samples

[TimingPoints]
76,291.26213592233,4,1,0,70,1,0
2187,-100,4,1,0,80,0,0
4904,-100,4,1,0,70,0,0
6847,-100,4,1,0,80,0,0
9524,-100,4,1,0,70,0,0
11508,-100,4,1,0,80,0,0
14225,-100,4,1,0,70,0,0
16168,-100,4,1,0,80,0,0
19080,-100,4,1,0,60,0,0
27163,-100,4,1,0,70,0,0
27964,-100,4,1,0,80,0,0
28037,-100,4,1,0,80,0,1
33716,-100,4,1,0,80,0,0
35027,-100,4,1,0,80,0,1
36046,-100,4,1,0,80,0,0
36119,-100,4,1,0,60,0,0
38376,-100,4,1,0,70,0,0
39542,-100,4,1,0,80,0,0
58478,-100,4,1,0,60,0,0
66993,-100,4,1,0,70,0,0
67575,-100,4,1,0,80,0,0
67648,-100,4,1,0,80,0,1
73328,-100,4,1,0,80,0,0
74639,-100,4,1,0,80,0,1
75658,-100,4,1,0,80,0,0
75731,-100,4,1,0,60,0,0
77988,-100,4,1,0,70,0,0
79551,-100,4,1,0,60,0,0
83886,-100,4,1,0,80,0,0

[HitObjects]
349,123,76,5,12,0:0:0:0:
369,118,367,1,8,0:0:0:0:
371,114,658,1,0,0:0:0:0:
388,122,1241,1,0,0:0:0:0:
406,124,2406,1,0,0:0:0:0:
417,130,2697,1,8,0:0:0:0:
417,130,2988,1,0,0:0:0:0:
417,130,3571,1,0,0:0:0:0:
417,130,3862,1,8,0:0:0:0:
412,117,4153,1,8,0:0:0:0:
402,142,4736,1,8,0:0:0:0:
407,129,5027,1,8,0:0:0:0:
407,129,5318,1,0,0:0:0:0:
406,137,5901,1,0,0:0:0:0:
408,119,7066,1,0,0:0:0:0:
408,119,7357,1,8,0:0:0:0:
408,119,7648,1,0,0:0:0:0:
408,119,8231,1,0,0:0:0:0:
407,136,8522,1,8,0:0:0:0:
414,114,8813,1,8,0:0:0:0:
407,136,9396,1,8,0:0:0:0:
407,136,9687,1,8,0:0:0:0:
407,134,9978,1,0,0:0:0:0:
407,136,10561,1,0,0:0:0:0:
419,142,11726,5,0,0:0:0:0:
414,143,12017,5,8,0:0:0:0:
411,138,12309,1,0,0:0:0:0:
418,137,12891,1,0,0:0:0:0:
420,143,13182,1,8,0:0:0:0:
420,143,13765,1,8,0:0:0:0:
420,143,14056,1,8,0:0:0:0:
420,143,14347,1,0,0:0:0:0:
416,151,14639,1,8,0:0:0:0:
438,160,15221,1,0,0:0:0:0:
432,157,16386,1,0,0:0:0:0:
430,157,16677,1,8,0:0:0:0:
427,126,16969,1,0,0:0:0:0:
426,125,17551,1,0,0:0:0:0:
429,127,17842,1,8,0:0:0:0:
427,125,18134,1,8,0:0:0:0:
426,125,18425,1,8,0:0:0:0:
426,125,18716,1,4,0:0:0:0:
445,128,19299,1,8,0:0:0:0:
439,135,20173,1,0,0:0:0:0:
442,132,20464,1,8,0:0:0:0:
441,136,21046,1,0,0:0:0:0:
442,132,21629,5,8,0:0:0:0:
456,112,22066,1,0,0:0:0:0:
434,128,22503,1,0,0:0:0:0:
428,112,22794,1,8,0:0:0:0:
429,111,23085,1,8,0:0:0:0:
426,112,23376,1,0,0:0:0:0:
428,119,23959,1,8,0:0:0:0:
417,113,24833,1,0,0:0:0:0:
417,113,25124,1,8,0:0:0:0:
429,124,25707,1,0,0:0:0:0:
418,126,25998,1,0,0:0:0:0:
418,126,26289,1,8,0:0:0:0:
414,117,26726,1,0,0:0:0:0:
430,119,27163,1,0,0:0:0:0:
429,124,27454,1,8,0:0:0:0:
423,115,28037,1,8,0:0:0:0:
416,117,28328,5,8,0:0:0:0:
411,127,28619,5,8,0:0:0:0:
413,129,29202,1,8,0:0:0:0:
411,127,29639,1,0,0:0:0:0:
413,129,30367,1,8,0:0:0:0:
402,120,30658,1,0,0:0:0:0:
402,120,30949,1,8,0:0:0:0:
402,120,31386,1,0,0:0:0:0:
396,125,32697,1,0,0:0:0:0:
402,120,32988,1,0,0:0:0:0:
402,120,33279,1,8,0:0:0:0:
396,125,33716,1,12,0:0:0:0:
394,120,35027,5,0,0:0:0:0:
394,120,35318,1,0,0:0:0:0:
394,120,35609,1,8,0:0:0:0:
394,120,36046,1,12,0:0:0:0:
414,125,37066,1,8,0:0:0:0:
424,151,37357,1,0,0:0:0:0:
420,127,37940,1,0,0:0:0:0:
420,127,38231,1,8,0:0:0:0:
401,117,38522,1,0,0:0:0:0:
420,127,39105,1,0,0:0:0:0:
420,124,39687,1,8,0:0:0:0:
440,107,39978,1,8,0:0:0:0:
442,109,40270,1,0,0:0:0:0:
437,124,40852,1,0,0:0:0:0:
444,121,41143,1,8,0:0:0:0:
444,120,41435,1,8,0:0:0:0:
444,121,42017,1,0,0:0:0:0:
432,115,42600,1,0,0:0:0:0:
432,115,42891,1,8,0:0:0:0:
444,121,43182,1,0,0:0:0:0:
441,111,43474,1,8,0:0:0:0:
452,117,44347,1,0,0:0:0:0:
434,108,44639,1,8,0:0:0:0:
431,108,44930,1,0,0:0:0:0:
442,121,45512,1,0,0:0:0:0:
440,112,45804,1,8,0:0:0:0:
448,112,46095,1,8,0:0:0:0:
449,113,46677,1,0,0:0:0:0:
431,100,46969,1,8,0:0:0:0:
435,101,47260,1,0,0:0:0:0:
435,101,47551,1,8,0:0:0:0:
442,104,47842,1,0,0:0:0:0:
442,104,49008,1,8,0:0:0:0:
439,92,49590,1,8,0:0:0:0:
428,103,49881,1,8,0:0:0:0:
439,88,50173,1,0,0:0:0:0:
439,92,50464,1,8,0:0:0:0:
439,92,50755,1,8,0:0:0:0:
438,90,51338,1,8,0:0:0:0:
439,92,51629,1,8,0:0:0:0:
439,88,52211,1,8,0:0:0:0:
439,92,52503,1,0,0:0:0:0:
439,92,52794,1,8,0:0:0:0:
455,85,53668,1,8,0:0:0:0:
439,88,54250,1,8,0:0:0:0:
443,89,54542,1,8,0:0:0:0:
445,90,54833,1,0,0:0:0:0:
406,83,55124,1,8,0:0:0:0:
457,90,55415,1,8,0:0:0:0:
433,83,55998,1,8,0:0:0:0:
457,89,56289,1,8,0:0:0:0:
458,90,56872,1,8,0:0:0:0:
454,85,57163,1,0,0:0:0:0:
457,90,57454,1,8,0:0:0:0:
451,94,58037,1,8,0:0:0:0:
451,75,58328,1,8,0:0:0:0:
460,92,58910,1,8,0:0:0:0:
446,86,59784,1,0,0:0:0:0:
445,82,60075,1,8,0:0:0:0:
445,82,60658,1,0,0:0:0:0:
444,85,61241,1,8,0:0:0:0:
445,82,61677,1,0,0:0:0:0:
444,85,62114,1,0,0:0:0:0:
444,85,62406,1,8,0:0:0:0:
436,91,62988,1,0,0:0:0:0:
436,91,63571,1,8,0:0:0:0:
443,90,64444,1,0,0:0:0:0:
443,91,64736,1,8,0:0:0:0:
436,91,65318,1,0,0:0:0:0:
443,90,65609,1,0,0:0:0:0:
443,91,65901,1,8,0:0:0:0:
436,91,66338,1,0,0:0:0:0:
417,89,66775,1,0,0:0:0:0:
439,81,67066,1,8,0:0:0:0:
423,115,67648,1,8,0:0:0:0:
416,117,67940,5,8,0:0:0:0:
411,127,68231,5,8,0:0:0:0:
413,129,68813,1,8,0:0:0:0:
411,127,69250,1,0,0:0:0:0:
413,129,69978,1,8,0:0:0:0:
402,120,70270,1,0,0:0:0:0:
402,120,70561,1,8,0:0:0:0:
402,120,70998,1,0,0:0:0:0:
396,125,72309,1,0,0:0:0:0:
402,120,72600,1,0,0:0:0:0:
402,120,72891,1,8,0:0:0:0:
396,125,73328,1,12,0:0:0:0:
394,120,74639,5,0,0:0:0:0:
394,120,74930,1,0,0:0:0:0:
394,120,75221,1,8,0:0:0:0:
394,120,75658,1,12,0:0:0:0:
414,125,76677,1,8,0:0:0:0:
424,151,76969,1,0,0:0:0:0:
420,127,77551,1,0,0:0:0:0:
420,127,77842,1,8,0:0:0:0:
401,117,78134,1,0,0:0:0:0:
420,127,78716,1,8,0:0:0:0:
420,124,79299,1,4,0:0:0:0:
420,124,83959,1,8,0:0:0:0:
440,107,84250,1,8,0:0:0:0:
442,109,84542,1,0,0:0:0:0:
437,124,85124,1,0,0:0:0:0:
444,121,85415,1,8,0:0:0:0:
444,120,85707,1,8,0:0:0:0:
444,121,86289,1,0,0:0:0:0:
432,115,86872,1,0,0:0:0:0:
432,115,87163,1,8,0:0:0:0:
444,121,87454,1,0,0:0:0:0:
441,111,87745,1,8,0:0:0:0:
440,112,88037,1,8,0:0:0:0:
452,117,88619,1,0,0:0:0:0:
434,108,88910,1,8,0:0:0:0:
431,108,89202,1,0,0:0:0:0:
442,121,89784,1,0,0:0:0:0:
440,112,90075,1,8,0:0:0:0:
448,112,90367,1,8,0:0:0:0:
449,113,90949,1,0,0:0:0:0:
431,100,91241,1,8,0:0:0:0:
435,101,91532,1,0,0:0:0:0:
435,101,91823,1,8,0:0:0:0:
442,104,92114,1,0,0:0:0:0:
442,104,93279,5,8,0:0:0:0:
434,101,93571,1,0,0:0:0:0:
449,92,93862,1,0,0:0:0:0:
374,104,94299,1,0,0:0:0:0:
442,88,95027,1,0,0:0:0:0:
430,97,95318,1,0,0:0:0:0:
442,89,95609,1,8,0:0:0:0:
442,88,95901,1,8,0:0:0:0:
430,72,96192,1,0,0:0:0:0:
435,78,96629,1,0,0:0:0:0:
432,78,97066,1,8,0:0:0:0:
443,84,97940,1,0,0:0:0:0:
436,84,98522,1,8,0:0:0:0:
443,84,98813,1,8,0:0:0:0:
449,75,99105,1,8,0:0:0:0:
452,71,99396,1,8,0:0:0:0:
428,91,100270,1,0,0:0:0:0:
440,80,100561,1,0,0:0:0:0:
425,71,100998,1,0,0:0:0:0:
443,67,101289,1,0,0:0:0:0:
441,73,101726,1,8,0:0:0:0:
441,73,102017,1,8,0:0:0:0:
443,74,102600,1,0,0:0:0:0:
443,74,102891,1,8,0:0:0:0:
455,69,103182,1,0,0:0:0:0:
456,70,103765,1,0,0:0:0:0:
465,71,104056,1,8,0:0:0:0:
469,68,104347,1,0,0:0:0:0:
477,57,104639,1,8,0:0:0:0:
475,57,104930,1,12,0:0:0:0:
