osu file format v14

[General]
AudioFilename: audio.mp3
AudioLeadIn: 0
PreviewTime: 188316
Countdown: 0
SampleSet: Soft
StackLeniency: 0.7
Mode: 0
LetterboxInBreaks: 0
WidescreenStoryboard: 0

[Editor]
Bookmarks: 29662,44431,59200,73970,88739,107200,121970,136739,155200,169970,188431,203200,217970,232739,247508,277047,306585,321354
DistanceSpacing: 0.7
BeatDivisor: 4
GridSize: 32
TimelineZoom: 1.7

[Metadata]
Title:Waterflow
TitleUnicode:Waterflow
Artist:tieff
ArtistUnicode:tieff
Creator:PandaHero
Version:Collab Insane
Source:
Tags:gibune trance instrumental electronic featured artist fa mappers' guild
BeatmapID:3056868
BeatmapSetID:1491275

[Difficulty]
HPDrainRate:6
CircleSize:5
OverallDifficulty:7
ApproachRate:8
SliderMultiplier:1.4
SliderTickRate:1

[Events]
//Background and Video events
0,0,"bg.jpg",0,0
//Break Periods
2,177554,180297
//Storyboard Layer 0 (Background)
//Storyboard Layer 1 (Fail)
//Storyboard Layer 2 (Pass)
//Storyboard Layer 3 (Foreground)
//Storyboard Layer 4 (Overlay)
//Storyboard Sound Samples
Sample,173662,0,"waterflow.mp3",35
Sample,321354,0,"waterflow.mp3",40

[TimingPoints]
124,461.538461538462,4,2,0,35,1,0
14893,-200,4,1,0,35,0,0
22277,-200,4,2,0,35,0,0
27354,-200,4,2,0,30,0,0
28739,-125,4,2,0,50,0,0
29662,-100,4,2,0,50,0,0
57354,-125,4,2,0,40,0,0
59200,-100,4,2,0,55,0,0
86662,-166.666666666667,4,2,0,40,0,0
88277,-125,4,2,0,50,0,0
92431,-90.9090909090909,4,2,0,60,0,0
118277,-125,4,2,0,40,0,0
121047,-500,4,2,0,35,0,0
121508,-125,4,2,0,50,0,0
121970,-90.9090909090909,4,2,0,60,0,0
146893,-125,4,2,0,50,0,0
147816,-250,4,2,0,40,0,0
155200,-250,4,2,0,30,0,0
158893,-250,4,2,0,20,0,0
162124,-250,4,2,0,35,0,0
162585,-133.333333333333,4,2,0,40,0,0
163508,-133.333333333333,4,2,0,45,0,0
164431,-133.333333333333,4,2,0,50,0,0
165585,-133.333333333333,4,2,0,40,0,0
166277,-133.333333333333,4,2,0,35,0,0
167431,-200,4,2,0,30,0,0
169970,-200,4,2,0,40,0,0
173662,-200,4,2,0,15,0,0
177354,-200,4,2,0,5,0,0
181047,-200,4,2,0,15,0,0
182893,-200,4,2,0,20,0,0
184739,-200,4,2,0,25,0,0
186585,-200,4,2,0,30,0,0
187508,-125,4,2,0,35,0,0
187970,-125,4,2,0,45,0,0
188431,-125,4,2,0,40,0,0
196277,-125,4,2,0,45,0,0
201354,-125,4,2,0,50,0,0
203200,-125,4,2,2,50,0,0
217047,-125,4,2,0,50,0,0
217970,-111.111111111111,4,2,0,55,0,0
220393,-111.111111111111,4,2,2,55,0,0
220508,-111.111111111111,4,2,0,55,0,0
232739,-111.111111111111,4,2,0,60,0,0
235162,-111.111111111111,4,2,2,60,0,0
235277,-111.111111111111,4,2,0,60,0,0
236662,-111.111111111111,4,2,0,45,0,0
236893,-111.111111111111,4,2,0,60,0,0
241970,-111.111111111111,4,2,0,65,0,0
243816,-111.111111111111,4,1,0,70,0,0
244739,-111.111111111111,4,1,0,60,0,0
245662,-111.111111111111,4,1,0,50,0,0
246585,-83.3333333333333,4,1,0,55,0,0
247508,-83.3333333333333,4,1,1,55,0,1
247624,-83.3333333333333,4,1,1,55,0,0
251200,-166.666666666667,4,1,1,55,0,1
251662,-83.3333333333333,4,1,1,55,0,0
253277,-71.4285714285714,4,1,1,55,0,1
253508,-71.4285714285714,4,1,1,55,0,0
253739,-83.3333333333333,4,1,1,55,0,0
258585,-66.6666666666667,4,1,1,55,0,1
259047,-66.6666666666667,4,1,1,55,0,0
259508,-83.3333333333333,4,1,1,55,0,0
273124,-66.6666666666667,4,1,1,55,0,0
273354,-166.666666666667,4,1,1,55,0,1
273816,-83.3333333333333,4,1,1,55,0,0
276354,-333.333333333333,4,1,1,55,0,0
277047,-71.4285714285714,4,1,1,55,0,1
277508,-71.4285714285714,4,1,1,55,0,0
287662,-142.857142857143,4,1,1,55,0,0
288124,-71.4285714285714,4,1,1,55,0,1
288585,-71.4285714285714,4,1,1,55,0,0
291816,-71.4285714285714,4,1,1,55,0,1
295508,-71.4285714285714,4,1,1,55,0,0
295970,-71.4285714285714,4,1,1,55,0,1
299085,-71.4285714285714,4,1,1,55,0,0
299200,-71.4285714285714,4,1,1,55,0,1
304739,-83.3333333333333,4,1,1,50,0,1
305200,-100,4,1,1,50,0,1
306585,-100,4,2,0,50,0,0

[Colours]
Combo1 : 122,129,158
Combo2 : 81,121,91
Combo3 : 120,160,155

[HitObjects]
256,192,11200,12,0,14662,0:0:0:0:
23,192,14893,5,4,0:0:0:0:
23,192,15585,1,0,0:0:0:0:
23,192,17431,1,2,0:3:0:0:
487,192,18585,5,0,0:0:0:0:
487,192,19277,1,0,0:0:0:0:
487,192,20662,1,2,0:3:0:0:
487,192,21124,1,0,0:0:0:0:
487,192,22277,5,4,1:2:0:0:
439,147,22508,1,0,0:0:0:0:
439,147,22624,1,2,0:0:0:0:
502,180,22970,1,0,1:0:0:0:
448,227,23200,1,0,0:0:0:0:
450,235,23316,1,0,0:0:0:0:
453,243,23431,1,0,0:0:0:0:
456,251,23547,1,2,0:0:0:0:
387,295,24124,6,0,L|376:268,2,17.5,0|0|0,0:0|3:0|0:0,0:0:0:0:
317,209,24816,1,0,1:0:0:0:
260,253,25047,1,0,0:0:0:0:
251,251,25162,1,0,0:0:0:0:
242,249,25277,1,0,0:0:0:0:
233,247,25393,1,2,0:0:0:0:
181,208,25970,6,2,L|98:227,1,70,0|0,1:0|0:0,0:0:0:0:
43,224,26662,2,0,L|54:175,1,35,0|0,1:0|0:0,0:0:0:0:
51,172,27008,1,0,0:0:0:0:
47,154,27124,1,2,0:0:0:0:
19,87,27354,6,0,L|63:74,3,35,0|0|2|0,3:0|0:0|0:0|0:0,0:0:0:0:
86,18,28277,2,0,L|128:29,1,35,0|0,3:0|0:0,0:0:0:0:
184,57,28739,6,0,L|243:128,1,84
264,130,29200,2,2,L|280:220,1,84,4|0,0:0|0:0,0:0:0:0:
298,241,29662,6,0,L|269:393,1,140,4|2,1:0|0:0,0:0:0:0:
136,306,30354,1,0,1:0:0:0:
201,263,30585,1,8,0:1:0:0:
201,362,30816,2,0,P|198:336|195:310,1,35,2|0,3:0|0:0,0:0:0:0:
132,205,31047,2,0,P|133:213|136:239,1,35,2|0,3:0|0:0,0:0:0:0:
136,239,31508,6,0,P|148:195|151:96,1,140,2|2,0:0|0:3,0:0:0:0:
164,91,32085,1,2,0:3:0:0:
164,91,32200,1,0,1:0:0:0:
164,91,32316,2,0,L|212:100,1,35,2|8,0:3|0:1,0:0:0:0:
363,119,32777,1,2,0:0:0:0:
339,124,32893,1,2,3:0:0:0:
316,132,33008,1,0,0:0:0:0:
293,139,33124,1,2,3:0:0:0:
398,215,33354,6,0,P|441:200|473:105,1,140,0|2,1:0|0:0,0:0:0:0:
475,118,33931,1,0,0:0:0:0:
475,118,34047,1,0,1:0:0:0:
512,241,34277,1,8,0:1:0:0:
512,241,34393,1,2,3:0:0:0:
469,301,34624,1,2,3:0:0:0:
469,301,34739,1,2,3:0:0:0:
510,362,34970,1,0,3:0:0:0:
400,268,35200,6,0,B|349:278|349:278|323:297|323:297|256:313,1,140,2|2,0:0|0:3,0:0:0:0:
260,326,35777,1,0,3:0:0:0:
260,326,35893,1,0,1:0:0:0:
260,326,36008,2,0,L|245:278,1,35,0|8,1:0|0:1,0:0:0:0:
187,227,36470,1,2,0:0:0:0:
191,203,36585,1,2,3:0:0:0:
194,178,36700,1,0,0:0:0:0:
200,154,36816,1,0,3:0:0:0:
141,97,37047,5,0,1:0:0:0:
128,91,37162,1,2,3:0:0:0:
46,119,37393,1,0,3:0:0:0:
32,122,37508,1,2,3:0:0:0:
67,47,37739,1,0,1:0:0:0:
107,166,37970,2,0,L|93:240,1,70,8|2,0:1|3:0,0:0:0:0:
42,288,38431,2,0,L|49:328,1,35,2|0,3:0|0:0,0:0:0:0:
89,372,38662,1,0,3:0:0:0:
220,292,38893,5,2,0:0:0:0:
208,284,39124,1,0,3:0:0:0:
195,276,39354,1,2,0:3:0:0:
168,371,39585,1,0,1:0:0:0:
168,371,39700,2,0,L|218:361,1,35,0|8,1:0|0:1,0:0:0:0:
316,306,40162,1,2,0:0:0:0:
339,312,40277,1,2,3:0:0:0:
362,318,40393,1,0,0:0:0:0:
385,324,40508,1,2,3:0:0:0:
446,312,40739,6,0,L|299:338,1,140,0|2,1:0|0:0,0:0:0:0:
296,348,41316,1,0,3:0:0:0:
296,348,41431,1,0,1:0:0:0:
242,253,41662,1,8,0:1:0:0:
310,161,41893,2,0,P|314:182|313:199,1,35,2|0,3:0|0:0,0:0:0:0:
407,244,42124,2,0,P|388:235|360:228,1,35,2|0,3:0|0:0,0:0:0:0:
374,230,42585,6,0,P|388:190|368:82,1,140,2|2,0:0|0:3,0:0:0:0:
372,86,43162,1,0,3:0:0:0:
372,86,43277,1,0,1:0:0:0:
372,86,43393,2,0,L|324:80,1,35,0|8,1:0|0:1,0:0:0:0:
225,24,43854,1,2,0:0:0:0:
201,30,43970,1,2,3:0:0:0:
177,36,44085,1,0,0:0:0:0:
153,42,44200,1,2,3:0:0:0:
17,138,44431,6,0,L|66:130,1,35,4|0,1:0|0:0,0:0:0:0:
119,151,44662,2,0,L|135:197,1,35,8|0,0:0|0:0,0:0:0:0:
104,253,44893,1,0,0:0:0:0:
93,275,45008,1,8,0:0:0:0:
81,296,45124,1,0,1:0:0:0:
71,318,45239,1,0,1:0:0:0:
58,339,45354,2,0,L|34:295,1,35,8|0,1:0|0:0,0:0:0:0:
133,357,45585,2,0,L|115:313,1,35,2|0,3:0|0:0,0:0:0:0:
179,244,45816,2,0,L|203:334,1,70,2|2,3:0|0:0,0:0:0:0:
197,311,46162,1,2,3:0:0:0:
197,311,46277,5,0,0:0:0:0:
286,344,46508,1,0,3:0:0:0:
332,268,46739,1,2,0:0:0:0:
332,268,46854,1,2,0:3:0:0:
246,227,47085,1,2,3:0:0:0:
246,227,47200,1,8,0:1:0:0:
412,271,47431,2,0,P|446:254|472:222,2,70,2|2|0,3:0|0:0|3:0,0:0:0:0:
344,121,48124,6,0,L|358:72,1,35,0|0,1:0|0:0,0:0:0:0:
386,22,48354,2,0,L|434:28,1,35,2|0,0:0|0:0,0:0:0:0:
494,106,48585,2,0,L|395:93,1,70,2|0,0:0|1:0,0:0:0:0:
424,96,48931,1,0,3:0:0:0:
424,96,49047,1,8,0:1:0:0:
360,196,49277,2,0,L|373:244,1,35,2|0,3:0|0:0,0:0:0:0:
307,298,49508,2,0,L|294:245,1,35,2|0,3:0|0:0,0:0:0:0:
268,192,49739,1,0,3:0:0:0:
268,192,49854,1,2,0:0:0:0:
268,192,49970,6,0,B|239:135|274:137|244:68,1,105
229,24,50431,2,0,L|187:31,1,35,2|0,0:0|0:0,0:0:0:0:
138,80,50662,1,0,1:0:0:0:
138,80,50777,1,0,3:0:0:0:
138,80,50893,2,0,L|96:75,1,35,8|0,0:1|0:0,0:0:0:0:
28,67,51124,1,2,0:0:0:0:
28,67,51354,2,2,P|64:98|56:163,1,105,2|0,0:3|0:0,0:0:0:0:
46,170,51816,6,0,L|30:255,1,70,0|2,1:0|0:0,0:0:0:0:
131,286,52277,1,0,3:0:0:0:
131,286,52393,1,8,0:0:0:0:
187,192,52624,1,2,0:3:0:0:
187,192,52739,1,8,0:1:0:0:
285,247,52970,1,2,3:0:0:0:
253,314,53200,1,0,3:0:0:0:
253,314,53316,1,8,0:0:0:0:
210,254,53547,1,0,3:0:0:0:
210,254,53662,6,0,P|253:246|252:173,1,105,2|0,0:0|0:0,0:0:0:0:
266,192,54124,1,2,0:3:0:0:
199,152,54354,1,0,1:0:0:0:
285,30,54585,2,0,L|318:62,1,35,8|0,0:1|0:0,0:0:0:0:
374,31,54816,2,0,L|392:73,1,35,2|0,0:0|0:0,0:0:0:0:
457,101,55047,2,0,L|455:66,2,35,2|0|2,0:3|0:0|0:0,0:0:0:0:
485,224,55508,5,0,1:0:0:0:
451,234,55624,1,0,3:0:0:0:
420,250,55739,2,0,P|394:297|380:356,1,105,2|0,0:0|0:0,0:0:0:0:
306,356,56200,1,0,1:0:0:0:
307,320,56316,1,2,0:0:0:0:
300,285,56431,2,0,L|281:241,2,35,8|0|2,0:1|0:0|0:0,0:0:0:0:
350,193,56893,2,0,L|347:216,2,17.5,2|0|0,3:0|3:0|3:0,3:0:0:0:
290,144,57124,1,0,0:0:0:0:
290,144,57239,1,2,0:0:0:0:
290,144,57354,6,2,P|220:135|251:31,1,196,0|0,0:0|0:0,0:0:0:0:
262,20,58277,2,0,L|272:110,1,84
302,164,58739,2,2,L|292:80,1,84,0|0,3:0|0:0,0:0:0:0:
302,2,59200,6,0,L|319:162,1,140,4|8,1:0|0:0,0:0:0:0:
317,141,59777,1,8,0:1:0:0:
317,141,59893,1,0,1:0:0:0:
416,237,60124,2,0,P|464:220|501:219,2,70,8|2|2,0:1|0:0|0:0,0:0:0:0:
350,298,60816,5,0,3:0:0:0:
336,295,60931,1,2,0:3:0:0:
255,332,61162,1,0,3:0:0:0:
242,337,61277,1,2,0:3:0:0:
167,290,61508,1,8,0:0:0:0:
242,243,61739,1,0,1:0:0:0:
146,365,61970,2,0,P|143:304|135:240,1,105,8|0,0:1|0:0,0:0:0:0:
138,260,62431,1,2,0:0:0:0:
19,218,62662,2,0,P|43:214|63:202,1,35,0|0,3:0|0:0,0:0:0:0:
103,152,62893,6,0,P|155:140|248:174,1,140,0|2,1:0|0:3,0:0:0:0:
291,255,63585,1,0,1:0:0:0:
393,157,63816,2,0,L|354:163,1,35,8|0,0:1|0:0,0:0:0:0:
424,218,64047,2,0,L|462:224,1,35,2|0,3:0|0:0,0:0:0:0:
396,245,64277,2,0,L|361:254,1,35,2|0,3:0|0:0,0:0:0:0:
454,357,64508,5,8,0:0:0:0:
454,357,64624,1,8,0:1:0:0:
465,292,64854,1,8,0:0:0:0:
465,292,64970,1,8,0:1:0:0:
400,281,65200,1,2,0:3:0:0:
389,346,65431,1,0,1:0:0:0:
389,346,65547,1,0,3:0:0:0:
389,346,65662,1,8,0:1:0:0:
454,357,65893,5,2,0:0:0:0:
454,357,66008,1,2,3:0:0:0:
465,292,66239,1,0,3:0:0:0:
465,292,66354,1,2,3:0:0:0:
400,281,66585,6,0,L|309:289,1,70,0|8,1:0|0:0,0:0:0:0:
230,243,67047,1,2,0:3:0:0:
230,243,67162,1,8,0:1:0:0:
230,243,67277,1,0,1:0:0:0:
254,373,67508,2,0,P|264:338|260:297,1,70,8|0,0:1|3:0,0:0:0:0:
297,195,67970,5,0,3:0:0:0:
297,195,68085,1,2,3:0:0:0:
237,78,68316,1,0,3:0:0:0:
229,98,68431,1,2,0:0:0:0:
222,119,68547,1,0,3:0:0:0:
215,139,68662,1,8,0:0:0:0:
364,122,68893,5,2,0:3:0:0:
309,83,69124,1,0,1:0:0:0:
464,37,69354,2,0,P|452:98|447:187,1,140,8|2,0:1|3:0,0:0:0:0:
446,175,69931,1,0,3:0:0:0:
446,175,70047,1,2,0:0:0:0:
396,259,70277,6,0,P|361:261|319:280,1,70,0|0,1:0|0:0,0:0:0:0:
328,273,70624,1,0,3:0:0:0:
328,273,70739,1,2,0:3:0:0:
222,220,70970,1,0,1:0:0:0:
222,220,71085,1,2,0:0:0:0:
222,220,71200,2,0,L|210:299,1,70,8|2,0:1|3:0,0:0:0:0:
170,361,71662,2,0,P|155:352|128:341,1,35,2|0,3:0|0:0,0:0:0:0:
57,340,71893,5,0,3:0:0:0:
44,345,72008,1,8,0:2:0:0:
94,278,72239,1,8,0:0:0:0:
81,273,72354,1,8,0:1:0:0:
30,215,72585,1,2,0:3:0:0:
106,169,72816,1,0,1:0:0:0:
106,169,72931,1,0,3:0:0:0:
106,169,73047,2,0,P|111:132|97:92,2,70,8|2|2,0:1|0:0|0:3,0:0:0:0:
31,106,73739,1,0,3:0:0:0:
96,12,73970,6,0,L|142:28,1,35,4|0,1:0|0:0,0:0:0:0:
197,38,74200,2,0,L|210:83,1,35,8|0,0:0|0:0,0:0:0:0:
218,140,74431,1,8,0:0:0:0:
212,160,74547,1,8,0:1:0:0:
206,180,74662,1,0,1:0:0:0:
200,200,74777,1,0,3:0:0:0:
194,220,74893,2,0,L|281:205,1,70,8|2,0:1|3:3,0:0:0:0:
358,219,75354,1,2,3:0:0:0:
358,219,75470,1,0,3:0:0:0:
437,130,75700,5,2,3:0:0:0:
417,122,75816,1,0,0:0:0:0:
397,113,75931,1,2,3:0:0:0:
377,105,76047,1,8,0:0:0:0:
312,51,76277,1,2,0:3:0:0:
397,24,76508,1,0,1:0:0:0:
494,165,76739,2,2,L|471:272,1,105,8|0,0:1|0:0,0:0:0:0:
471,289,77200,2,0,L|461:214,1,70,2|0,0:0|3:0,0:0:0:0:
319,303,77662,6,0,P|271:314|199:332,1,105,0|0,1:0|0:0,0:0:0:0:
197,332,78124,1,2,0:3:0:0:
112,357,78354,1,0,1:0:0:0:
145,231,78585,2,2,P|108:247|59:269,1,70,8|0,0:1|0:0,0:0:0:0:
80,259,78931,1,0,3:0:0:0:
80,259,79047,1,2,3:0:0:0:
178,153,79277,5,0,3:0:0:0:
198,159,79393,1,2,3:0:0:0:
218,164,79508,1,0,0:0:0:0:
236,173,79624,1,2,3:0:0:0:
253,184,79739,2,0,L|276:234,1,35,8|0,0:0|0:0,0:0:0:0:
328,254,79970,2,0,L|341:312,1,35,2|0,0:0|0:0,0:0:0:0:
372,178,80200,1,0,1:0:0:0:
372,178,80316,1,0,3:0:0:0:
372,178,80431,2,0,P|410:176|474:177,1,70,8|2,0:1|0:0,0:0:0:0:
497,254,80893,2,0,P|459:256|395:255,1,70,2|0,0:3|3:0,0:0:0:0:
287,164,81354,5,0,1:0:0:0:
260,84,81585,1,8,0:0:0:0:
341,104,81816,1,8,0:1:0:0:
159,38,82047,5,0,1:0:0:0:
159,38,82162,1,0,1:0:0:0:
159,38,82277,1,8,0:1:0:0:
181,119,82508,1,2,0:3:0:0:
100,91,82739,1,0,3:0:0:0:
100,91,82854,1,2,3:0:0:0:
22,178,83085,5,0,3:0:0:0:
42,184,83200,1,2,0:0:0:0:
61,191,83316,1,0,3:0:0:0:
80,197,83431,1,8,0:0:0:0:
164,239,83662,1,2,0:3:0:0:
80,283,83893,1,0,1:0:0:0:
80,283,84008,1,0,3:0:0:0:
80,283,84124,2,2,L|65:366,1,70,8|0,0:1|3:0,0:0:0:0:
159,345,84585,2,0,L|152:373,1,17.5,2|0,0:0|0:0,0:0:0:0:
164,331,84700,2,0,B|177:318|177:318|250:333,1,70,2|0,0:0|0:0,0:0:0:0:
259,333,85047,5,0,3:0:0:0:
259,333,85162,2,0,L|235:253,1,70,2|0,3:0|0:0,0:0:0:0:
232,253,85508,2,0,L|239:201,1,35,2|0,0:0|0:0,0:0:0:0:
319,170,85854,1,0,3:0:0:0:
313,183,85970,1,8,0:0:0:0:
359,234,86200,1,2,0:3:0:0:
423,206,86431,1,2,0:0:0:0:
482,356,86662,5,0,0:0:0:0:
482,356,86777,1,2,3:0:0:0:
415,333,87008,1,0,0:0:0:0:
415,333,87124,1,2,3:0:0:0:
482,356,87354,2,0,L|488:328,1,20.9999993591309,2|0,0:0|0:0,0:0:0:0:
334,269,87700,5,2,3:0:0:0:
334,269,87816,2,2,L|326:351,1,62.9999980773926,8|0,0:0|0:0,0:0:0:0:
326,348,88277,2,2,B|292:330|292:330|234:338,1,84,2|0,0:0|0:0,0:0:0:0:
217,317,88739,6,0,L|93:333,1,112,4|0,1:2|0:0,0:0:0:0:
105,331,89316,1,0,0:0:0:0:
105,331,89431,1,2,0:0:0:0:
39,288,89662,5,8,0:0:0:0:
74,222,89893,1,0,3:0:0:0:
74,222,90008,1,8,0:0:0:0:
31,164,90239,1,0,3:0:0:0:
31,164,90354,1,8,0:0:0:0:
83,106,90585,6,0,L|183:122,2,84,2|0|0,0:0|3:0|0:0,0:0:0:0:
83,106,91393,1,0,3:0:0:0:
83,106,91508,1,2,3:0:0:0:
198,42,91739,1,0,1:0:0:0:
198,42,92200,1,8,0:0:0:0:
83,106,92431,6,0,P|72:144|83:200,1,77.0000023498536,4|2,1:0|0:0,0:0:0:0:
136,243,92893,1,2,0:0:0:0:
315,179,93124,1,0,1:0:0:0:
315,179,93239,1,0,3:0:0:0:
315,179,93354,1,8,0:1:0:0:
234,151,93585,6,0,L|246:203,1,38.5000011749268,2|0,0:3|0:0,0:0:0:0:
279,250,93816,2,0,L|269:296,1,38.5000011749268,2|0,0:3|0:0,0:0:0:0:
336,371,94047,5,0,3:0:0:0:
344,349,94162,1,2,0:0:0:0:
464,288,94393,1,8,0:0:0:0:
469,310,94508,1,8,0:1:0:0:
387,279,94739,1,2,0:0:0:0:
429,174,94970,1,0,1:0:0:0:
429,174,95085,1,2,0:0:0:0:
429,174,95200,5,8,0:1:0:0:
400,161,95316,1,2,0:0:0:0:
369,156,95431,1,0,3:0:0:0:
338,160,95547,1,0,3:0:0:0:
308,167,95662,1,2,0:0:0:0:
279,177,95777,1,0,0:0:0:0:
248,181,95893,1,0,3:0:0:0:
217,179,96008,1,0,3:0:0:0:
186,172,96124,6,0,P|180:126|204:46,2,115.50000352478,0|8|0,1:0|0:0|1:0,0:0:0:0:
151,286,97047,2,0,P|147:313|127:364,1,77.0000023498536,8|0,0:1|0:0,0:0:0:0:
9,294,97508,1,0,3:0:0:0:
9,294,97624,1,2,3:0:0:0:
76,257,97854,5,0,3:0:0:0:
76,257,97970,2,0,P|86:215|79:179,1,77.0000023498536,2|2,3:0|0:0,0:0:0:0:
140,78,98431,1,2,0:0:0:0:
144,92,98547,1,0,3:0:0:0:
148,106,98662,1,0,1:0:0:0:
153,120,98777,1,0,3:0:0:0:
158,134,98893,1,8,0:1:0:0:
240,80,99124,1,2,0:0:0:0:
243,65,99239,1,0,0:0:0:0:
246,50,99354,1,0,3:0:0:0:
324,2,99585,5,0,3:0:0:0:
327,16,99700,1,0,3:0:0:0:
330,31,99816,2,0,P|373:48|411:51,1,77.0000023498536,4|2,1:2|0:0,0:0:0:0:
495,22,100277,1,2,0:3:0:0:
432,146,100508,1,0,1:0:0:0:
432,146,100624,1,0,3:0:0:0:
432,146,100739,1,8,0:1:0:0:
457,237,100970,6,0,L|497:232,1,38.5000011749268,2|0,3:0|0:0,0:0:0:0:
385,205,101200,2,0,L|319:196,1,38.5000011749268,2|0,3:0|0:0,0:0:0:0:
271,247,101431,5,0,3:0:0:0:
271,247,101547,1,2,3:0:0:0:
190,216,101777,1,0,3:0:0:0:
190,216,101893,1,8,3:2:0:0:
204,297,102124,1,2,0:0:0:0:
256,173,102354,1,0,1:0:0:0:
124,259,102585,2,0,P|71:272|50:371,1,154.000004699707,8|0,0:1|3:0,0:0:0:0:
175,314,103277,1,2,0:0:0:0:
108,183,103508,5,4,1:0:0:0:
184,120,103739,1,8,0:0:0:0:
190,142,103854,1,0,3:0:0:0:
197,164,103970,1,0,3:0:0:0:
204,185,104085,1,8,0:2:0:0:
210,207,104200,1,0,1:0:0:0:
351,157,104431,5,8,0:1:0:0:
268,119,104662,1,2,0:0:0:0:
290,221,104893,1,2,3:0:0:0:
290,221,105008,2,0,L|269:323,1,77.0000023498536,8|0,0:0|0:0,0:0:0:0:
274,296,105354,5,2,0:0:0:0:
434,304,105585,1,0,3:0:0:0:
388,252,105816,1,0,3:0:0:0:
365,258,105931,1,8,0:0:0:0:
482,360,106162,1,0,3:0:0:0:
505,366,106277,1,8,0:1:0:0:
434,304,106508,5,0,3:0:0:0:
492,177,106739,1,2,0:0:0:0:
492,177,107200,6,0,B|472:168|472:168|403:176,1,77.0000023498536,4|2,1:0|0:0,0:0:0:0:
328,190,107662,1,2,0:3:0:0:
262,72,107893,1,0,1:0:0:0:
262,72,108008,1,0,3:0:0:0:
262,72,108124,2,0,B|282:81|282:81|351:73,1,77.0000023498536,8|2,0:1|0:0,0:0:0:0:
402,18,108585,1,2,0:3:0:0:
177,146,108816,1,0,3:0:0:0:
177,146,108931,1,2,3:0:0:0:
177,146,109047,6,0,B|157:137|157:137|88:145,1,77.0000023498536,2|8,0:0|0:0,0:0:0:0:
12,64,109508,2,0,B|32:73|32:73|101:65,1,77.0000023498536,2|0,0:3|1:0,0:0:0:0:
57,200,109970,2,0,L|25:338,1,115.50000352478,8|0,0:1|0:0,0:0:0:0:
33,335,110431,1,2,0:0:0:0:
106,362,110662,1,0,3:0:0:0:
208,188,110893,6,0,L|274:206,1,38.5000011749268,4|0,1:0|0:0,0:0:0:0:
276,128,111124,2,0,L|330:169,1,38.5000011749268,8|0,0:0|0:0,0:0:0:0:
402,187,111354,1,2,1:3:0:0:
402,187,111470,2,0,L|382:153,1,38.5000011749268,8|0,0:0|0:0,0:0:0:0:
480,258,111700,5,0,1:0:0:0:
480,258,111816,2,0,L|429:298,1,38.5000011749268,8|0,0:1|0:0,0:0:0:0:
379,264,112047,2,0,L|346:320,1,38.5000011749268,2|0,3:0|0:0,0:0:0:0:
316,364,112277,2,0,L|373:372,2,38.5000011749268,2|0|2,3:0|0:0|0:0,0:0:0:0:
274,305,112624,5,0,3:0:0:0:
274,305,112739,2,0,B|186:281|206:346|96:318,1,154.000004699707,4|2,1:2|0:3,0:0:0:0:
14,192,113431,1,0,1:0:0:0:
14,192,113547,1,0,3:0:0:0:
14,192,113662,2,0,P|70:173|80:103,1,115.50000352478,8|0,0:1|0:0,0:0:0:0:
76,81,114124,1,2,0:0:0:0:
76,81,114239,2,2,L|-12:107,1,77.0000023498536,0|0,3:0|0:0,0:0:0:0:
7,26,114585,5,4,1:0:0:0:
193,185,114816,1,2,0:0:0:0:
235,168,114931,1,0,3:0:0:0:
281,169,115047,1,2,0:3:0:0:
323,187,115162,1,2,0:0:0:0:
357,217,115277,1,0,1:0:0:0:
393,245,115393,1,0,3:0:0:0:
438,249,115508,6,0,L|477:244,1,38.5000011749268,8|0,0:1|0:0,0:0:0:0:
440,323,115739,2,0,L|479:318,1,38.5000011749268,2|0,3:0|0:0,0:0:0:0:
364,309,115970,2,0,L|325:304,1,38.5000011749268,2|0,0:0|0:0,0:0:0:0:
183,298,116200,5,0,3:0:0:0:
183,298,116316,1,0,3:0:0:0:
183,298,116431,1,2,0:0:0:0:
238,347,116662,1,8,0:0:0:0:
129,350,116893,5,2,0:0:0:0:
153,374,117124,1,0,3:0:0:0:
31,303,117354,6,0,L|58:382,1,77.0000023498536,8|0,0:1|0:0,0:0:0:0:
110,196,117816,2,2,L|95:294,1,77.0000023498536,2|0,0:0|3:0,0:0:0:0:
23,188,118277,6,0,B|4:146|4:146|61:15,1,168,4|0,1:0|0:0,0:0:0:0:
52,34,119200,1,2,3:0:0:0:
489,196,120124,6,0,B|508:238|508:238|451:369,1,168,0|0,0:0|1:0,0:0:0:0:
382,359,121047,6,0,L|389:333,1,21,0|0,3:0|0:0,0:0:0:0:
378,245,121508,6,2,L|355:341,1,84,0|0,0:0|0:0,0:0:0:0:
335,337,121970,6,0,B|318:352|318:352|246:342,1,77.0000023498536,4|2,1:0|0:0,0:0:0:0:
159,280,122431,1,2,0:3:0:0:
239,227,122662,1,0,1:0:0:0:
242,245,122777,1,0,3:0:0:0:
244,264,122893,1,8,0:1:0:0:
176,360,123124,2,0,B|159:351|159:351|91:363,1,77.0000023498536,2|0,0:3|3:0,0:0:0:0:
20,307,123585,5,0,3:0:0:0:
33,313,123700,1,2,3:0:0:0:
90,244,123931,1,0,3:0:0:0:
78,247,124047,1,8,0:0:0:0:
42,116,124277,2,0,P|28:146|28:196,1,77.0000023498536,0|2,1:0|0:0,0:0:0:0:
154,193,124739,5,8,0:1:0:0:
179,185,124854,1,2,0:0:0:0:
202,171,124970,1,0,3:0:0:0:
225,158,125085,1,2,0:0:0:0:
250,150,125200,1,2,3:0:0:0:
276,146,125316,1,2,0:0:0:0:
302,148,125431,1,2,3:0:0:0:
328,154,125547,1,0,3:0:0:0:
352,164,125662,6,0,P|403:171|453:78,1,154.000004699707,0|8,1:0|0:0,0:0:0:0:
453,84,126239,1,8,0:0:0:0:
453,84,126354,1,0,1:0:0:0:
495,205,126585,2,2,L|479:365,1,154.000004699707,8|2,0:1|0:0,0:0:0:0:
365,318,127277,5,0,3:0:0:0:
380,314,127393,1,2,3:0:0:0:
293,278,127624,1,0,3:0:0:0:
278,274,127739,1,8,0:0:0:0:
296,359,127970,1,2,0:0:0:0:
366,217,128200,1,0,1:0:0:0:
242,169,128431,1,8,0:1:0:0:
242,169,129354,6,0,B|253:152|253:152|251:92,1,77.0000023498536,4|2,1:0|0:0,0:0:0:0:
183,10,129816,1,2,0:3:0:0:
111,95,130047,1,0,1:0:0:0:
129,100,130162,1,0,3:0:0:0:
147,104,130277,1,8,0:1:0:0:
258,27,130508,2,0,B|280:19|280:19|345:32,1,77.0000023498536,2|2,0:3|3:0,0:0:0:0:
455,112,130970,5,0,3:0:0:0:
449,126,131085,1,2,0:0:0:0:
509,46,131316,1,0,3:0:0:0:
506,30,131431,1,8,0:0:0:0:
426,28,131662,1,2,3:0:0:0:
407,42,131777,1,2,0:0:0:0:
393,61,131893,1,0,1:0:0:0:
384,82,132008,1,0,3:0:0:0:
378,104,132124,1,8,0:1:0:0:
455,313,132585,5,2,0:0:0:0:
464,292,132700,1,0,3:0:0:0:
471,269,132816,1,2,0:0:0:0:
478,247,132931,1,0,3:0:0:0:
484,224,133047,6,0,L|388:244,2,77.0000023498536,4|8|8,1:0|0:0|0:0,0:0:0:0:
406,169,133739,1,0,1:0:0:0:
326,266,133970,2,0,B|286:281|286:281|160:260,1,154.000004699707,8|2,0:1|0:0,0:0:0:0:
59,202,134662,5,0,3:0:0:0:
72,195,134777,1,2,3:0:0:0:
139,141,135008,1,0,3:0:0:0:
153,145,135124,1,8,0:0:0:0:
237,202,135354,1,2,0:0:0:0:
305,130,135585,1,0,1:0:0:0:
231,20,135816,2,0,L|216:118,1,77.0000023498536,8|0,0:1|0:0,0:0:0:0:
237,202,136277,2,0,L|240:242,2,38.5000011749268,0|0|2,0:0|3:0|3:0,0:0:0:0:
347,285,136739,5,4,1:0:0:0:
394,364,136970,1,2,0:0:0:0:
482,337,137200,1,2,0:0:0:0:
406,214,137431,5,0,1:0:0:0:
406,214,137547,1,0,3:0:0:0:
406,214,137662,1,8,0:1:0:0:
347,285,137893,1,2,0:0:0:0:
263,244,138124,1,2,0:0:0:0:
261,134,138354,5,0,3:0:0:0:
261,134,138470,1,2,3:0:0:0:
317,189,138700,1,0,3:0:0:0:
317,189,138816,1,8,0:0:0:0:
263,244,139047,2,0,L|172:235,1,77.0000023498536,2|0,0:0|1:0,0:0:0:0:
165,220,139393,1,0,3:0:0:0:
165,220,139508,2,2,L|22:238,1,115.50000352478,8|0,0:1|0:0,0:0:0:0:
27,213,139970,2,0,L|134:198,1,77.0000023498536,2|0,0:0|0:0,0:0:0:0:
189,52,140431,5,0,1:0:0:0:
202,60,140547,1,0,3:0:0:0:
216,55,140662,1,0,3:0:0:0:
216,39,140777,1,0,0:0:0:0:
188,25,140893,1,0,3:0:0:0:
161,39,141008,1,2,3:0:0:0:
149,67,141124,1,0,1:0:0:0:
166,92,141239,1,0,3:0:0:0:
193,104,141354,6,0,L|255:113,1,38.5000011749268,8|0,0:1|0:0,0:0:0:0:
306,81,141585,2,0,L|368:90,1,38.5000011749268,2|0,3:0|0:0,0:0:0:0:
414,124,141816,1,2,3:0:0:0:
429,126,141931,1,0,3:0:0:0:
444,129,142047,1,2,0:0:0:0:
459,131,142162,1,0,3:0:0:0:
486,144,142277,6,2,B|394:135|419:186|324:193,1,154.000004699707,4|2,1:2|0:3,0:0:0:0:
252,173,142970,1,0,1:0:0:0:
252,173,143085,1,0,3:0:0:0:
252,173,143200,2,0,P|257:124|268:92,1,77.0000023498536,8|0,0:1|0:0,0:0:0:0:
320,19,143662,1,0,3:0:0:0:
320,19,144124,5,4,1:0:0:0:
175,198,144354,1,2,0:0:0:0:
147,212,144470,1,0,1:0:0:0:
119,225,144585,1,2,0:3:0:0:
89,234,144700,1,0,1:0:0:0:
59,241,144816,2,0,L|-2:234,1,38.5000011749268,0|0,1:0|0:0,0:0:0:0:
95,313,145047,6,0,L|145:308,1,38.5000011749268,8|0,0:1|0:0,0:0:0:0:
203,278,145277,1,2,0:0:0:0:
217,282,145393,1,0,3:0:0:0:
232,284,145508,2,0,L|283:295,1,38.5000011749268,0|0,1:0|0:0,0:0:0:0:
310,351,145739,2,0,L|363:344,1,38.5000011749268,2|0,1:2|0:0,0:0:0:0:
490,260,145970,6,2,L|388:249,1,77.0000023498536,4|8,1:2|0:0,0:0:0:0:
286,174,146431,2,0,L|362:165,1,77.0000023498536,2|0,0:0|1:0,0:0:0:0:
459,29,146893,6,2,L|345:44,1,112,4|0,0:0|3:0,0:0:0:0:
347,43,147585,1,0,0:0:0:0:
496,118,147816,6,0,L|478:232,2,112,0|0|0,1:0|3:0|0:0,0:0:0:0:
496,118,150124,1,0,1:0:0:0:
425,134,150585,1,0,3:0:0:0:
259,358,151508,6,0,L|250:243,2,112,0|0|0,1:0|3:0|0:0,0:0:0:0:
260,170,153816,1,0,1:0:0:0:
236,234,154277,1,0,3:0:0:0:
236,234,155200,6,0,L|224:118,2,112,4|0|4,1:2|3:0|0:0,0:0:0:0:
372,221,157508,1,0,1:0:0:0:
433,258,157970,1,0,3:0:0:0:
433,258,158893,1,0,1:0:0:0:
256,192,159008,12,0,161662,3:0:0:0:
358,114,162124,5,0,1:0:0:0:
358,114,162585,2,0,L|290:130,1,52.5000020027161,0|0,1:0|0:0,0:0:0:0:
276,108,162931,2,0,L|332:97,1,52.5000020027161,0|0,3:0|0:0,0:0:0:0:
339,66,163277,1,2,3:0:0:0:
261,19,163508,5,0,0:0:0:0:
200,78,163739,1,0,3:0:0:0:
200,78,163854,1,2,3:0:0:0:
216,146,164085,1,0,0:0:0:0:
216,146,164200,1,0,3:0:0:0:
113,218,164431,5,0,1:0:0:0:
49,179,164662,1,0,0:0:0:0:
49,179,164777,1,0,3:0:0:0:
116,141,165008,1,0,0:0:0:0:
116,141,165124,1,2,3:0:0:0:
195,224,165354,5,0,3:0:0:0:
268,256,165585,1,0,3:0:0:0:
285,251,165700,1,2,3:0:0:0:
302,246,165816,1,0,0:0:0:0:
319,240,165931,1,0,3:0:0:0:
336,235,166047,1,2,3:0:0:0:
321,317,166277,5,0,0:0:0:0:
269,179,166508,1,0,3:0:0:0:
272,166,166624,1,0,3:0:0:0:
275,153,166739,1,2,0:0:0:0:
279,140,166854,1,0,3:0:0:0:
284,127,166970,1,2,3:0:0:0:
392,30,167431,6,0,L|395:57,2,17.5,0|0|2,0:0|0:0|0:0,0:0:0:0:
486,107,168354,2,0,L|477:138,2,17.5,0|0|2,0:0|0:0|0:0,0:0:0:0:
424,213,169277,2,0,L|431:242,4,17.5,0|0|0|0|2,0:0|0:0|3:0|3:0|0:0,0:0:0:0:
366,155,169970,5,0,1:0:0:0:
283,186,170200,1,0,0:0:0:0:
283,186,170316,1,0,3:0:0:0:
315,275,170547,1,0,0:0:0:0:
315,275,170662,1,2,3:0:0:0:
249,325,170893,5,0,0:0:0:0:
193,277,171124,1,0,0:0:0:0:
193,277,171239,1,0,3:0:0:0:
123,306,171470,1,0,0:0:0:0:
123,306,171585,1,0,3:0:0:0:
36,249,171816,5,0,1:0:0:0:
108,193,172047,1,0,0:0:0:0:
108,193,172162,1,0,3:0:0:0:
31,152,172393,1,0,0:0:0:0:
31,152,172508,1,2,3:0:0:0:
110,98,172739,6,2,L|86:247,1,140,0|0,3:0|1:0,0:0:0:0:
256,192,173777,12,0,177354,0:0:0:0:
124,163,181047,5,0,0:0:0:0:
190,133,181393,1,0,0:0:0:0:
247,183,181624,1,2,0:0:0:0:
247,183,181739,1,0,3:0:0:0:
210,242,181970,1,0,0:0:0:0:
142,234,182316,1,0,0:0:0:0:
207,255,182662,1,0,0:0:0:0:
253,312,182893,6,0,L|307:302,1,52.5,0|2,3:0|0:0,0:0:0:0:
304,302,183354,1,0,0:0:0:0:
374,330,183585,1,0,3:0:0:0:
423,269,183816,2,0,B|391:250|391:250|411:152,1,122.5,2|0,0:0|0:0,0:0:0:0:
413,147,184739,5,0,0:0:0:0:
355,109,184970,1,0,0:0:0:0:
355,109,185085,1,0,3:0:0:0:
297,152,185316,1,2,0:0:0:0:
297,152,185431,1,0,0:0:0:0:
233,110,185662,2,0,L|245:62,2,35,0|0|0,0:0|3:0|3:0,0:0:0:0:
170,151,186585,5,0,0:0:0:0:
247,221,186931,1,0,0:0:0:0:
180,237,187162,1,2,0:0:0:0:
180,237,187277,1,0,0:0:0:0:
319,210,187508,6,0,L|302:306,1,84,0|0,3:0|0:0,3:0:0:0:
324,321,187970,2,2,L|338:238,1,84,0|0,0:0|0:0,0:0:0:0:
375,224,188431,5,0,1:0:0:0:
446,256,188893,1,2,0:0:0:0:
496,195,189354,1,0,0:0:0:0:
456,126,189816,1,0,0:0:0:0:
382,152,190277,1,2,0:0:0:0:
306,130,190739,1,0,0:0:0:0:
305,51,191200,1,0,0:0:0:0:
375,17,191662,1,0,0:0:0:0:
375,17,192585,5,0,1:0:0:0:
361,94,193047,1,2,0:0:0:0:
347,171,193508,1,0,0:0:0:0:
331,247,193970,1,0,0:0:0:0:
473,330,194431,5,2,0:0:0:0:
401,298,194893,1,0,0:0:0:0:
333,338,195354,1,0,0:0:0:0:
409,379,195816,2,0,L|400:308,1,56,4|0,0:0|0:0,0:0:0:0:
340,271,196277,5,0,3:0:0:0:
265,294,196739,1,2,0:0:0:0:
187,281,197200,1,0,0:0:0:0:
142,216,197662,1,0,0:0:0:0:
160,139,198124,1,2,0:0:0:0:
217,85,198585,1,0,0:0:0:0:
165,25,199047,1,0,0:0:0:0:
159,27,199970,5,0,1:0:0:0:
234,6,200431,1,2,0:0:0:0:
291,59,200893,1,0,0:0:0:0:
231,181,201354,5,0,1:0:0:0:
294,134,201816,1,0,0:0:0:0:
364,167,202277,1,4,0:0:0:0:
366,245,202739,1,2,0:0:0:0:
297,278,203200,5,4,1:2:0:0:
297,278,203662,2,0,L|268:283,2,28,0|2|0,0:0|0:0|0:0,0:0:0:0:
336,340,204124,2,0,L|404:331,1,56,0|0,0:0|3:0,0:0:0:0:
407,320,204470,1,0,3:0:0:0:
407,320,204585,2,0,L|466:329,1,56,0|0,0:0|3:0,0:0:0:0:
488,262,205047,6,0,B|461:240|461:240|442:149,1,112,2|0,3:0|0:0,0:0:0:0:
445,164,205624,1,2,0:0:0:0:
445,164,205739,1,0,0:0:0:0:
456,93,205970,2,0,L|523:103,2,56,0|0|0,0:0|3:0|0:0,0:0:0:0:
389,64,206893,1,0,0:0:0:0:
389,64,207354,6,0,L|298:88,1,84,0|0,1:0|0:0,0:0:0:0:
289,93,207816,1,0,0:0:0:0:
312,163,208047,1,0,3:0:0:0:
387,184,208277,1,0,0:0:0:0:
387,184,208739,5,0,3:0:0:0:
314,276,209085,2,0,L|318:248,2,28,2|0|2,0:0|0:0|0:0,0:0:0:0:
202,134,209662,2,0,L|210:199,1,56,0|0,3:0|0:0,0:0:0:0:
138,266,210124,2,0,L|138:202,1,56,0|0,3:0|0:0,0:0:0:0:
60,194,210585,5,4,0:0:0:0:
60,194,210816,1,0,3:0:0:0:
60,194,211047,2,0,L|23:206,2,28,0|2|0,0:0|0:0|0:0,0:0:0:0:
80,106,211508,2,2,L|-19:140,1,84,0|0,1:0|0:0,0:0:0:0:
8,115,211970,2,0,L|35:56,1,56,0|0,3:0|0:0,0:0:0:0:
96,19,212431,6,0,L|160:33,1,56,0|2,3:0|0:3,0:0:0:0:
207,85,212893,2,0,L|166:102,2,28,0|2|0,0:0|0:0|0:0,0:0:0:0:
266,34,213354,1,0,3:0:0:0:
319,91,213585,1,2,0:3:0:0:
386,51,213816,1,0,3:0:0:0:
490,180,214277,1,0,0:0:0:0:
490,180,214739,6,2,P|428:192|407:247,1,112,4|0,0:0|3:0,0:0:0:0:
407,231,215431,1,0,0:0:0:0:
339,272,215662,2,0,P|328:237|321:202,1,56,0|0,3:0|0:0,0:0:0:0:
298,340,216124,6,0,P|355:349|392:357,1,84,0|2,1:0|0:0,0:0:0:0:
408,359,216585,1,2,3:0:0:0:
408,359,216816,1,0,3:0:0:0:
241,256,217047,1,0,3:0:0:0:
213,256,217162,1,2,0:0:0:0:
185,262,217277,1,2,0:0:0:0:
161,277,217393,1,0,3:0:0:0:
142,298,217508,1,2,0:0:0:0:
119,316,217624,1,2,0:0:0:0:
93,327,217739,1,2,3:0:0:0:
66,336,217854,1,0,3:0:0:0:
37,337,217970,5,4,1:0:0:0:
76,261,218200,1,0,3:0:0:0:
27,190,218431,1,2,0:0:0:0:
18,176,218777,2,0,L|15:147,2,15.7499995193482,0|0|0,3:0|3:0|3:0,3:0:0:0:
103,152,219124,1,0,3:0:0:0:
171,198,219354,1,2,0:0:0:0:
245,157,219585,2,0,L|238:112,1,31.4999990386963
280,64,219816,5,2,3:0:0:0:
280,64,220277,1,0,0:0:0:0:
298,69,220393,1,2,0:0:0:0:
315,74,220508,1,0,3:0:0:0:
332,81,220624,2,0,L|359:77,2,15.7499995193482,0|0|0,3:0|3:0|3:0,3:0:0:0:
326,157,220970,1,2,3:0:0:0:
382,212,221200,1,0,3:0:0:0:
342,285,221431,1,0,3:0:0:0:
342,285,221893,5,0,0:0:0:0:
342,285,222008,2,0,L|352:312,2,15.7499995193482,0|0|4,3:0|3:0|0:0,3:0:0:0:
264,264,222354,1,0,3:0:0:0:
215,320,222585,2,0,L|226:366,1,31.4999990386963,2|0,0:3|0:0,0:0:0:0:
148,333,222816,2,0,L|158:376,1,31.4999990386963,0|0,3:0|0:0,0:0:0:0:
78,300,223047,1,2,0:3:0:0:
142,238,223277,1,0,3:0:0:0:
69,185,223508,1,0,1:0:0:0:
69,185,223970,5,2,0:0:0:0:
73,173,224316,2,0,L|68:150,2,15.7499995193482,0|0|2,0:0|0:0|3:0,0:0:0:0:
147,147,224662,1,0,3:0:0:0:
219,196,224893,1,0,3:0:0:0:
307,155,225124,2,0,L|276:162,1,31.4999990386963,0|0,3:0|0:0,0:0:0:0:
283,230,225354,6,2,L|300:358,1,125.999996154785,4|2,0:0|0:3,0:0:0:0:
299,354,226162,2,0,L|272:352,2,15.7499995193482,0|0|0,3:0|3:0|3:0,3:0:0:0:
377,310,226508,1,2,0:0:0:0:
448,363,226739,2,0,P|458:340|459:323,1,31.4999990386963,2|0,0:3|0:0,0:0:0:0:
434,274,226970,2,0,P|429:240|432:223,1,31.4999990386963,0|0,3:0|0:0,0:0:0:0:
461,180,227200,1,2,0:3:0:0:
461,180,227662,5,0,3:0:0:0:
461,180,228008,2,0,L|467:156,2,15.7499995193482,0|0|0,3:0|3:0|3:0,3:0:0:0:
387,135,228354,1,0,3:0:0:0:
315,186,228585,1,2,3:0:0:0:
248,136,228816,1,0,0:0:0:0:
248,136,228931,1,0,3:0:0:0:
248,136,229393,6,0,L|251:115,2,15.7499995193482,0|0|4,3:0|3:0|0:0,3:0:0:0:
338,98,229739,2,0,L|352:62,1,31.4999990386963,2|0,0:0|0:0,0:0:0:0:
336,5,229970,1,2,3:0:0:0:
429,27,230200,1,0,3:0:0:0:
459,112,230431,1,0,3:0:0:0:
399,180,230662,1,2,3:0:0:0:
467,242,230893,5,0,1:0:0:0:
283,327,231354,1,2,0:3:0:0:
287,313,231700,2,0,L|283:290,2,15.7499995193482,0|0|0,3:0|3:0|1:0,3:0:0:0:
349,273,232047,1,8,0:0:0:0:
222,162,232277,1,2,0:3:0:0:
214,243,232508,1,0,1:0:0:0:
308,162,232739,6,0,L|289:73,1,62.9999980773926,4|8,1:0|0:0,0:0:0:0:
294,100,233200,1,2,1:3:0:0:
216,70,233431,1,2,0:0:0:0:
204,67,233547,2,0,L|186:76,2,15.7499995193482,0|0|0,3:0|3:0|1:0,3:0:0:0:
287,15,233893,1,2,0:0:0:0:
173,143,234124,1,2,1:3:0:0:
148,148,234239,1,8,3:2:0:0:
123,152,234354,1,2,0:0:0:0:
98,156,234470,1,8,3:2:0:0:
73,159,234585,6,0,L|4:154,1,62.9999980773926,0|2,1:0|0:0,0:0:0:0:
98,236,235047,1,0,1:0:0:0:
122,239,235162,1,2,0:0:0:0:
146,242,235277,1,2,0:0:0:0:
171,244,235393,2,0,L|184:221,2,15.7499995193482,2|0|0,3:0|3:0|1:0,3:0:0:0:
140,330,235739,1,2,0:0:0:0:
245,300,235970,5,0,1:0:0:0:
245,300,236085,1,2,3:0:0:0:
319,354,236316,1,0,3:0:0:0:
319,354,236431,1,0,1:0:0:0:
367,270,236662,1,8,0:0:0:0:
367,270,236893,6,0,L|441:277,1,62.9999980773926,0|2,1:0|0:0,0:0:0:0:
449,291,237239,2,0,L|476:294,2,15.7499995193482,2|0|0,3:3|3:0|1:0,0:0:0:0:
399,184,237585,1,2,0:0:0:0:
266,228,237816,1,0,1:0:0:0:
242,235,237931,1,8,0:0:0:0:
217,243,238047,1,2,0:0:0:0:
193,251,238162,1,8,0:0:0:0:
168,258,238277,6,0,L|99:252,1,62.9999980773926,0|2,1:0|0:0,0:0:0:0:
25,189,238739,1,0,1:0:0:0:
25,189,238854,1,2,3:0:0:0:
119,133,239085,2,0,L|115:158,2,15.7499995193482,2|0|0,3:0|0:0|1:0,0:0:0:0:
41,66,239431,1,2,0:0:0:0:
208,152,239662,1,0,1:0:0:0:
228,165,239777,1,8,0:0:0:0:
243,185,239893,1,2,0:0:0:0:
255,206,240008,1,8,0:0:0:0:
260,230,240124,6,0,L|248:269,3,31.4999990386963,4|0|2|0,1:2|0:0|0:0|0:0,0:0:0:0:
305,319,240585,2,0,L|314:288,3,31.4999990386963,0|0|2|0,1:0|0:0|0:0|0:0,0:0:0:0:
386,232,241047,6,0,L|374:193,3,31.4999990386963,0|0|2|0,1:0|0:0|0:0|0:0,0:0:0:0:
455,241,241508,2,0,L|464:271,3,31.4999990386963,0|0|2|0,1:0|0:0|0:0|0:0,0:0:0:0:
496,169,241970,5,0,1:0:0:0:
489,143,242085,1,0,0:0:0:0:
479,119,242200,1,0,1:0:0:0:
468,95,242316,1,2,1:3:0:0:
456,72,242431,1,0,1:0:0:0:
440,53,242547,1,0,1:0:0:0:
421,35,242662,1,2,1:3:0:0:
397,26,242777,1,0,0:0:0:0:
372,21,242893,6,0,L|319:25,1,31.4999990386963,0|0,1:0|0:0,0:0:0:0:
293,79,243124,2,0,L|240:83,1,31.4999990386963,2|0,0:0|0:0,0:0:0:0:
168,128,243354,2,0,L|221:132,1,31.4999990386963,0|0,1:0|0:0,0:0:0:0:
247,186,243585,2,0,L|300:190,1,31.4999990386963,2|0,0:0|0:0,0:0:0:0:
355,226,243816,5,0,0:0:0:0:
269,271,244047,1,0,0:0:0:0:
181,307,244277,5,0,0:0:0:0:
280,360,244508,1,0,0:0:0:0:
363,199,244739,5,0,0:0:0:0:
271,250,244970,1,0,0:0:0:0:
165,99,245200,5,0,0:0:0:0:
258,132,245431,1,0,0:0:0:0:
365,43,245662,5,0,0:0:0:0:
341,35,245777,1,0,0:0:0:0:
316,29,245893,1,0,0:0:0:0:
291,24,246008,1,0,0:0:0:0:
265,20,246124,2,0,L|237:24,2,15.7499995193482,0|0|0,1:0|3:0|3:0,3:0:0:0:
142,128,246354,5,0,0:0:0:0:
166,136,246470,1,0,0:0:0:0:
189,144,246585,2,0,B|158:181|158:181|168:235,1,83.9999974365235,8|0,0:0|0:0,0:0:0:0:
291,357,246931,5,8,0:0:0:0:
319,326,247047,1,0,0:0:0:0:
344,292,247162,1,0,0:0:0:0:
323,254,247277,1,4,0:2:0:0:
301,217,247393,1,0,0:0:0:0:
292,209,247508,6,0,L|304:300,1,83.9999974365235,4|2,0:0|2:3,0:0:0:0:
385,197,247970,1,0,0:0:0:0:
385,197,248085,1,0,0:0:0:0:
385,197,248200,2,0,L|391:148,1,41.9999987182618,4|0,0:3|2:0,0:0:0:0:
363,54,248431,2,0,B|342:43|342:43|264:66,1,83.9999974365235,8|2,0:0|2:0,0:0:0:0:
207,155,248893,1,2,0:3:0:0:
207,155,249354,5,0,0:0:0:0:
183,216,249585,1,2,0:3:0:0:
204,142,249816,1,0,0:0:0:0:
295,245,250047,1,0,0:0:0:0:
295,245,250162,1,0,0:0:0:0:
295,245,250277,2,0,L|279:340,1,83.9999974365235,8|2,0:0|2:0,0:0:0:0:
181,374,250739,1,0,0:0:0:0:
176,353,250854,1,8,0:2:0:0:
172,332,250970,1,2,0:2:0:0:
85,212,251200,6,2,L|68:288,1,62.9999980773926,0|0,0:0|2:0,0:0:0:0:
31,307,251662,6,0,L|120:284,1,83.9999974365235,4|2,0:3|0:3,0:0:0:0:
198,194,252124,2,0,L|190:238,1,41.9999987182618,8|0,0:0|2:0,0:0:0:0:
257,155,252354,2,0,L|265:198,1,41.9999987182618,2|0,0:3|2:0,0:0:0:0:
195,122,252585,1,0,0:0:0:0:
318,54,252816,5,0,0:0:0:0:
341,62,252931,1,8,0:2:0:0:
365,69,253047,1,0,0:0:0:0:
388,76,253162,1,8,0:2:0:0:
411,83,253277,2,2,B|371:104|371:104|373:109|373:109|370:104|370:104|320:127,1,97.9999970092774,0|2,0:0|2:3,0:0:0:0:
264,196,253739,2,0,P|264:218|274:241,1,41.9999987182618,4|0,0:3|2:0,0:0:0:0:
347,253,253970,1,8,0:0:0:0:
347,253,254316,1,0,0:0:0:0:
371,250,254431,1,2,0:3:0:0:
396,247,254547,1,0,0:0:0:0:
420,243,254662,1,2,0:2:0:0:
291,354,254893,6,0,B|219:346|242:317|165:308,1,125.999996154785,4|0,0:2|2:0,0:0:0:0:
174,309,255354,1,2,0:3:0:0:
97,364,255585,1,0,0:0:0:0:
135,227,255816,2,0,P|157:221|176:219,1,41.9999987182618,8|0,0:0|2:0,0:0:0:0:
236,180,256047,2,0,P|262:182|286:188,1,41.9999987182618,2|0,0:2|2:0,0:0:0:0:
337,226,256277,2,0,L|442:247,1,83.9999974365235,0|2,0:0|2:3,0:0:0:0:
492,192,256739,5,0,0:0:0:0:
492,192,257200,1,0,0:0:0:0:
488,162,257316,1,8,0:2:0:0:
481,133,257431,1,0,0:0:0:0:
475,104,257547,1,8,0:2:0:0:
468,75,257662,1,8,0:0:0:0:
351,8,258008,1,2,0:2:0:0:
344,36,258124,1,4,0:2:0:0:
336,64,258239,1,8,0:2:0:0:
329,92,258354,1,2,0:3:0:0:
409,272,258585,6,2,B|400:217|359:191|359:191|363:184|363:184|359:191|359:191|316:170|257:190,1,210.000008010865,0|2,0:0|2:3,0:0:0:0:
131,284,259277,1,4,0:3:0:0:
223,369,259508,2,0,P|232:338|231:318,1,41.9999987182618,8|0,0:0|2:0,0:0:0:0:
208,227,259739,2,0,P|199:258|199:277,1,41.9999987182618,2|0,0:2|2:0,0:0:0:0:
299,295,259970,1,0,0:0:0:0:
299,295,260431,6,0,P|347:287|391:288,1,83.9999974365235,4|2,0:3|2:3,0:0:0:0:
491,194,260893,2,0,P|453:202|396:201,1,83.9999974365235
407,202,261239,1,8,0:2:0:0:
407,202,261354,1,8,0:0:0:0:
297,80,261700,1,8,0:0:0:0:
297,80,261816,2,0,L|350:68,1,41.9999987182618,0|0,0:0|2:0,0:0:0:0:
240,37,262047,1,2,0:3:0:0:
96,133,262277,6,0,L|270:165,1,167.999994873047,6|2,0:0|0:3,0:0:0:0:
338,217,262970,1,2,0:0:0:0:
247,340,263200,2,0,B|231:317|231:317|227:249,1,83.9999974365235,10|2,0:0|0:3,0:0:0:0:
227,261,263547,1,0,0:0:0:0:
227,261,263662,1,0,0:0:0:0:
147,303,263893,5,2,0:3:0:0:
147,303,264008,1,8,0:2:0:0:
55,268,264239,1,0,0:0:0:0:
55,268,264354,1,8,0:2:0:0:
90,176,264585,1,2,0:0:0:0:
182,211,264816,1,2,0:3:0:0:
119,240,265047,6,0,P|111:215|109:191,1,41.9999987182618,10|0,0:0|2:0,0:0:0:0:
154,144,265277,2,0,P|158:119|155:85,1,41.9999987182618,2|0,0:0|2:0,0:0:0:0:
92,20,265508,2,0,P|111:32|134:38,1,41.9999987182618,2|0,0:0|2:0,0:0:0:0:
197,49,265739,2,0,P|224:41|251:41,1,41.9999987182618,2|0,0:0|2:0,0:0:0:0:
302,80,265970,5,0,0:0:0:0:
302,80,266316,1,0,0:0:0:0:
302,80,266431,2,0,L|282:172,1,83.9999974365235,4|2,0:2|0:3,0:0:0:0:
395,290,266893,2,0,L|377:199,1,83.9999974365235,8|2,0:0|2:3,0:0:0:0:
375,130,267354,1,0,0:0:0:0:
265,234,267585,5,2,0:3:0:0:
236,240,267700,1,8,0:2:0:0:
207,249,267816,1,0,0:0:0:0:
179,259,267931,1,8,0:2:0:0:
151,269,268047,1,2,0:3:0:0:
201,361,268277,2,0,P|207:338|208:312,1,41.9999987182618,2|0,0:0|2:0,0:0:0:0:
163,235,268508,1,2,0:0:0:0:
163,235,268624,1,0,0:0:0:0:
163,235,268739,2,0,P|152:192|160:151,1,83.9999974365235,8|2,0:0|0:0,0:0:0:0:
237,62,269200,1,0,0:0:0:0:
243,82,269316,1,0,0:0:0:0:
250,101,269431,1,2,0:0:0:0:
121,55,269662,6,0,P|66:61|42:131,1,125.999996154785,6|8,0:0|2:0,0:0:0:0:
39,120,270124,1,0,0:0:0:0:
137,245,270354,1,2,0:0:0:0:
167,176,270585,1,10,0:0:0:0:
53,251,270816,1,2,0:3:0:0:
45,279,270931,1,0,0:0:0:0:
37,307,271047,1,2,0:0:0:0:
147,366,271277,5,2,0:0:0:0:
144,336,271393,1,8,0:2:0:0:
138,307,271508,1,0,0:0:0:0:
256,246,271739,1,8,0:2:0:0:
247,274,271854,1,0,0:0:0:0:
239,302,271970,1,2,0:0:0:0:
328,361,272200,1,2,0:3:0:0:
369,253,272431,6,0,P|374:228|388:204,1,41.9999987182618,10|0,0:0|2:0,0:0:0:0:
456,294,272662,2,0,P|436:302|416:304,1,41.9999987182618,2|0,0:0|2:0,0:0:0:0:
450,197,272893,2,0,P|466:210|479:228,1,41.9999987182618,2|0,0:0|2:0,0:0:0:0:
399,148,273124,6,0,L|410:93,1,52.5000020027161,0|0,0:0|2:0,2:0:0:0:
372,40,273354,2,2,L|292:57,1,62.9999980773926,0|8,0:0|2:0,0:0:0:0:
246,37,273816,6,0,P|273:75|280:117,1,83.9999974365235
211,194,274277,1,8,0:0:0:0:
293,270,274508,1,0,0:0:0:0:
290,290,274624,1,8,0:2:0:0:
224,353,274854,1,0,0:0:0:0:
220,332,274970,1,8,0:2:0:0:
137,299,275200,6,0,P|96:295|50:299,1,83.9999974365235,2|2,0:0|3:3,0:0:0:0:
53,298,275547,1,2,3:3:0:0:
53,298,275662,1,0,0:0:0:0:
20,171,275893,1,2,0:0:0:0:
55,183,276008,1,0,0:0:0:0:
92,191,276124,1,8,0:0:0:0:
211,124,276354,2,2,L|170:141,1,41.9999987182618,2|2,0:0|0:0,0:2:0:0:
251,34,277047,6,0,B|338:14|320:77|426:52,1,146.999995513916,4|2,0:0|2:3,0:0:0:0:
429,46,277508,1,0,0:0:0:0:
495,166,277739,1,4,0:3:0:0:
386,222,277970,2,0,L|316:218,1,48.9999985046387,8|0,0:0|2:0,0:0:0:0:
282,175,278200,2,0,L|221:182,1,48.9999985046387,2|0,0:3|2:0,0:0:0:0:
145,282,278431,2,2,P|206:282|256:283,1,97.9999970092774,0|2,0:0|2:0,0:2:0:0:
57,205,278893,5,0,0:0:0:0:
25,308,279124,1,2,0:3:0:0:
119,359,279354,1,0,0:0:0:0:
165,213,279585,5,4,0:3:0:0:
165,213,279700,1,8,0:2:0:0:
165,213,279816,1,8,0:0:0:0:
102,267,280047,1,8,0:2:0:0:
223,152,280277,2,0,L|287:166,1,48.9999985046387,2|0,0:3|2:0,0:0:0:0:
332,117,280508,2,0,L|397:130,1,48.9999985046387,0|0,0:0|2:0,0:0:0:0:
457,150,280739,1,0,0:0:0:0:
457,150,281200,6,0,L|413:25,1,97.9999970092774,4|8,0:2|0:2,0:0:0:0:
391,35,281547,1,0,0:0:0:0:
356,16,281662,1,8,0:0:0:0:
213,105,281893,1,2,0:3:0:0:
245,127,282008,1,0,0:0:0:0:
278,148,282124,1,0,0:0:0:0:
296,70,282354,5,8,0:2:0:0:
296,70,282470,1,0,0:0:0:0:
134,150,282700,1,2,0:3:0:0:
134,150,282816,1,8,0:2:0:0:
287,232,283047,1,2,0:3:0:0:
240,145,283277,5,0,0:0:0:0:
240,145,283393,1,0,0:0:0:0:
240,145,283508,1,8,0:0:0:0:
119,244,283739,1,2,0:3:0:0:
34,126,283970,2,0,L|21:55,1,48.9999985046387,4|0,0:2|2:0,0:0:0:0:
86,21,284200,2,0,L|94:80,1,48.9999985046387,2|0,0:3|2:0,0:0:0:0:
133,136,284431,6,0,B|104:219|171:195|120:317,1,146.999995513916,4|0,0:2|2:0,0:0:0:0:
122,317,284893,1,2,0:3:0:0:
40,359,285124,1,4,0:3:0:0:
45,273,285354,1,8,0:0:0:0:
215,286,285585,2,0,L|280:293,1,48.9999985046387,2|0,0:3|2:0,0:0:0:0:
330,226,285816,2,0,L|265:219,1,48.9999985046387,2|0,0:3|2:0,0:0:0:0:
209,204,286047,5,0,0:0:0:0:
209,204,286162,1,8,0:2:0:0:
334,113,286393,1,0,0:0:0:0:
334,113,286508,1,8,0:2:0:0:
448,180,286739,1,2,0:3:0:0:
374,258,286970,5,4,0:3:0:0:
374,258,287085,1,0,0:0:0:0:
374,258,287200,2,0,L|383:142,1,97.9999970092774,8|2,0:0|2:2,0:0:0:0:
456,359,287662,6,2,L|463:273,1,73.4999977569581,4|0,0:2|2:0,0:2:0:0:
453,213,288124,6,2,B|409:218|409:218|351:254|383:321,1,146.999995513916,4|0,0:0|2:0,0:0:0:0:
376,344,288585,6,0,B|345:308|345:308|274:309,1,97.9999970092774,2|4,0:3|2:3,0:0:0:0:
262,293,288931,1,0,0:0:0:0:
262,293,289047,2,0,L|197:306,1,48.9999985046387,8|0,0:0|2:0,0:0:0:0:
158,253,289277,2,0,L|93:266,1,48.9999985046387,2|0,0:3|2:0,0:0:0:0:
203,153,289508,2,0,L|312:173,1,97.9999970092774,2|0,0:3|3:0,0:0:0:0:
338,172,289854,1,2,0:2:0:0:
376,165,289970,5,0,0:0:0:0:
297,32,290200,1,0,0:0:0:0:
83,143,290431,1,2,0:3:0:0:
185,146,290662,1,4,0:3:0:0:
185,146,290777,1,0,0:0:0:0:
185,146,290893,5,8,0:0:0:0:
191,107,291008,1,2,0:3:0:0:
167,75,291124,1,2,0:3:0:0:
135,51,291239,1,0,0:0:0:0:
97,38,291354,1,4,0:2:0:0:
83,52,291470,1,2,0:3:0:0:
69,66,291585,1,2,0:3:0:0:
56,80,291700,1,0,0:0:0:0:
31,110,291816,6,0,L|61:168,1,48.9999985046387,6|0,0:0|2:0,0:0:0:0:
121,170,292047,2,0,L|151:228,1,48.9999985046387,8|0,0:2|2:0,0:0:0:0:
224,233,292277,6,0,L|236:286,1,48.9999985046387,8|0,0:2|2:0,0:0:0:0:
182,330,292508,2,0,L|194:383,1,48.9999985046387,2|0,0:0|2:0,0:0:0:0:
298,194,292739,6,0,L|304:136,1,48.9999985046387,10|0,0:0|2:0,0:0:0:0:
368,104,292970,2,0,L|374:46,1,48.9999985046387,2|0,0:3|2:0,0:0:0:0:
306,10,293200,2,0,L|300:58,1,48.9999985046387,2|0,0:3|2:0,0:0:0:0:
386,178,293431,5,2,0:3:0:0:
386,178,293547,1,8,0:2:0:0:
467,180,293777,1,2,0:3:0:0:
467,180,293893,1,8,0:2:0:0:
490,105,294124,1,2,0:0:0:0:
411,102,294354,1,4,0:3:0:0:
186,203,294585,5,10,0:0:0:0:
235,287,294816,1,2,0:0:0:0:
332,272,295047,1,2,0:0:0:0:
283,187,295277,1,2,0:0:0:0:
161,349,295508,5,4,0:2:0:0:
161,349,295970,2,0,L|95:340,1,48.9999985046387,2|0,0:0|2:0,0:0:0:0:
82,277,296200,2,0,L|16:268,1,48.9999985046387,2|0,0:0|2:0,0:0:0:0:
206,228,296431,6,0,L|139:231,1,48.9999985046387,10|0,0:0|2:0,0:0:0:0:
114,172,296662,2,0,L|47:175,1,48.9999985046387,2|0,0:0|2:0,0:0:0:0:
220,215,296893,6,0,L|153:218,1,48.9999985046387,8|0,0:2|2:0,0:0:0:0:
128,159,297124,2,0,L|61:162,1,48.9999985046387,2|0,0:3|2:0,0:0:0:0:
150,30,297354,6,0,L|218:35,1,48.9999985046387,2|0,0:0|2:0,0:0:0:0:
248,92,297585,2,0,L|316:87,1,48.9999985046387,0|0,0:0|2:0,0:0:0:0:
344,32,297816,2,0,L|412:37,1,48.9999985046387,2|0,0:0|2:0,0:0:0:0:
500,151,298047,5,2,0:0:0:0:
478,161,298162,1,0,0:0:0:0:
454,168,298277,2,0,L|384:162,1,48.9999985046387,8|0,0:0|2:0,0:0:0:0:
347,197,298508,2,0,L|376:260,1,48.9999985046387,2|0,0:0|2:0,0:0:0:0:
431,275,298739,2,0,L|471:217,1,48.9999985046387,2|0,0:0|2:0,0:0:0:0:
454,168,298970,2,0,L|384:162,1,48.9999985046387,2|0,0:0|2:0,0:0:0:0:
285,125,299200,5,4,0:0:0:0:
267,142,299316,1,0,0:0:0:0:
255,163,299431,1,8,0:2:0:0:
249,186,299547,1,8,0:2:0:0:
219,211,299662,5,4,0:3:0:0:
223,236,299777,1,0,0:0:0:0:
233,258,299893,1,8,0:2:0:0:
248,276,300008,1,0,0:0:0:0:
239,314,300124,5,4,0:2:0:0:
261,325,300239,1,0,0:0:0:0:
285,329,300354,1,8,0:2:0:0:
308,327,300470,1,8,0:2:0:0:
338,358,300585,6,0,L|255:370,1,48.9999985046387,4|0,0:2|2:0,0:0:0:0:
218,338,300816,2,0,L|147:349,1,48.9999985046387,8|0,0:2|2:0,0:0:0:0:
80,361,301047,5,4,0:0:0:0:
64,340,301162,1,0,0:0:0:0:
57,317,301277,1,8,0:2:0:0:
55,293,301393,1,8,0:2:0:0:
31,263,301508,5,4,0:3:0:0:
40,239,301624,1,0,0:0:0:0:
53,220,301739,1,8,0:2:0:0:
72,205,301854,1,0,0:0:0:0:
70,166,301970,5,4,0:2:0:0:
93,159,302085,1,0,0:0:0:0:
118,159,302200,1,8,0:2:0:0:
140,166,302316,1,8,0:2:0:0:
182,159,302431,6,0,L|135:116,1,48.9999985046387,4|0,0:2|2:0,0:0:0:0:
94,79,302662,2,0,L|21:87,1,48.9999985046387,8|0,0:2|2:0,0:0:0:0:
190,22,302893,6,0,L|266:32,1,48.9999985046387,4|0,0:0|2:0,0:0:0:0:
307,61,303124,2,0,L|360:52,1,48.9999985046387,4|0,0:2|2:0,0:0:0:0:
192,44,303354,6,0,L|268:54,1,48.9999985046387,4|0,0:2|2:0,0:0:0:0:
310,83,303585,2,0,L|365:75,1,48.9999985046387,4|0,0:3|2:0,0:0:0:0:
501,174,303816,6,0,L|424:184,1,48.9999985046387,8|0,0:0|2:0,0:0:0:0:
384,213,304047,2,0,L|331:204,1,48.9999985046387,2|0,0:3|2:0,0:0:0:0:
499,196,304277,6,0,L|422:206,1,48.9999985046387,2|0,0:3|2:0,0:0:0:0:
381,235,304508,2,0,L|326:227,1,48.9999985046387,4|0,0:3|2:0,0:0:0:0:
163,247,304739,6,0,L|230:258,1,41.9999987182618,4|0,0:0|2:0,0:0:0:0:
142,267,304970,2,0,L|206:279,1,41.9999987182618,4|0,0:3|2:0,0:0:0:0:
299,333,305200,6,0,L|237:346,1,35,4|0,0:3|2:0,0:0:0:0:
320,353,305431,2,0,L|257:363,1,35,8|0,0:3|2:0,0:0:0:0:
73,369,305662,5,0,0:0:0:0:
67,345,305777,1,0,0:0:0:0:
61,321,305893,1,0,0:0:0:0:
56,297,306008,1,0,0:0:0:0:
50,273,306124,1,4,0:2:0:0:
44,249,306239,1,0,0:0:0:0:
39,225,306354,1,0,0:0:0:0:
33,202,306470,1,0,0:0:0:0:
27,178,306585,6,0,P|69:211|134:202,1,105,4|0,1:0|0:0,0:0:0:0:
118,209,307047,1,2,0:0:0:0:
199,140,307277,1,0,1:0:0:0:
284,235,307508,1,8,0:1:0:0:
187,215,307739,2,0,L|228:206,1,35,2|0,0:3|0:0,0:0:0:0:
301,156,307970,2,0,L|251:160,1,35,2|0,0:3|0:0,0:0:0:0:
266,158,308431,6,0,L|412:186,1,140,2|2,0:0|0:0,0:0:0:0:
413,193,309008,1,0,3:0:0:0:
413,193,309124,1,0,1:0:0:0:
413,193,309239,2,0,P|406:211|403:239,1,35,2|8,3:0|0:1,0:0:0:0:
341,300,309585,1,2,0:0:0:0:
338,286,309700,1,0,3:0:0:0:
335,272,309816,1,2,0:3:0:0:
332,258,309931,1,0,3:0:0:0:
329,244,310047,1,2,0:0:0:0:
241,226,310277,6,0,L|92:258,1,140,0|2,1:0|0:0,0:0:0:0:
104,255,310854,1,0,3:0:0:0:
104,255,310970,1,0,1:0:0:0:
17,174,311200,1,8,0:1:0:0:
78,116,311431,2,0,L|82:157,1,35,2|0,0:3|0:0,0:0:0:0:
152,141,311662,2,0,L|148:106,1,35,2|0,0:3|0:0,0:0:0:0:
194,46,311893,5,0,3:0:0:0:
200,22,312008,1,8,0:2:0:0:
266,81,312239,1,0,3:0:0:0:
271,104,312354,1,8,0:2:0:0:
354,152,312585,1,2,0:3:0:0:
356,138,312700,1,0,3:0:0:0:
358,124,312816,1,0,1:0:0:0:
360,110,312931,1,8,0:2:0:0:
362,96,313047,2,0,L|400:114,1,35,8|0,0:1|0:0,0:0:0:0:
489,52,313393,1,2,0:0:0:0:
475,47,313508,1,2,3:0:0:0:
461,42,313624,1,0,3:0:0:0:
447,37,313739,1,2,3:0:0:0:
466,132,313970,6,0,L|492:282,1,140,4|2,1:2|0:0,0:0:0:0:
489,273,314547,1,0,3:0:0:0:
486,275,314662,1,0,1:0:0:0:
483,277,314777,2,0,L|439:297,1,35,2|8,3:0|0:1,0:0:0:0:
329,275,315124,1,2,3:0:0:0:
386,231,315354,1,2,3:0:0:0:
386,231,315816,5,2,0:0:0:0:
350,170,316047,1,0,3:0:0:0:
291,209,316277,1,2,0:3:0:0:
274,213,316393,1,8,0:0:0:0:
257,217,316508,1,0,1:0:0:0:
240,221,316624,1,8,0:0:0:0:
223,225,316739,1,8,0:1:0:0:
137,313,317085,1,2,0:0:0:0:
153,316,317200,1,2,3:0:0:0:
170,320,317316,1,0,3:0:0:0:
186,324,317431,1,2,3:0:0:0:
119,232,317662,6,0,P|88:170|124:96,1,140,0|2,1:0|0:0,0:0:0:0:
111,107,318239,1,0,3:0:0:0:
111,107,318354,1,0,1:0:0:0:
263,97,318585,1,8,0:1:0:0:
207,33,318816,2,0,L|199:76,1,35,2|0,3:0|0:0,0:0:0:0:
206,136,319047,2,0,L|212:174,1,35,2|0,3:0|0:0,0:0:0:0:
211,170,319508,6,0,L|188:313,1,140,2|2,0:0|0:3,0:0:0:0:
198,317,320085,1,0,3:0:0:0:
198,317,320200,1,0,1:0:0:0:
198,317,320316,2,0,B|257:325|256:325,1,35,2|8,3:0|0:1,0:0:0:0:
430,280,320893,1,8,0:0:0:0:
410,271,321008,1,2,3:0:0:0:
389,266,321124,1,2,3:0:0:0:
368,264,321239,1,0,3:0:0:0:
347,265,321354,1,0,1:0:0:0:
