osu file format v14

[General]
AudioFilename: audio.mp3
AudioLeadIn: 0
PreviewTime: 44448
Countdown: 0
SampleSet: Soft
StackLeniency: 0.7
Mode: 0
LetterboxInBreaks: 0
WidescreenStoryboard: 1

[Editor]
DistanceSpacing: 0.6
BeatDivisor: 12
GridSize: 4
TimelineZoom: 1.6

[Metadata]
Title:Take Your Swimsuit
TitleUnicode:Take Your Swimsuit
Artist:tieff
ArtistUnicode:tieff
Creator:PandaHero
Version:Trynna's Hard
Source:
Tags:Hinsvar trynna osu! featured artist fa mappers' guild waterflow
BeatmapID:1969491
BeatmapSetID:940597

[Difficulty]
HPDrainRate:5
CircleSize:4
OverallDifficulty:6
ApproachRate:8
SliderMultiplier:1.3
SliderTickRate:1

[Events]
//Background and Video events
0,0,"underwater-1150045_1920.jpg",0,0
//Break Periods
//Storyboard Layer 0 (Background)
//Storyboard Layer 1 (Fail)
//Storyboard Layer 2 (Pass)
//Storyboard Layer 3 (Foreground)
//Storyboard Sound Samples

[TimingPoints]
609,357.142857142857,4,2,1,15,1,0
13466,-200,4,2,0,5,0,0
16323,-200,4,2,0,15,0,0
19180,-142.857142857143,4,2,1,25,0,0
19537,-142.857142857143,4,2,1,30,0,0
20460,-142.857142857143,4,2,1,35,0,0
21323,-142.857142857143,4,2,1,25,0,0
21680,-200,4,2,1,35,0,0
22037,-142.857142857143,4,2,1,50,0,0
22126,-142.857142857143,4,2,1,35,0,0
23466,-142.857142857143,4,2,1,40,0,0
24180,-142.857142857143,4,2,1,50,0,0
24269,-142.857142857143,4,2,1,50,0,0
24894,-142.857142857143,4,2,1,50,0,0
24983,-142.857142857143,4,2,1,50,0,0
26620,-142.857142857143,4,2,1,40,0,0
26680,-142.857142857143,4,2,1,50,0,0
27751,-142.857142857143,4,2,1,50,0,0
28466,-142.857142857143,4,2,1,50,0,0
30251,-142.857142857143,4,2,1,35,0,0
30608,-142.857142857143,4,2,1,50,0,0
30787,-142.857142857143,4,2,1,35,0,0
30966,-142.857142857143,4,2,1,50,0,0
31888,-142.857142857143,4,2,1,35,0,0
32037,-142.857142857143,4,2,1,50,0,0
33466,-142.857142857143,4,2,1,50,0,0
33555,-142.857142857143,4,2,1,50,0,0
35608,-142.857142857143,4,2,0,50,0,0
35698,-142.857142857143,4,2,0,50,0,0
35966,-142.857142857143,4,2,1,50,0,0
38049,-142.857142857143,4,2,1,35,0,0
38108,-142.857142857143,4,2,1,50,0,0
39180,-142.857142857143,4,2,1,50,0,0
39716,-142.857142857143,4,2,1,50,0,0
41680,-142.857142857143,4,2,1,35,0,0
42037,-142.857142857143,4,2,1,50,0,0
42126,-142.857142857143,4,2,1,50,0,0
44537,-142.857142857143,4,2,1,40,0,0
44894,-100,4,2,1,50,0,0
44983,-100,4,2,1,50,0,0
46323,-100,4,2,1,50,0,0
46412,-100,4,2,1,50,0,0
51591,-100,4,2,1,35,0,0
51680,-100,4,2,1,50,0,0
56323,-100,4,2,1,50,0,0
56412,-100,4,2,1,50,0,0
57751,-100,4,2,1,50,0,0
57841,-100,4,2,1,50,0,0
59180,-100,4,2,1,50,0,0
59537,-100,4,2,1,50,0,0
64894,-100,4,2,1,50,0,0
64983,-100,4,2,1,50,0,0
65608,-100,4,2,1,50,0,0
65698,-100,4,2,1,50,0,0
66323,-100,4,2,1,50,0,0
66412,-100,4,2,1,50,0,0
67751,-142.857142857143,4,2,1,45,0,0
69537,-142.857142857143,4,2,1,30,0,0
69894,-142.857142857143,4,2,1,45,0,0
70608,-100,4,1,1,55,0,0
70698,-100,4,1,1,55,0,0
78644,-100,4,1,1,35,0,0
79001,-100,4,1,1,55,0,0
79180,-100,4,1,1,55,0,0
79269,-100,4,1,1,55,0,0
90073,-100,4,1,1,55,0,0
90519,-100,4,1,1,55,0,0
90608,-100,4,1,1,60,0,0
95787,-100,4,1,1,35,0,0
96323,-100,4,1,1,60,0,0
101948,-100,4,1,1,60,0,0
102037,-142.857142857143,4,2,1,35,0,0
102126,-142.857142857143,4,2,1,35,0,0
103317,-142.857142857143,4,2,1,20,0,0
103466,-142.857142857143,4,2,1,35,0,0
104894,-142.857142857143,4,2,1,30,0,0
106174,-142.857142857143,4,2,1,15,0,0
106323,-200,4,2,1,20,0,0
113108,-142.857142857143,4,2,1,15,0,0
113466,-142.857142857143,4,2,1,10,0,0
113823,-142.857142857143,4,2,1,5,0,0
114894,-142.857142857143,4,2,1,15,0,0
117751,-142.857142857143,4,2,1,25,0,0
120608,-142.857142857143,4,2,0,30,0,0
123466,-200,4,3,0,25,0,0
126144,-200,4,2,0,45,0,0
126323,-200,4,2,0,45,0,0
126412,-200,4,2,0,45,0,0
128823,-200,4,2,0,35,0,0
129537,-200,4,2,0,25,0,0
130251,-200,4,2,0,35,0,0
130966,-200,4,2,0,30,0,0
132037,-200,4,2,0,35,0,0
133466,-200,4,2,0,40,0,0
134180,-200,4,2,0,45,0,0
134894,-200,4,2,1,45,0,0
144894,-100,4,2,1,40,0,0
144983,-100,4,2,1,40,0,0
146323,-100,4,2,1,45,0,0
146412,-100,4,2,1,45,0,0
162037,-100,4,1,1,55,0,0
162126,-100,4,1,1,55,0,0
172751,-100,4,2,1,50,0,0
173466,-100,4,1,1,60,0,0
182037,-100,4,1,1,55,0,0
183466,-100,4,1,1,50,0,0
184537,-100,4,1,1,60,0,0
184805,-100,4,1,1,60,0,0
184894,-142.857142857143,4,2,1,50,0,0

[Colours]
Combo1 : 218,103,54
Combo2 : 166,249,199
Combo3 : 84,188,152
Combo4 : 240,191,174

[HitObjects]
256,192,13466,12,0,16323,1:0:0:0:
255,193,16680,5,0,1:0:0:0:
355,82,17037,2,0,P|403:85|451:111,1,102.916666666667,8|0,0:0|1:0,0:0:0:0:
466,132,17751,5,0,1:0:0:0:
360,238,18108,1,0,1:0:0:0:
447,356,18466,2,0,P|479:351|511:351,1,65,8|0,0:0|3:0,0:0:0:0:
274,327,19180,6,0,P|232:344|187:348,1,90.9999972229005,0|0,1:0|1:0,0:0:0:0:
62,215,19894,2,0,B|97:203|129:181|129:181|160:206|189:217,1,144.083328936259,8|0,0:0|1:0,0:0:0:0:
207,249,20608,5,0,1:0:0:0:
133,77,20966,1,0,1:0:0:0:
312,120,22037,6,0,B|420:135|371:69|482:79,1,181.999994445801,4|0,1:3|0:0,0:0:0:0:
332,38,23108,1,0,0:0:0:0:
455,169,23466,6,0,P|446:219|444:265,1,90.9999972229005,4|4,0:3|0:3,0:0:0:0:
317,348,24180,2,0,P|260:324|187:321,1,136.499995834351,8|2,0:0|3:0,0:0:0:0:
123,366,24894,6,0,B|151:310|151:310|153:236,1,136.499995834351,4|0,1:3|0:0,0:0:0:0:
101,178,25608,1,8,1:2:0:0:
227,88,25966,2,0,L|222:31,1,53.0833317133586,0|0,0:0|1:0,0:0:0:0:
243,3,26323,5,4,1:3:0:0:
188,160,26680,1,4,1:3:0:0:
330,99,27037,2,0,P|365:104|398:152,1,90.9999972229005,8|0,1:2|3:0,0:0:0:0:
460,287,27751,6,2,P|413:283|369:274,2,90.9999972229005,4|4|8,1:0|1:3|1:2,0:0:0:0:
311,332,28823,2,0,P|295:305|290:279,1,53.0833317133586,2|0,0:0|1:0,0:0:0:0:
286,246,29180,5,4,1:3:0:0:
152,322,29537,1,4,0:3:0:0:
99,176,29894,2,0,P|45:176|3:204,1,90.9999972229005,8|4,1:2|0:3,0:0:0:0:
69,250,30430,1,4,0:3:0:0:
146,239,30608,6,0,P|179:240|195:255,2,45.4999986114502,4|4|2,1:3|0:3|1:3,0:0:0:0:
40,125,31323,1,8,1:2:0:0:
168,39,31680,2,0,L|172:97,1,53.0833317133586,2|0,0:0|1:0,0:0:0:0:
189,125,32037,5,4,1:3:0:0:
338,83,32394,1,4,0:3:0:0:
467,167,32751,2,0,L|449:264,1,90.9999972229005,8|8,1:2|0:3,0:0:0:0:
454,291,33228,2,0,L|499:283,1,30.3333324076335,8|8,0:3|0:3,0:0:0:0:
369,255,33466,6,2,P|327:239|283:244,1,90.9999972229005,6|4,1:0|0:3,0:0:0:0:
145,315,34180,2,0,P|195:260|189:190,1,144.083328936259,8|0,1:2|1:0,0:0:0:0:
172,160,34894,5,4,1:3:0:0:
278,47,35251,1,4,0:3:0:0:
126,17,35608,2,0,P|89:5|38:5,1,90.9999972229005,10|0,1:0|0:0,0:0:0:0:
53,159,36323,6,0,L|38:248,1,90.9999972229005,4|4,1:3|0:3,0:0:0:0:
126,375,37037,1,8,1:2:0:0:
229,260,37394,2,0,P|264:267|286:265,1,53.0833317133586,0|0,3:0|1:0,0:0:0:0:
312,287,37751,6,0,P|351:266|396:259,1,90.9999972229005,4|4,1:3|1:3,0:0:0:0:
506,369,38466,1,8,1:2:0:0:
483,215,38823,1,2,3:0:0:0:
459,66,39180,6,2,L|368:76,1,90.9999972229005,4|4,1:2|1:3,0:0:0:0:
251,177,39894,2,0,P|201:154|141:148,1,90.9999972229005,8|0,1:2|3:0,0:0:0:0:
67,178,40460,1,4,0:3:0:0:
67,178,40608,6,2,P|72:132|73:87,1,90.9999972229005,4|4,1:3|0:3,0:0:0:0:
174,242,41323,1,8,1:2:0:0:
51,336,41680,2,0,P|54:313|65:294,1,45.4999986114502,4|4,0:3|0:3,0:0:0:0:
131,335,42037,6,2,P|185:331|231:336,1,90.9999972229005,4|4,1:2|0:3,0:0:0:0:
375,346,42751,2,0,P|318:301|305:229,1,144.083328936259,8|0,1:2|1:0,0:0:0:0:
322,231,43466,6,2,L|316:123,1,90.9999972229005,4|4,1:3|0:3,0:0:0:0:
436,42,44180,2,2,P|401:13|358:0,1,90.9999972229005,8|2,1:2|3:0,0:0:0:0:
192,100,44894,6,0,P|137:74|145:14,1,130,4|2,1:2|3:2,0:0:0:0:
172,17,45370,1,0,3:2:0:0:
100,155,45608,2,0,P|63:208|65:272,1,130,8|2,1:2|3:2,0:0:0:0:
76,295,46085,1,0,3:2:0:0:
222,283,46323,6,0,B|291:298|276:254|347:266,2,130,0|0|8,1:0|1:0|1:2,0:0:0:0:
412,190,47394,2,0,P|403:160|395:128,1,65,0|2,3:0|0:0,0:0:0:0:
473,276,47751,6,0,P|465:307|455:338,1,65,4|0,1:3|0:0,0:0:0:0:
362,368,48108,1,4,0:3:0:0:
183,287,48466,1,8,1:2:0:0:
183,287,48644,2,0,P|130:294|88:367,1,130,0|0,1:0|1:0,0:0:0:0:
12,291,49180,6,0,P|35:237|44:164,2,130,4|4|8,1:2|0:3|1:2,0:0:0:0:
128,134,50251,1,2,3:0:0:0:
254,282,50608,6,0,B|322:280|307:318|376:317,1,130,0|2,1:0|1:2,0:0:0:0:
401,308,51085,1,0,3:0:0:0:
422,283,51204,1,2,3:2:0:0:
426,255,51323,1,8,1:2:0:0:
277,128,51680,2,0,P|223:135|192:134,1,75.8333333333333,2|4,0:0|3:0,0:0:0:0:
172,120,52037,5,4,1:3:0:0:
172,120,52156,2,0,L|113:114,1,43.3333333333333,0|0,3:0|3:0,0:0:0:0:
108,133,52394,2,0,L|4:142,1,86.6666666666667,4|0,3:0|3:0,3:3:0:0:
1,164,52751,1,8,1:2:0:0:
149,290,53108,1,2,3:0:0:0:
280,145,53466,6,0,P|268:82|215:49,1,130,4|4,1:3|0:3,0:0:0:0:
357,78,54061,1,0,0:0:0:0:
357,78,54180,2,0,P|421:70|474:71,1,86.6666666666667,8|2,1:2|0:0,0:0:0:0:
466,52,54537,2,0,L|465:145,1,86.6666666666667,0|4,0:0|0:3,0:0:0:0:
477,161,54894,5,4,1:2:0:0:
317,276,55251,1,4,0:3:0:0:
485,374,55608,2,0,P|472:330|466:288,1,65,12|0,1:2|0:0,0:0:0:0:
364,203,55966,2,0,P|357:234|347:265,1,65,4|0,0:3|0:0,0:0:0:0:
272,358,56323,6,0,P|214:329|150:335,1,130,4|2,1:0|0:2,0:0:0:0:
22,353,56918,1,0,0:0:0:0:
21,353,57037,2,0,P|44:316|55:274,1,86.6666666666667,8|0,1:2|0:0,0:0:0:0:
85,253,57394,2,0,L|78:172,1,75.8333333333333,2|0,0:0|1:0,0:0:0:0:
99,152,57751,5,4,1:2:0:0:
258,262,58108,1,4,0:3:0:0:
346,166,58347,1,2,0:0:0:0:
346,166,58466,2,0,L|435:174,1,86.6666666666667,8|0,1:2|3:0,0:0:0:0:
456,156,58823,6,2,P|455:92|410:48,1,130,2|6,3:0|1:0,0:0:0:0:
223,103,59537,1,0,0:0:0:0:
35,156,59894,2,0,L|40:91,1,65,8|2,1:2|1:2,0:0:0:0:
230,29,60430,1,2,1:2:0:0:
230,29,60608,6,0,L|221:99,1,65,4|0,1:2|0:0,0:0:0:0:
138,125,60966,2,0,P|144:162|149:196,1,65,4|0,0:3|0:0,0:0:0:0:
223,240,61323,2,0,P|156:254|130:335,1,130,10|2,1:2|3:0,0:0:0:0:
312,362,62037,2,0,P|373:339|429:306,1,130,4|4,1:3|0:3,0:0:0:0:
361,210,62632,1,0,3:0:0:0:
361,210,62751,2,0,P|344:163|334:125,1,86.6666666666667,8|0,1:2|0:0,0:0:0:0:
361,111,63108,2,0,P|378:64|386:37,1,75.8333333333333,2|0,0:0|1:0,0:0:0:0:
368,11,63466,6,0,B|298:6|316:44|241:41,1,130,4|4,1:3|0:3,0:0:0:0:
46,25,64180,2,0,P|96:43|130:113,1,130,8|2,1:2|3:0,0:0:0:0:
106,237,64775,1,2,0:0:0:0:
106,237,64894,6,0,L|216:227,1,86.6666666666667,4|0,1:2|0:0,0:0:0:0:
215,207,65251,1,4,1:3:0:0:
273,285,65430,1,4,0:3:0:0:
366,257,65608,2,0,L|446:236,1,65,4|0,1:2|0:0,0:0:0:0:
495,168,65966,2,0,L|415:147,1,65,4|0,0:3|0:0,0:0:0:0:
403,58,66323,6,0,P|347:89|328:149,1,130,8|4,1:0|1:3,0:0:0:0:
328,172,66799,1,0,3:0:0:0:
319,193,66918,1,2,3:2:0:0:
302,207,67037,2,0,P|262:189|220:181,1,86.6666666666667,8|2,1:2|3:2,0:0:0:0:
195,193,67394,1,4,1:3:0:0:
73,239,67632,1,2,1:3:0:0:
73,239,67751,6,0,L|68:193,2,45.4999986114502,4|0|2,1:0|0:0|3:2,0:0:0:0:
51,323,68287,2,0,P|95:320|141:332,1,90.9999972229005,0|0,1:0|1:0,0:0:0:0:
204,370,68823,2,0,P|235:369|259:359,1,53.0833317133586,2|0,3:2|1:0,0:0:0:0:
277,343,69180,1,4,1:3:0:0:
430,363,69537,1,4,0:3:0:0:
364,222,69894,2,0,L|375:122,1,90.9999972229005,8|2,1:2|1:2,0:0:0:0:
385,111,70370,1,0,3:0:0:0:
379,87,70489,1,2,1:2:0:0:
388,65,70608,5,4,0:3:0:0:
211,180,70966,1,4,3:0:0:0:
47,30,71323,2,0,P|109:37|147:87,1,130,8|2,0:0|0:2,0:0:0:0:
211,180,71858,1,0,0:0:0:0:
129,255,72037,6,0,L|142:384,1,130,4|0,0:3|0:0,0:0:0:0:
336,291,72751,2,0,B|408:281|389:328|460:313,1,130,8|2,0:0|3:0,0:0:0:0:
453,92,73466,6,0,B|423:56|423:56|429:138,1,130,4|2,0:3|1:2,0:0:0:0:
414,161,73942,1,0,3:0:0:0:
391,154,74061,1,2,3:0:0:0:
365,154,74180,1,8,0:0:0:0:
151,246,74537,2,0,L|101:258,2,43.3333333333333,2|0|0,0:2|0:0|3:0,0:0:0:0:
229,265,74894,6,0,B|227:223|227:223|178:151,1,130,0|2,1:0|1:2,0:0:0:0:
17,318,75608,2,0,P|73:286|137:276,1,130,8|2,0:0|1:2,0:0:0:0:
153,300,76085,1,0,3:0:0:0:
288,356,76323,6,0,B|362:366|336:325|412:334,1,130,4|4,0:3|0:3,0:0:0:0:
491,257,76858,1,2,0:3:0:0:
393,204,77037,2,0,P|345:208|308:225,1,65,8|0,0:0|0:0,0:0:0:0:
475,154,77394,2,0,P|469:111|470:77,1,75.8333333333333,2|0,0:2|0:0,0:0:0:0:
479,47,77751,6,0,P|414:57|350:49,1,130,4|4,0:3|0:3,0:0:0:0:
141,111,78466,1,8,0:0:0:0:
141,111,78644,2,0,P|215:102|267:153,1,130,4|0,3:0|0:0,0:0:0:0:
364,157,79180,6,0,P|341:213|323:301,1,130,4|4,0:0|0:3,0:0:0:0:
117,356,79894,1,8,0:0:0:0:
117,356,80073,2,0,P|101:311|17:286,1,130,4|0,2:3|0:0,0:0:0:0:
136,237,80608,2,0,P|151:187|155:105,1,130,4|4,0:2|0:3,0:0:0:0:
362,30,81323,2,0,B|436:21|411:64|485:57,1,130,8|0,0:0|0:0,0:0:0:0:
476,75,81799,1,0,0:0:0:0:
468,98,81918,1,0,0:0:0:0:
467,118,82037,6,0,P|479:162|475:255,1,130,4|4,0:3|0:3,0:0:0:0:
283,352,82751,2,0,P|332:328|406:343,1,130,8|2,0:0|0:2,0:0:0:0:
327,248,83287,1,0,0:0:0:0:
327,248,83466,2,0,P|329:168|325:109,1,130,4|4,0:3|0:3,0:0:0:0:
123,29,84180,2,0,B|197:12|177:62|246:53,1,130,8|0,0:0|0:0,0:0:0:0:
142,104,84716,1,0,0:0:0:0:
142,104,84894,6,0,P|152:160|156:232,1,130,4|2,0:3|0:2,0:0:0:0:
142,249,85370,1,0,3:0:0:0:
128,267,85489,1,2,3:0:0:0:
121,289,85608,2,0,P|186:297|247:317,1,130,8|2,0:0|0:2,0:0:0:0:
466,346,86323,6,0,L|512:336,2,43.3333333333333,4|0|0,0:3|3:0|3:0,3:3:0:0:
404,298,86680,2,0,B|382:238|382:238|394:168,1,130,4|8,0:3|0:0,0:0:0:0:
219,36,87394,2,0,L|155:42,2,43.3333333333333,2|0|2,0:2|3:0|3:0,0:0:0:0:
282,84,87751,6,0,P|264:136|248:224,1,130,4|4,0:3|0:3,0:0:0:0:
282,315,88287,1,4,3:0:0:0:
174,290,88466,2,0,P|131:279|61:357,1,130,8|2,0:0|0:2,0:0:0:0:
82,179,89031,1,4,1:3:0:0:
82,179,89180,6,0,P|101:145|103:115,1,65,4|0,0:3|0:0,0:0:0:0:
72,34,89537,2,0,P|124:19|183:71,1,130,4|8,0:3|0:0,0:0:0:0:
258,140,90073,2,0,P|356:109|386:109,1,130,2|2,0:0|0:0,0:0:0:0:
476,51,90608,6,0,P|468:115|463:180,1,130,4|4,0:0|3:0,0:0:0:0:
327,354,91323,1,8,0:0:0:0:
133,247,91680,2,0,L|75:254,2,43.3333333333333,2|0|0,0:2|0:0|3:0,0:0:0:0:
189,193,92037,6,0,P|253:187|318:179,1,130,4|4,0:3|0:3,0:0:0:0:
143,44,92751,2,0,P|83:67|53:123,1,130,8|2,0:0|0:2,0:0:0:0:
39,147,93228,1,0,3:0:0:0:
41,169,93347,1,2,3:0:0:0:
40,191,93466,5,4,0:3:0:0:
194,348,93823,1,4,3:0:0:0:
444,252,94180,2,0,P|399:266|378:266,1,65,8|0,0:0|0:0,0:0:0:0:
298,306,94537,2,0,L|290:223,1,65,2|0,0:2|0:0,0:0:0:0:
213,162,94894,6,0,L|228:29,1,130,4|4,0:3|0:3,0:0:0:0:
405,163,95608,2,0,P|389:105|331:116,1,130,8|4,0:0|0:3,0:0:0:0:
178,276,96323,2,0,P|129:260|50:250,1,130,4|2,0:3|0:2,0:0:0:0:
39,237,96799,1,0,3:0:0:0:
31,218,96918,1,2,3:0:0:0:
29,198,97037,2,0,B|38:136|38:136|20:47,1,130,8|2,0:0|0:2,0:0:0:0:
228,111,97751,6,0,L|282:97,2,43.3333333333333,4|0|0,0:3|3:0|3:0,3:3:0:0:
168,57,98108,2,0,P|145:116|180:174,1,130,4|8,0:3|0:0,0:0:0:0:
302,350,98823,2,0,L|352:365,2,43.3333333333333,2|0|2,0:2|3:0|3:0,0:0:0:0:
304,271,99180,6,0,L|438:314,1,130,4|4,0:0|0:3,0:0:0:0:
422,150,99775,1,2,3:0:0:0:
422,150,99894,2,0,P|438:109|457:96,1,65,8|0,0:0|0:0,0:0:0:0:
369,45,100251,2,0,L|291:33,1,75.8333333333333,2|4,0:2|3:0,0:0:0:0:
237,80,100608,6,0,L|104:59,1,130,4|2,0:3|0:2,0:0:0:0:
256,192,101055,12,4,102037,1:3:0:0:
256,192,102394,5,4,0:3:0:0:
139,90,102751,2,0,P|76:131|52:195,1,144.083328936259,8|4,1:2|0:3,0:0:0:0:
35,222,103466,1,4,0:3:0:0:
161,307,103823,1,4,0:3:0:0:
314,292,104180,2,0,P|359:286|403:278,1,90.9999972229005,8|0,1:2|0:0,0:0:0:0:
414,124,104894,6,0,P|370:132|341:166,1,90.9999972229005,4|4,1:3|0:3,0:0:0:0:
502,203,105608,2,0,P|497:143|494:60,1,144.083328936259,8|4,1:2|0:3,0:0:0:0:
501,35,106323,1,4,0:3:0:0:
382,54,106680,1,4,0:3:0:0:
262,24,107037,2,0,P|246:52|240:84,1,65,8|0,1:2|3:0,0:0:0:0:
256,192,107751,12,0,113287,0:0:0:0:
92,119,114894,6,0,P|136:108|181:101,1,90.9999972229005,0|0,1:0|0:0,0:0:0:0:
305,24,115608,2,0,P|349:35|394:42,1,90.9999972229005,0|0,3:0|0:0,0:0:0:0:
422,185,116323,2,0,P|380:168|336:176,2,90.9999972229005,0|0|0,1:0|0:0|3:0,0:0:0:0:
368,320,117394,1,2,0:0:0:0:
247,237,117751,5,0,1:0:0:0:
247,237,118108,2,0,P|200:261|188:306,1,90.9999972229005,0|0,3:0|0:0,0:0:0:0:
62,369,118823,1,0,1:0:0:0:
62,369,119180,2,0,P|15:345|3:300,1,90.9999972229005,0|0,1:0|3:0,0:0:0:0:
87,193,119894,2,0,L|66:96,1,90.9999972229005,0|0,1:0|3:0,0:0:0:0:
207,145,120608,6,0,P|253:160|296:160,1,90.9999972229005,2|0,0:0|0:0,0:0:0:0:
370,117,121144,1,0,0:0:0:0:
445,159,121323,2,0,P|455:201|456:222,2,45.4999986114502,0|2|0,0:0|0:0|0:0,0:0:0:0:
319,30,122037,2,0,P|278:50|234:60,1,90.9999972229005,2|0,0:0|0:0,0:0:0:0:
67,104,122751,2,0,P|111:114|151:134,1,90.9999972229005,2|0,0:0|0:0,0:0:0:0:
229,230,123466,6,0,L|216:299,2,65,2|0|2,0:3|0:0|0:2,0:0:0:0:
337,289,124537,2,0,L|350:358,2,65,0|2|0,0:0|0:3|0:0,0:0:0:0:
418,196,125608,2,0,L|442:261,1,65,2|0,0:2|0:0,0:0:0:0:
512,285,126144,1,2,0:0:0:0:
508,207,126323,6,0,P|492:145|439:109,1,130,4|2,1:2|0:0,0:0:0:0:
297,157,127394,1,0,0:0:0:0:
157,211,127751,2,0,L|86:196,1,65,2|0,0:0|3:0,0:0:0:0:
36,59,128466,1,2,0:0:0:0:
185,53,128823,6,0,L|227:48,2,32.5,2|0|2,0:0|0:0|1:2,0:0:0:0:
334,57,129537,2,0,L|376:52,2,32.5,2|0|2,0:0|0:0|0:0,0:0:0:0:
252,182,130251,2,0,L|262:137,1,32.5,2|0,0:0|0:0,0:0:0:0:
282,135,130608,2,0,P|313:137|339:157,1,65,2|0,1:2|0:0,0:0:0:0:
466,236,131323,2,0,P|434:238|408:258,1,65,2|0,0:0|3:0,0:0:0:0:
256,192,132037,12,2,134537,0:0:0:0:
256,193,134894,6,0,L|252:120,1,65,0|2,1:0|0:2,3:3:0:0:
247,110,135370,1,0,3:0:0:0:
247,110,135489,1,2,3:0:0:0:
247,110,135608,2,0,P|302:111|320:103,1,65,0|0,1:0|3:0,0:0:0:0:
397,57,136204,1,0,3:0:0:0:
397,57,136323,6,0,P|423:73|431:97,1,43.3333333333333,0|0,1:0|3:0,3:3:0:0:
436,132,136680,1,0,1:0:0:0:
428,281,137037,2,0,P|399:265|368:255,1,65,0|2,1:0|3:0,0:0:0:0:
222,225,137751,6,0,P|193:240|162:250,1,65,0|0,1:0|3:0,0:0:0:0:
76,300,138347,1,0,3:0:0:0:
76,300,138466,2,0,L|63:232,1,65,0|2,1:0|3:0,0:0:0:0:
107,146,139031,1,0,1:0:0:0:
107,146,139180,6,0,P|116:105|105:75,1,65,0|0,1:0|1:0,0:0:0:0:
195,205,139894,2,0,L|187:284,1,65,8|2,1:2|3:0,0:0:0:0:
294,163,140608,6,0,P|280:133|254:115,1,65,4|2,1:3|0:2,3:3:0:0:
239,91,141085,1,0,3:0:0:0:
239,91,141204,1,2,3:0:0:0:
239,91,141323,2,0,P|276:62|293:41,1,65,8|2,1:2|3:0,0:0:0:0:
385,66,141918,1,0,1:0:0:0:
385,66,142037,2,0,L|451:61,1,65,2|0,1:2|1:0,3:3:0:0:
431,209,142751,2,0,P|413:226|393:270,1,65,8|2,1:2|3:0,0:0:0:0:
254,289,143466,6,0,B|226:183|283:216|255:97,1,195,4|2,1:3|1:2,0:0:0:0:
177,35,144745,1,0,1:0:0:0:
177,35,144894,6,0,P|128:50|76:57,1,86.6666666666667,4|2,0:3|3:2,0:0:0:0:
65,47,145251,1,2,3:0:0:0:
92,173,145489,1,0,3:0:0:0:
92,173,145608,2,0,L|78:293,1,86.6666666666667,2|2,0:0|3:2,0:0:0:0:
96,282,145966,2,0,P|144:272|199:281,1,86.6666666666667,2|0,3:0|0:0,0:0:0:0:
203,294,146323,6,0,P|252:257|239:197,1,130,4|4,1:3|1:3,0:0:0:0:
187,9,147037,2,0,P|248:32|313:29,1,130,8|2,1:2|0:0,0:0:0:0:
327,42,147513,1,2,3:2:0:0:
341,59,147632,1,0,3:0:0:0:
348,77,147751,6,0,B|407:48|407:48|470:57,1,130,4|4,1:3|0:3,0:0:0:0:
426,144,148287,1,2,0:3:0:0:
463,234,148466,2,0,P|444:269|427:308,1,65,8|0,1:2|0:0,0:0:0:0:
356,351,148823,1,2,0:0:0:0:
336,255,149001,1,4,0:3:0:0:
265,322,149180,6,0,B|214:328|214:328|186:343|186:343|139:346,2,130,4|4|8,1:3|0:3|1:2,0:0:0:0:
130,181,150251,1,2,0:0:0:0:
266,42,150608,6,0,P|256:108|256:171,1,130,4|4,1:3|0:3,0:0:0:0:
278,172,151085,1,2,3:2:0:0:
302,177,151204,1,0,3:0:0:0:
323,190,151323,2,0,P|338:250|300:334,1,130,8|2,1:2|0:0,0:0:0:0:
125,346,152037,6,0,L|71:332,2,43.3333333333333,4|0|2,1:3|3:0|3:2,0:0:0:0:
196,319,152394,1,4,0:3:0:0:
134,204,152632,1,2,3:0:0:0:
134,204,152751,2,0,P|146:142|149:72,1,130,8|2,1:2|0:0,0:0:0:0:
141,59,153228,1,2,3:2:0:0:
126,50,153347,1,0,3:0:0:0:
106,48,153466,5,4,1:3:0:0:
257,170,153823,1,4,0:3:0:0:
363,96,154061,1,2,3:0:0:0:
363,96,154180,2,0,P|420:103|466:103,1,86.6666666666667,8|2,1:2|3:2,0:0:0:0:
468,124,154537,2,0,L|459:188,1,65,2|4,1:2|0:3,0:0:0:0:
488,286,154894,6,0,B|419:275|439:320|362:305,1,130,4|4,1:3|0:3,0:0:0:0:
169,330,155608,2,0,P|226:306|237:245,1,130,8|2,1:2|1:2,0:0:0:0:
201,154,156144,1,4,0:3:0:0:
245,66,156323,6,0,P|293:79|376:68,2,130,4|2|8,1:0|0:3|1:0,0:0:0:0:
54,24,157394,2,0,L|55:115,1,86.6666666666667,2|2,0:3|3:2,0:0:0:0:
69,132,157751,6,0,L|58:274,1,130,4|2,1:3|0:3,0:0:0:0:
235,362,158466,2,0,P|244:311|346:278,1,130,8|2,1:0|0:3,0:0:0:0:
326,286,158942,1,0,3:0:0:0:
346,294,159061,1,2,3:2:0:0:
367,296,159180,5,4,1:3:0:0:
216,171,159537,1,2,0:3:0:0:
369,50,159894,2,0,P|422:73|438:109,1,86.6666666666667,8|2,1:0|3:2,0:0:0:0:
445,121,160251,1,2,0:3:0:0:
350,147,160430,1,4,0:3:0:0:
417,216,160608,5,4,1:3:0:0:
325,249,160787,2,0,P|265:232|196:226,1,130,8|4,1:0|0:3,0:0:0:0:
123,289,161323,2,0,P|95:231|109:169,1,130,8|4,1:0|1:2,0:0:0:0:
153,82,161858,1,2,1:2:0:0:
267,30,162037,6,0,L|272:95,2,65,4|2|2,1:0|0:2|1:3,0:0:0:0:
282,16,162513,1,0,3:0:0:0:
305,11,162632,1,2,3:0:0:0:
327,14,162751,2,0,P|381:20|412:102,1,130,8|2,0:0|0:2,0:0:0:0:
392,275,163466,6,0,L|434:280,2,43.3333333333333,4|0|2,1:3|3:0|3:0,3:3:0:0:
333,326,163823,1,4,1:3:0:0:
141,361,164180,2,0,P|161:306|165:226,1,130,8|2,0:0|0:3,3:3:0:0:
152,217,164656,1,0,3:0:0:0:
141,198,164775,1,2,3:2:0:0:
132,177,164894,6,0,P|92:164|62:240,1,130,4|0,0:3|0:0,0:0:0:0:
236,155,165608,2,0,P|261:96|251:33,1,130,8|2,0:0|0:3,0:0:0:0:
171,87,166144,1,0,0:0:0:0:
246,177,166323,6,0,P|311:158|386:153,2,130,4|0|8,0:3|0:0|0:0,0:0:0:0:
353,339,167394,1,2,0:3:0:0:
492,202,167751,6,0,B|508:142|508:142|474:83,1,130,4|4,0:3|3:0,0:0:0:0:
399,20,168287,1,2,0:3:0:0:
319,77,168466,2,0,B|255:81|268:42|194:49,1,130,8|4,0:0|0:2,0:0:0:0:
0,42,169180,2,0,L|5:-21,2,43.3333333333333,4|0|2,0:3|3:0|3:2,0:0:0:0:
46,104,169537,1,4,0:3:0:0:
18,296,169894,2,0,P|86:273|171:281,1,130,8|2,0:0|0:2,0:0:0:0:
163,289,170370,1,0,3:0:0:0:
182,300,170489,1,2,3:2:0:0:
202,303,170608,5,4,0:3:0:0:
326,152,170966,1,4,3:0:0:0:
441,308,171323,2,0,P|406:282|364:271,1,86.6666666666667,8|2,0:0|3:0,0:0:0:0:
341,274,171680,2,0,L|346:345,1,65,2|4,0:2|3:0,0:0:0:0:
279,208,172037,2,0,P|290:143|291:78,1,130,4|4,0:3|3:0,0:0:0:0:
107,338,173466,6,0,P|61:295|69:233,1,130,6|2,0:0|0:2,0:0:0:0:
82,218,173942,1,0,3:0:0:0:
97,206,174061,1,2,3:0:0:0:
120,198,174180,2,0,B|166:202|166:202|196:223|196:223|243:227,1,130,8|2,0:0|0:0,0:0:0:0:
422,150,174894,6,0,L|474:160,2,43.3333333333333,4|0|2,0:3|3:0|3:0,0:0:0:0:
364,95,175251,2,0,L|265:104,1,86.6666666666667,4|2,0:3|3:0,0:0:0:0:
253,90,175608,1,10,0:0:0:0:
65,34,175966,1,2,3:0:0:0:
65,34,176085,2,0,L|46:89,1,43.3333333333333,0|2,3:0|3:0,0:0:0:0:
61,109,176323,6,0,L|36:197,1,86.6666666666667,6|2,0:0|3:2,0:0:0:0:
43,223,176680,2,0,P|105:202|168:214,1,130,4|8,0:3|0:0,0:0:0:0:
321,93,177394,2,0,P|286:89|256:82,1,65,2|2,0:0|0:3,0:0:0:0:
167,122,177751,6,0,B|153:63|153:63|183:0,2,130,4|4|10,0:3|0:3|0:0,0:0:0:0:
308,256,178823,1,2,0:3:0:0:
478,161,179180,6,0,P|440:167|352:118,1,130,4|2,0:3|0:2,0:0:0:0:
363,104,179656,1,0,3:0:0:0:
366,83,179775,1,2,3:2:0:0:
369,58,179894,2,0,B|302:38|307:78|241:66,1,130,8|2,0:0|0:2,0:0:0:0:
167,246,180608,6,0,L|170:314,2,43.3333333333333,4|0|2,0:3|3:0|3:2,0:0:0:0:
107,187,180966,2,0,L|118:88,1,86.6666666666667,4|2,0:3|3:2,0:0:0:0:
106,72,181323,1,8,0:0:0:0:
26,249,181680,1,0,0:0:0:0:
26,249,181799,2,0,L|33:311,1,43.3333333333333,0|2,3:0|3:2,0:0:0:0:
22,319,182037,6,0,L|156:341,1,130,4|4,0:3|0:3,0:0:0:0:
247,254,182632,1,2,3:2:0:0:
247,254,182751,2,0,L|377:237,1,130,8|2,0:0|0:2,0:0:0:0:
459,287,183287,1,4,3:0:0:0:
482,192,183466,6,0,P|449:135|371:123,1,130,4|4,0:3|0:3,0:0:0:0:
256,192,183912,12,4,184894,0:3:0:0:
