osu file format v14

[General]
AudioFilename: audio.mp3
AudioLeadIn: 0
PreviewTime: 44448
Countdown: 0
SampleSet: Soft
StackLeniency: 0.7
Mode: 0
LetterboxInBreaks: 0
WidescreenStoryboard: 1

[Editor]
DistanceSpacing: 1.4
BeatDivisor: 4
GridSize: 4
TimelineZoom: 1.6

[Metadata]
Title:Take Your Swimsuit
TitleUnicode:Take Your Swimsuit
Artist:tieff
ArtistUnicode:tieff
Creator:PandaHero
Version:Normal
Source:
Tags:Hinsvar trynna osu! featured artist fa mappers' guild waterflow
BeatmapID:1968150
BeatmapSetID:940597

[Difficulty]
HPDrainRate:4
CircleSize:3.5
OverallDifficulty:4
ApproachRate:5
SliderMultiplier:0.8
SliderTickRate:1

[Events]
//Background and Video events
0,0,"underwater-1150045_1920.jpg",0,0
//Break Periods
2,102237,106551
2,115094,119408
//Storyboard Layer 0 (Background)
//Storyboard Layer 1 (Fail)
//Storyboard Layer 2 (Pass)
//Storyboard Layer 3 (Foreground)
//Storyboard Sound Samples

[TimingPoints]
609,357.142857142857,4,2,1,15,1,0
16323,-100,4,2,0,15,0,0
19180,-100,4,2,1,25,0,0
19537,-100,4,2,1,30,0,0
20430,-100,4,2,1,35,0,0
21323,-100,4,2,1,25,0,0
21680,-100,4,2,1,35,0,0
22037,-100,4,2,1,50,0,0
22126,-100,4,2,1,35,0,0
23466,-100,4,2,1,40,0,0
24180,-100,4,2,1,50,0,0
24269,-100,4,2,1,50,0,0
24894,-100,4,2,1,50,0,0
24983,-100,4,2,1,50,0,0
26620,-100,4,2,1,40,0,0
26680,-100,4,2,1,50,0,0
27751,-100,4,2,1,50,0,0
28466,-100,4,2,1,50,0,0
30251,-100,4,2,1,35,0,0
30608,-100,4,2,1,50,0,0
30787,-100,4,2,1,35,0,0
30966,-100,4,2,1,50,0,0
31858,-100,4,2,1,35,0,0
32037,-100,4,2,1,50,0,0
33466,-100,4,2,1,50,0,0
33555,-100,4,2,1,50,0,0
35608,-100,4,2,0,50,0,0
35698,-100,4,2,0,50,0,0
35966,-100,4,2,1,50,0,0
38049,-100,4,2,1,35,0,0
38108,-100,4,2,1,50,0,0
39180,-100,4,2,1,50,0,0
39716,-100,4,2,1,50,0,0
41680,-100,4,2,1,35,0,0
42037,-100,4,2,1,50,0,0
42126,-100,4,2,1,50,0,0
44537,-100,4,2,1,40,0,0
44894,-100,4,2,1,50,0,0
44983,-100,4,2,1,50,0,0
46323,-100,4,2,1,50,0,0
46412,-100,4,2,1,50,0,0
51591,-100,4,2,1,35,0,0
51680,-100,4,2,1,50,0,0
56323,-100,4,2,1,50,0,0
56412,-100,4,2,1,50,0,0
57751,-100,4,2,1,50,0,0
57841,-100,4,2,1,50,0,0
59180,-100,4,2,1,50,0,0
59537,-100,4,2,1,50,0,0
64894,-100,4,2,1,50,0,0
64983,-100,4,2,1,50,0,0
65608,-100,4,2,1,50,0,0
65698,-100,4,2,1,50,0,0
66323,-100,4,2,1,50,0,0
66412,-100,4,2,1,50,0,0
67751,-100,4,2,1,45,0,0
67841,-100,4,2,1,45,0,0
68108,-100,4,2,1,25,0,0
69001,-100,4,2,1,45,0,0
69537,-100,4,2,1,30,0,0
69894,-100,4,2,1,45,0,0
70608,-100,4,1,1,55,0,0
70698,-100,4,1,1,55,0,0
78644,-100,4,1,1,35,0,0
79001,-100,4,1,1,55,0,0
79180,-100,4,1,1,55,0,0
79269,-100,4,1,1,55,0,0
90073,-100,4,1,1,55,0,0
90519,-100,4,1,1,55,0,0
90608,-100,4,1,1,60,0,0
95787,-100,4,1,1,35,0,0
96323,-100,4,1,1,60,0,0
101948,-100,4,1,1,60,0,0
102037,-100,4,2,1,35,0,0
102126,-100,4,2,1,35,0,0
107751,-100,4,2,1,20,0,0
113108,-100,4,2,1,15,0,0
113466,-100,4,2,1,10,0,0
113823,-100,4,2,1,5,0,0
120608,-100,4,2,0,30,0,0
123466,-100,4,3,0,25,0,0
126144,-100,4,2,0,45,0,0
126323,-100,4,2,0,45,0,0
126412,-100,4,2,0,45,0,0
128823,-100,4,2,0,35,0,0
129537,-100,4,2,0,25,0,0
130251,-100,4,2,0,35,0,0
130966,-100,4,2,0,30,0,0
132037,-100,4,2,0,35,0,0
133466,-100,4,2,0,40,0,0
134180,-100,4,2,0,45,0,0
134894,-100,4,2,1,45,0,0
143466,-100,4,2,1,40,0,0
144894,-100,4,2,1,40,0,0
144983,-100,4,2,1,40,0,0
146323,-100,4,2,1,45,0,0
146412,-100,4,2,1,45,0,0
162037,-100,4,1,1,55,0,0
162126,-100,4,1,1,55,0,0
172751,-100,4,2,1,50,0,0
173466,-100,4,1,1,60,0,0
182037,-100,4,1,1,55,0,0
183466,-100,4,1,1,50,0,0
184537,-100,4,1,1,60,0,0
184805,-100,4,1,1,60,0,0
184894,-100,4,2,1,45,0,0
184983,-100,4,2,1,45,0,0
187751,-100,4,2,1,35,0,0
190608,-100,4,2,0,25,0,0
193466,-100,4,2,0,20,0,0
196323,-100,4,2,0,15,0,0
204180,-100,4,2,0,10,0,0
205608,-100,4,2,0,5,0,0

[Colours]
Combo1 : 218,103,54
Combo2 : 166,249,199
Combo3 : 84,188,152
Combo4 : 240,191,174

[HitObjects]
177,29,16323,6,0,P|168:115|164:219,1,160,0|8,1:0|0:0,0:0:0:0:
289,333,17751,2,0,P|344:329|385:334,1,80,0|0,1:0|1:0,0:0:0:0:
456,292,18466,1,8,0:0:0:0:
449,196,18823,1,0,3:0:0:0:
362,155,19180,6,0,P|315:217|213:249,1,160,0|8,1:0|0:0,0:0:0:0:
80,142,20608,2,0,P|90:75|99:35,2,80,0|0|0,1:0|1:0|3:0,0:0:0:0:
167,181,21680,1,0,3:0:0:0:
250,133,22037,6,0,B|354:109|337:201|487:173,1,240,4|0,1:3|0:0,0:0:0:0:
494,79,23466,1,4,0:3:0:0:
419,18,23823,1,4,0:3:0:0:
323,30,24180,2,0,L|215:49,1,80,8|0,0:0|3:0,0:0:0:0:
151,18,24894,6,0,P|155:89|156:185,1,160,4|8,1:3|1:2,0:0:0:0:
144,273,25966,2,0,L|81:262,1,40,0|2,0:0|3:0,0:0:0:0:
56,271,26323,2,0,P|51:308|48:378,2,80,4|4|8,1:3|1:3|1:2,0:0:0:0:
74,176,27394,1,0,3:0:0:0:
118,91,27751,6,2,P|200:117|212:211,1,160,4|8,1:0|1:2,0:0:0:0:
186,215,28644,2,0,L|183:323,1,80,2|4,0:0|0:3,0:0:0:0:
204,338,29180,1,4,1:3:0:0:
274,272,29537,1,4,0:3:0:0:
345,335,29894,1,8,1:2:0:0:
404,259,30251,6,0,L|462:255,1,40,4|4,0:3|0:3,0:0:0:0:
491,258,30608,1,4,1:3:0:0:
479,162,30966,2,0,P|439:151|395:153,1,80,2|8,1:3|1:2,0:0:0:0:
356,170,31501,1,2,0:0:0:0:
280,112,31858,1,4,0:3:0:0:
280,112,32037,2,0,L|291:10,2,80,4|4|8,1:3|0:3|1:2,0:0:0:0:
196,160,33108,2,0,L|201:219,1,40,8|0,0:3|0:0,0:0:0:0:
160,228,33466,6,2,P|100:261|93:379,1,160,6|8,1:0|1:2,0:0:0:0:
128,352,34358,2,0,L|195:333,1,40,2|0,0:0|0:0,0:0:0:0:
260,352,34894,1,4,1:3:0:0:
340,296,35251,1,4,0:3:0:0:
308,204,35608,2,0,L|287:100,1,80,10|0,1:0|0:0,0:0:0:0:
292,28,36323,6,0,L|481:44,1,160,4|8,1:3|1:2,0:0:0:0:
476,132,37394,2,0,L|469:203,1,40,0|4,3:0|0:3,0:0:0:0:
440,208,37751,2,0,L|444:318,2,80,4|4|8,1:3|1:3|1:2,0:0:0:0:
360,156,38823,1,2,3:0:0:0:
268,180,39180,6,0,B|167:172|222:238|99:229,1,160,4|8,1:2|1:2,0:0:0:0:
26,251,40251,1,0,3:0:0:0:
28,156,40608,2,0,P|43:79|60:46,2,80,4|4|8,1:3|0:3|1:2,0:0:0:0:
26,251,41680,2,0,L|21:318,1,40,4|4,0:3|0:3,0:0:0:0:
55,325,42037,6,2,P|119:317|166:315,1,80,4|4,1:2|0:3,0:0:0:0:
228,334,42751,1,8,1:2:0:0:
242,239,43108,2,0,L|236:178,1,40,0|4,0:0|0:3,0:0:0:0:
229,151,43466,1,4,1:3:0:0:
323,168,43823,1,4,0:3:0:0:
331,263,44180,1,8,1:2:0:0:
419,225,44537,2,2,L|469:197,1,40,2|0,3:0|0:0,0:0:0:0:
485,168,44894,6,0,P|484:107|454:37,1,120,4|0,1:2|0:0,0:0:0:0:
421,29,45608,1,8,1:2:0:0:
324,34,45966,1,2,3:2:0:0:
253,98,46323,2,0,L|146:88,2,80,0|4|8,1:0|0:3|1:2,0:0:0:0:
338,142,47394,1,0,3:0:0:0:
275,215,47751,6,0,B|292:297|292:297|262:396,1,160,4|8,1:3|1:2,0:0:0:0:
194,309,48823,1,2,0:0:0:0:
98,319,49180,2,0,L|4:337,1,80,4|4,1:2|0:3,0:0:0:0:
54,244,49894,2,0,L|132:228,1,80,8|2,1:2|3:0,0:0:0:0:
224,204,50608,6,0,P|226:141|237:75,1,120,0|0,1:0|0:0,0:0:0:0:
240,36,51323,1,8,1:2:0:0:
328,76,51680,1,2,0:0:0:0:
420,48,52037,2,0,P|465:30|503:-1,2,80,4|4|8,1:3|3:0|1:2,0:0:0:0:
340,100,53108,1,2,3:0:0:0:
280,176,53466,6,0,P|289:228|293:276,1,80,4|4,1:3|0:3,0:0:0:0:
384,228,54180,2,0,P|414:215|464:203,1,80,8|0,1:2|0:0,0:0:0:0:
488,296,54894,1,4,1:2:0:0:
424,368,55251,1,4,0:3:0:0:
350,308,55608,1,12,1:2:0:0:
274,367,55966,1,4,0:3:0:0:
209,296,56323,6,0,P|206:214|216:124,1,160,4|8,1:0|1:2,0:0:0:0:
120,115,57394,1,2,0:0:0:0:
33,162,57751,2,0,P|35:204|31:260,2,80,4|4|8,1:2|0:3|1:2,0:0:0:0:
36,64,58823,1,2,3:0:0:0:
124,24,59180,6,2,B|205:6|180:76|293:59,1,160,6|8,1:0|1:2,0:0:0:0:
316,84,60073,2,0,P|374:80|423:89,1,80,2|2,1:2|1:2,0:0:0:0:
440,96,60608,1,4,1:2:0:0:
468,188,60966,1,4,0:3:0:0:
380,224,61323,2,0,P|323:209|274:208,1,80,10|2,1:2|3:0,0:0:0:0:
208,216,62037,6,0,L|203:348,1,120,4|0,1:3|0:0,0:0:0:0:
164,364,62751,1,8,1:2:0:0:
78,316,63108,1,2,0:0:0:0:
86,220,63466,2,0,L|96:121,1,80,4|4,1:3|0:3,0:0:0:0:
189,149,64180,2,0,L|281:159,1,80,8|2,1:2|3:0,0:0:0:0:
340,94,64894,6,0,P|305:34|249:25,1,120,4|4,1:2|0:3,0:0:0:0:
212,32,65608,1,4,1:2:0:0:
119,59,65966,1,4,0:3:0:0:
28,91,66323,2,0,L|32:180,1,80,8|4,1:0|1:3,0:0:0:0:
122,201,67037,2,0,L|118:290,1,80,8|4,1:2|1:3,0:0:0:0:
48,346,67751,5,4,1:0:0:0:
48,346,69180,1,4,1:3:0:0:
132,300,69537,1,4,0:3:0:0:
224,323,69894,2,0,L|317:346,1,80,8|2,1:2|1:2,0:0:0:0:
372,277,70608,6,0,B|354:214|354:214|374:112,1,160,4|8,0:3|0:0,0:0:0:0:
450,64,71680,2,0,L|509:87,2,40,2|0|4,0:2|0:0|0:3,0:0:0:0:
362,25,72394,1,0,0:0:0:0:
280,76,72751,1,8,0:0:0:0:
193,33,73108,2,0,L|121:40,1,40,2|2,3:0|0:2,0:0:0:0:
114,66,73466,6,0,P|73:73|59:191,1,160,4|8,0:3|0:0,0:0:0:0:
122,229,74537,2,0,L|180:222,1,40,2|0,0:2|1:0,3:3:0:0:
196,257,74894,2,0,L|189:350,2,80,0|2|8,1:0|1:2|0:0,0:0:0:0:
283,217,75966,2,0,L|330:222,1,40,2|0,1:2|0:0,0:0:0:0:
366,240,76323,5,4,0:3:0:0:
451,283,76680,1,4,0:3:0:0:
380,348,77037,1,8,0:0:0:0:
289,316,77394,2,0,L|239:310,1,40,2|4,0:2|3:0,0:0:0:0:
210,339,77751,2,0,L|119:329,1,80,4|4,0:3|0:3,0:0:0:0:
36,309,78466,2,0,L|30:258,1,40,8|4,0:0|3:0,0:0:0:0:
63,233,78823,2,0,L|57:182,1,40,4|0,0:3|0:0,0:0:0:0:
79,150,79180,6,0,P|118:134|232:180,1,160,4|8,0:0|0:0,0:0:0:0:
298,110,80251,2,0,L|268:73,1,40,2|0,0:2|0:0,0:0:0:0:
242,41,80608,2,0,P|195:47|146:37,2,80,4|4|8,0:2|0:3|0:0,0:0:0:0:
337,28,81680,1,0,0:0:0:0:
402,98,82037,6,0,P|381:169|374:260,1,160,4|8,0:3|0:0,0:0:0:0:
390,348,83108,1,2,0:2:0:0:
295,327,83466,2,0,L|245:334,2,40,4|2|4,0:3|0:2|0:3,0:0:0:0:
390,348,84180,2,0,L|485:340,1,80,8|0,0:0|0:0,0:0:0:0:
492,248,84894,6,0,P|468:199|363:145,1,160,4|8,0:3|0:0,0:0:0:0:
287,174,85966,1,2,0:2:0:0:
236,92,86323,2,4,L|256:36,2,40,4|4|4,0:3|0:2|0:3,0:0:0:0:
144,120,87037,1,8,0:0:0:0:
160,216,87394,6,0,L|164:270,2,40,2|4|4,0:2|0:2|0:3,0:0:0:0:
68,184,88108,1,4,0:3:0:0:
32,272,88466,1,8,0:0:0:0:
112,328,88823,1,2,0:2:0:0:
184,264,89180,2,0,P|236:265|278:271,1,80,4|4,0:3|0:3,0:0:0:0:
304,180,89894,2,0,L|302:127,1,40,8|2,0:0|0:0,0:0:0:0:
312,92,90251,1,2,0:2:0:0:
340,52,90430,1,2,0:0:0:0:
388,44,90608,6,0,P|452:104|468:144,1,120,4|2,0:0|0:3,0:0:0:0:
472,180,91323,1,8,0:0:0:0:
376,188,91680,1,2,0:2:0:0:
316,264,92037,2,0,P|278:267|233:260,1,80,4|4,0:3|0:3,0:0:0:0:
152,304,92751,2,0,L|160:356,2,40,8|0|2,0:0|2:0|0:2,0:0:0:0:
112,280,93287,1,0,0:0:0:0:
112,280,93466,6,0,L|104:196,1,80,4|4,0:3|3:0,0:0:0:0:
96,104,94180,1,8,0:0:0:0:
192,116,94537,2,0,L|244:120,1,40,2|0,0:2|0:0,0:0:0:0:
280,120,94894,2,0,L|284:28,1,80,4|4,0:3|0:3,0:0:0:0:
372,72,95608,2,0,L|368:120,1,40,8|4,0:0|3:0,0:0:0:0:
364,160,95966,1,4,0:3:0:0:
308,240,96323,6,0,P|316:300|316:348,1,80,4|2,0:3|0:2,0:0:0:0:
404,356,97037,1,8,0:0:0:0:
472,288,97394,2,0,L|476:220,1,40,2|4,0:2|3:0,0:0:0:0:
472,200,97751,1,4,0:3:0:0:
376,204,98108,1,4,0:3:0:0:
400,112,98466,2,0,P|424:80|468:52,1,80,8|2,0:0|0:2,0:0:0:0:
368,16,99180,6,0,P|308:24|236:40,1,120,4|2,0:0|0:3,0:0:0:0:
204,52,99894,1,8,0:0:0:0:
264,128,100251,1,2,0:2:0:0:
172,148,100608,2,0,P|120:148|68:152,1,80,4|2,0:3|0:2,0:0:0:0:
32,224,101323,1,8,0:0:0:0:
84,304,101680,1,2,0:0:0:0:
176,280,102037,5,4,1:3:0:0:
256,192,107751,12,2,110608,0:0:0:0:
256,192,112037,12,0,114894,0:0:0:0:
72,228,120608,5,2,0:0:0:0:
156,184,120966,2,0,P|200:204|280:204,2,120,0|2|2,0:0|0:0|0:0,0:0:0:0:
88,116,122394,1,0,0:0:0:0:
156,48,122751,2,0,P|200:44|260:48,1,80,2|0,0:0|0:0,0:0:0:0:
316,96,123466,6,0,P|355:96|395:93,2,80,2|0|2,0:3|0:0|0:2,0:0:0:0:
232,144,124537,1,0,0:0:0:0:
176,224,124894,2,0,P|176:260|180:340,1,80,2|0,0:3|0:0,0:0:0:0:
264,348,125608,2,0,P|303:344|343:345,1,80,2|0,0:2|0:0,0:0:0:0:
392,356,126144,1,2,0:0:0:0:
428,324,126323,6,0,B|400:232|468:260|432:140,2,160,4|2|2,1:2|0:0|0:0,0:0:0:0:
188,152,128823,2,0,L|176:96,2,40,2|0|2,0:0|0:0|1:2,0:0:0:0:
96,156,129537,2,0,L|63:108,2,40,2|0|2,0:0|0:0|0:0,0:0:0:0:
56,244,130251,2,0,L|8:212,2,40,2|0|2,0:0|0:0|1:2,0:0:0:0:
152,260,130966,1,0,0:0:0:0:
200,344,131323,1,2,0:0:0:0:
276,284,131680,1,0,3:0:0:0:
236,196,132037,6,0,P|225:161|200:100,1,80,2|0,0:0|0:0,0:0:0:0:
304,120,132751,2,0,P|307:84|306:17,1,80,0|2,1:0|0:0,0:0:0:0:
396,80,133466,2,0,P|392:115|393:182,1,80,2|2,1:2|0:0,0:0:0:0:
488,172,134180,2,0,P|471:203|447:266,1,80,0|2,1:0|0:0,0:0:0:0:
384,308,134894,6,0,B|328:280|328:280|216:324,1,160,0|0,1:0|1:0,0:0:0:0:
152,360,135966,1,0,3:0:0:0:
164,264,136323,2,0,L|180:168,1,80,0|0,1:0|1:0,3:3:0:0:
104,124,137037,2,0,L|0:144,1,80,0|2,1:0|3:0,0:0:0:0:
28,44,137751,6,0,B|84:16|84:16|196:60,1,160,0|0,1:0|1:0,0:0:0:0:
268,80,138823,1,2,3:0:0:0:
244,172,139180,2,0,L|224:276,2,80,0|0|8,1:0|1:0|1:2,0:0:0:0:
340,176,140251,1,2,3:0:0:0:
428,216,140608,6,0,P|464:280|400:360,1,160,4|8,1:3|1:2,0:0:0:0:
332,320,141680,1,2,3:0:0:0:
240,348,142037,2,0,P|237:298|244:256,1,80,2|0,1:2|1:0,3:3:0:0:
304,196,142751,2,0,P|306:146|300:104,1,80,8|2,1:2|3:0,0:0:0:0:
276,24,143466,6,0,B|188:16|224:72|108:56,1,160,4|8,1:3|1:2,0:0:0:0:
28,48,144537,1,2,1:2:0:0:
44,144,144894,6,0,L|60:244,1,80,4|2,0:3|3:0,0:0:0:0:
72,268,145430,2,0,B|124:248|124:248|220:256,1,120,2|0,1:2|0:0,0:0:0:0:
220,344,146323,2,0,L|136:340,2,80,4|4|8,1:3|1:3|1:2,0:0:0:0:
316,352,147394,1,2,0:0:0:0:
328,256,147751,6,0,L|336:155,1,80,4|4,1:3|0:3,0:0:0:0:
344,128,148287,2,0,B|396:148|396:148|492:140,1,120,2|2,1:3|0:0,0:0:0:0:
492,52,149180,2,0,L|408:56,1,80,4|4,1:3|0:3,0:0:0:0:
316,48,149894,1,8,1:2:0:0:
264,128,150251,1,2,0:0:0:0:
280,224,150608,6,0,L|284:328,1,80,4|4,1:3|0:3,0:0:0:0:
248,340,151144,2,0,B|196:320|196:320|100:328,1,120,2|2,1:3|0:0,0:0:0:0:
36,332,152037,1,4,1:3:0:0:
36,236,152394,1,4,0:3:0:0:
36,236,152573,2,0,B|91:238|91:238|179:201,1,120,2|2,1:3|0:0,0:0:0:0:
208,136,153466,6,0,L|204:68,1,40,4|2,1:3|1:2,0:0:0:0:
300,96,154001,2,0,P|292:152|292:236,1,120,4|2,1:2|1:2,0:0:0:0:
380,248,154894,2,0,L|432:232,1,40,4|2,1:3|1:2,0:0:0:0:
496,312,155430,2,0,P|444:352|372:352,1,120,4|2,1:2|1:2,0:0:0:0:
300,320,156323,6,0,L|248:320,2,40,4|0|2,1:0|0:0|0:3,0:0:0:0:
308,272,156858,2,0,P|300:208|284:136,1,120,4|2,1:3|0:3,0:0:0:0:
244,68,157751,2,0,L|192:76,1,40,4|0,1:3|0:0,0:0:0:0:
160,60,158108,1,2,1:3:0:0:
160,60,158287,2,0,P|100:68|40:68,1,120,4|2,1:3|0:3,0:0:0:0:
64,160,159180,6,0,L|124:160,2,40,4|2|2,1:3|1:2|0:3,0:0:0:0:
28,188,159716,2,0,P|24:248|36:332,1,120,4|2,1:3|0:3,0:0:0:0:
116,348,160608,2,0,L|168:348,1,40,4|8,1:3|1:0,0:0:0:0:
192,316,160966,2,0,L|244:316,1,40,4|4,1:3|0:3,0:0:0:0:
276,332,161323,1,8,1:0:0:0:
324,248,161680,2,0,L|268:228,1,40,4|2,1:2|1:2,0:0:0:0:
248,208,162037,6,0,P|256:152|264:100,1,80,4|2,1:0|1:3,0:0:0:0:
296,40,162751,1,8,0:0:0:0:
364,104,163108,2,0,L|356:148,2,40,2|0|4,0:2|0:0|1:3,3:3:0:0:
460,92,163823,1,4,1:3:0:0:
448,188,164180,2,0,L|436:284,1,80,8|2,0:0|0:3,3:3:0:0:
408,304,164716,1,4,3:0:0:0:
372,336,164894,6,0,P|320:324|276:320,1,80,4|0,0:3|0:0,0:0:0:0:
196,336,165608,1,8,0:0:0:0:
232,248,165966,2,0,L|256:192,1,40,2|0,0:3|0:0,0:0:0:0:
280,176,166323,2,0,L|324:192,2,40,4|4|0,0:3|0:2|0:0,0:0:0:0:
192,140,167037,1,8,0:0:0:0:
104,184,167394,1,2,0:3:0:0:
24,132,167751,6,0,P|32:72|44:32,1,80,4|4,0:3|3:0,0:0:0:0:
124,12,168466,1,8,0:0:0:0:
212,52,168823,2,0,L|284:64,1,40,4|0,0:2|0:0,0:0:0:0:
288,88,169180,2,0,L|352:92,2,40,4|2|4,0:3|0:3|0:3,0:0:0:0:
208,144,169894,1,8,0:0:0:0:
240,236,170251,1,2,0:2:0:0:
336,220,170608,6,0,P|368:216|432:212,1,80,4|4,0:3|3:0,0:0:0:0:
480,284,171323,1,8,0:0:0:0:
408,344,171680,2,0,L|348:344,1,40,2|4,0:2|3:0,0:0:0:0:
324,324,172037,2,0,L|228:328,2,80,4|4|2,0:3|3:0|0:2,0:0:0:0:
332,132,173466,6,0,P|280:72|208:64,1,120,6|0,0:0|0:0,0:0:0:0:
196,68,174180,1,8,0:0:0:0:
116,120,174537,2,0,L|64:120,1,40,2|4,0:0|3:0,0:0:0:0:
36,144,174894,2,0,L|44:248,1,80,4|4,0:3|0:3,0:0:0:0:
68,316,175608,1,10,0:0:0:0:
160,284,175966,2,0,L|212:268,1,40,0|4,0:0|0:3,0:0:0:0:
244,288,176323,6,0,P|280:296|352:304,2,80,6|4|8,0:0|0:3|0:0,0:0:0:0:
232,192,177394,2,0,L|248:136,1,40,2|2,0:0|0:3,0:0:0:0:
260,108,177751,1,4,0:3:0:0:
356,92,178108,1,4,0:3:0:0:
428,168,178466,2,0,L|412:240,2,40,10|0|2,0:0|0:0|0:3,0:0:0:0:
452,76,179180,6,0,P|416:32|344:12,1,120,4|0,0:3|0:0,0:0:0:0:
312,28,179894,1,8,0:0:0:0:
232,84,180251,2,0,L|160:76,1,40,2|4,0:2|3:0,0:0:0:0:
148,100,180608,2,0,L|88:88,2,40,4|0|4,0:3|0:0|0:3,0:0:0:0:
168,192,181323,2,0,L|232:200,2,40,8|0|0,0:0|0:0|0:0,0:0:0:0:
84,240,182037,6,0,L|92:348,1,80,4|4,0:3|0:3,0:0:0:0:
180,356,182751,1,8,0:0:0:0:
236,280,183108,2,0,L|240:224,2,40,2|4|4,0:2|3:0|0:3,0:0:0:0:
332,296,183823,1,4,0:3:0:0:
368,208,184180,1,8,0:0:0:0:
304,136,184537,2,0,L|232:144,1,40,2|2,0:0|0:0,0:0:0:0:
216,148,184894,5,4,0:3:0:0:
216,52,185251,1,4,0:3:0:0:
120,68,185608,2,0,L|40:84,1,80,8|0,0:0|3:0,0:0:0:0:
28,180,186323,2,0,L|108:164,1,80,0|2,1:0|3:2,0:0:0:0:
164,244,187037,2,0,L|84:260,1,80,8|2,0:0|3:2,0:0:0:0:
128,344,187751,5,4,0:3:0:0:
216,308,188108,1,2,3:2:0:0:
308,336,188466,2,0,L|396:360,1,80,8|0,0:0|3:0,0:0:0:0:
444,284,189180,2,0,L|356:260,1,80,2|0,1:2|1:0,0:0:0:0:
368,168,189894,2,0,L|456:192,1,80,8|2,0:0|3:2,0:0:0:0:
496,108,190608,5,4,0:3:0:0:
420,48,190966,1,2,0:0:0:0:
328,76,191323,2,0,L|236:76,1,80,8|2,0:0|0:0,0:0:0:0:
188,152,192037,2,0,L|108:148,2,80,0|2|2,1:0|0:0|3:0,0:0:0:0:
284,168,193108,1,2,0:0:0:0:
224,244,193466,6,0,L|220:336,1,80,0|2,1:0|0:0,0:0:0:0:
132,360,194180,2,0,L|136:268,1,80,2|2,3:0|0:0,0:0:0:0:
52,236,194894,2,0,L|48:324,2,80,0|2|2,3:0|0:0|3:0,0:0:0:0:
60,140,195966,1,2,0:0:0:0:
144,96,196323,6,0,B|216:80|208:144|320:136,1,160,0|2,1:0|3:0,0:0:0:0:
384,104,197394,1,2,0:0:0:0:
464,160,197751,2,0,L|452:340,1,160,0|2,3:0|3:0,0:0:0:0:
368,272,198823,1,2,0:0:0:0:
276,304,199180,6,0,P|188:352|132:336,1,160,0|2,1:0|3:0,0:0:0:0:
44,168,200608,2,0,P|132:216|188:200,1,160,0|2,3:0|3:0,0:0:0:0:
316,60,202037,5,0,1:0:0:0:
316,60,202751,1,2,3:0:0:0:
132,108,203466,1,0,3:0:0:0:
132,108,204180,1,2,3:0:0:0:
264,248,204894,1,0,3:0:0:0:
264,248,205608,1,2,3:0:0:0:
264,248,206323,5,0,0:0:0:0:
