osu file format v14

[General]
AudioFilename: audio.mp3
AudioLeadIn: 0
PreviewTime: 190971
Countdown: 1
SampleSet: Soft
StackLeniency: 0.7
Mode: 0
LetterboxInBreaks: 0
WidescreenStoryboard: 1

[Editor]
Bookmarks: 19145,43415,64988,86561,108134,151280,172853,194426,210606,226785,237572
DistanceSpacing: 1
BeatDivisor: 4
GridSize: 8
TimelineZoom: 1.600001

[Metadata]
Title:Sense of Nostalgia
TitleUnicode:Sense of Nostalgia
Artist:tieff
ArtistUnicode:tieff
Creator:Mirash
Version:Collab Normal
Source:
Tags:Hinsvar Trynna schoolboy Komore Delis osu! featured artist fa mappers' guild
BeatmapID:1954394
BeatmapSetID:929284

[Difficulty]
HPDrainRate:4
CircleSize:3.5
OverallDifficulty:4
ApproachRate:5
SliderMultiplier:0.96
SliderTickRate:1

[Events]
//Background and Video events
0,0,"natsukahii kanji.jpg",0,0
//Break Periods
2,64988,73226
2,110830,126484
2,151479,155473
2,189033,190529
//Storyboard Layer 0 (Background)
//Storyboard Layer 1 (Fail)
//Storyboard Layer 2 (Pass)
//Storyboard Layer 3 (Foreground)
//Storyboard Sound Samples

[TimingPoints]
269,337.078651685393,4,2,0,60,1,0
19819,-100,4,2,0,40,0,0
20493,-100,4,2,0,50,0,0
20830,-100,4,1,0,50,0,0
21173,-100,4,2,0,50,0,0
21504,-100,4,2,0,50,0,0
21842,-100,4,1,0,50,0,0
22179,-100,4,2,0,50,0,0
22853,-100,4,1,0,50,0,0
23190,-100,4,2,0,50,0,0
23527,-100,4,1,0,50,0,0
24201,-100,4,2,0,50,0,0
24538,-100,4,1,0,50,0,0
24763,-100,4,2,0,50,0,0
26111,-100,4,2,0,50,0,0
26224,-100,4,1,0,50,0,0
26448,-100,4,2,0,50,0,0
27235,-100,4,1,0,50,0,0
27572,-100,4,2,0,50,0,0
28246,-100,4,1,0,50,0,0
28471,-100,4,2,0,50,0,0
28920,-100,4,1,0,50,0,0
29263,-100,4,2,0,50,0,0
29594,-100,4,2,0,20,0,0
29931,-100,4,1,0,50,0,0
30606,-100,4,2,0,50,0,0
31617,-100,4,1,0,50,0,0
31842,-100,4,2,0,50,0,0
31960,-100,4,1,0,50,0,0
32628,-100,4,1,0,50,0,0
32965,-100,4,2,0,50,0,0
33639,-100,4,1,0,50,0,0
33976,-100,4,2,0,50,0,0
34313,-100,4,1,0,50,0,0
34988,-100,4,2,0,50,0,0
35325,-100,4,1,0,50,0,0
35662,-100,4,2,0,50,0,0
37010,-100,4,1,0,50,0,0
37347,-100,4,2,0,50,0,0
38021,-100,4,1,0,50,0,0
38358,-100,4,2,0,50,0,0
39033,-100,4,1,0,50,0,0
39039,-100,4,2,0,50,0,0
39707,-100,4,1,0,50,0,0
40044,-100,4,2,0,50,0,0
40718,-100,4,1,0,40,0,0
41055,-100,4,2,0,50,0,0
41392,-100,4,2,0,30,0,0
42403,-100,4,1,0,50,0,0
42740,-100,4,2,0,35,0,0
43077,-100,4,2,0,40,0,0
43415,-100,4,1,0,50,0,0
43639,-100,4,2,0,50,0,0
44089,-100,4,1,0,50,0,0
44763,-100,4,2,0,50,0,0
45100,-100,4,1,0,50,0,0
45662,-100,4,2,0,50,0,0
45774,-100,4,1,0,50,0,0
46111,-100,4,2,0,50,0,0
46448,-100,4,1,0,50,0,0
47010,-100,4,2,0,50,0,0
47347,-100,4,1,0,50,0,0
47797,-100,4,2,0,50,0,0
48134,-100,4,1,0,50,0,0
48471,-100,4,2,0,50,0,0
48808,-100,4,1,0,50,0,0
49707,-100,4,2,0,50,0,0
50044,-100,4,1,0,50,0,0
50156,-100,4,2,0,50,0,0
50381,-100,4,1,0,50,0,0
50493,-100,4,2,0,50,0,0
50718,-100,4,1,0,50,0,0
51167,-100,4,2,0,50,0,0
52179,-100,4,1,0,50,0,0
52347,-100,4,2,0,50,0,0
52853,-100,4,1,0,50,0,0
54538,-100,4,2,0,50,0,0
54875,-100,4,1,0,50,0,0
55437,-100,4,2,0,50,0,0
55774,-100,4,1,0,50,0,0
56448,-100,4,2,0,50,0,0
56785,-100,4,1,0,50,0,0
57235,-100,4,2,0,50,0,0
57572,-100,4,1,0,50,0,0
57909,-100,4,2,0,50,0,0
58246,-100,4,1,0,50,0,0
59257,-100,4,2,0,50,0,0
59482,-100,4,1,0,50,0,0
59763,-100,4,2,0,50,0,0
59931,-100,4,1,0,50,0,0
60943,-100,4,2,0,50,0,0
61167,-100,4,1,0,50,0,0
62291,-100,4,2,0,40,0,0
62628,-100,4,1,0,50,0,0
62965,-100,4,2,0,50,0,0
63302,-100,4,1,0,60,0,0
63639,-100,4,2,0,60,0,0
63976,-100,4,1,0,70,0,0
64313,-100,4,2,0,70,0,0
64651,-100,4,1,0,80,0,0
64988,-100,4,2,0,40,0,0
74426,-100,4,2,0,10,0,0
75774,-100,4,2,0,13,0,0
76785,-100,4,1,0,13,0,0
76791,-100,4,2,0,13,0,0
79145,-100,4,1,0,15,0,0
79482,-100,4,2,0,10,0,0
79819,-100,4,2,0,15,0,0
80493,-100,4,1,0,20,0,0
80499,-100,4,2,0,15,0,0
81167,-100,4,2,0,20,0,0
81842,-100,4,2,0,25,0,0
82516,-100,4,1,0,30,0,0
82740,-100,4,2,0,30,0,0
82853,-100,4,1,0,30,0,0
83077,-100,4,2,0,30,0,0
83190,-100,4,1,0,30,0,0
83527,-100,4,2,0,30,0,0
83864,-100,4,1,0,30,0,0
83870,-100,4,2,0,30,0,0
84201,-100,4,1,0,40,0,0
85044,-100,4,2,0,40,0,0
85381,-100,4,1,0,40,0,0
85549,-100,4,1,0,30,0,0
85886,-100,4,2,0,15,0,0
86561,-100,4,1,0,50,0,0
87572,-100,4,2,0,50,0,0
87909,-100,4,1,0,50,0,0
88471,-100,4,2,0,50,0,0
88583,-100,4,1,0,50,0,0
89145,-100,4,2,0,50,0,0
89594,-100,4,1,0,50,0,0
90437,-100,4,2,0,50,0,0
90943,-100,4,1,0,50,0,0
92460,-100,4,2,0,50,0,0
92628,-100,4,1,0,50,0,0
93864,-100,4,2,0,50,0,0
93976,-100,4,1,0,50,0,0
94482,-100,4,2,0,50,0,0
95325,-100,4,1,0,50,0,0
95549,-100,4,2,0,50,0,0
96167,-100,4,1,0,50,0,0
98527,-100,4,2,0,50,0,0
98695,-100,4,1,0,50,0,0
99370,-100,4,2,0,50,0,0
99707,-100,4,1,0,50,0,0
100381,-100,4,2,0,50,0,0
100718,-100,4,1,0,50,0,0
100886,-100,4,2,0,50,0,0
101617,-100,4,1,0,50,0,0
101729,-100,4,2,0,50,0,0
101954,-100,4,1,0,50,0,0
102291,-100,4,2,0,50,0,0
102403,-100,4,1,0,50,0,0
103415,-133.333333333333,4,2,0,50,0,0
103864,-133.333333333333,4,1,0,50,0,0
104089,-133.333333333333,4,2,0,50,0,0
104313,-133.333333333333,4,1,0,50,0,0
104538,-133.333333333333,4,2,0,50,0,0
105437,-100,4,1,0,60,0,0
106785,-100,4,1,0,40,0,0
107965,-100,4,1,0,50,0,0
108134,-133.333333333333,4,2,0,50,0,0
108302,-133.333333333333,4,2,0,40,0,0
108639,-133.333333333333,4,2,0,30,0,0
108808,-133.333333333333,4,1,0,25,0,0
108976,-133.333333333333,4,2,0,20,0,0
109482,-100,4,2,0,10,0,0
128021,-100,4,2,0,20,0,0
128358,-100,4,2,0,30,0,0
128695,-100,4,2,0,40,0,0
129033,-100,4,2,0,50,0,0
129707,-100,4,1,0,50,0,0
130044,-100,4,2,0,50,0,0
130381,-100,4,1,0,50,0,0
130465,-100,4,2,0,50,0,0
130634,-100,4,1,0,30,0,0
130718,-100,4,2,0,50,0,0
131392,-100,4,1,0,50,0,0
131561,-100,4,2,0,50,0,0
131729,-100,4,1,0,40,0,0
132066,-100,4,2,0,40,0,0
132403,-100,4,1,0,40,0,0
132909,-100,4,2,0,40,0,0
133077,-100,4,1,0,20,0,0
133752,-100,4,1,0,40,0,0
133758,-100,4,1,0,20,0,0
135100,-100,4,1,0,30,0,0
135268,-100,4,2,0,30,0,0
135774,-100,4,1,0,40,0,0
135943,-100,4,2,0,30,0,0
136111,-100,4,1,0,40,0,0
136954,-100,4,2,0,40,0,0
137291,-100,4,2,0,30,0,0
137460,-100,4,2,0,20,0,0
137628,-100,4,1,0,50,0,0
138134,-100,4,2,0,40,0,0
138471,-100,4,1,0,40,0,0
138639,-100,4,2,0,40,0,0
138976,-100,4,1,0,40,0,0
139482,-100,4,1,0,30,0,0
139819,-100,4,2,0,30,0,0
139988,-100,4,1,0,30,0,0
140156,-100,4,1,0,40,0,0
140493,-100,4,1,0,50,0,0
140662,-100,4,2,0,50,0,0
140746,-100,4,1,0,30,0,0
141167,-100,4,1,0,40,0,0
141504,-100,4,2,0,30,0,0
141673,-100,4,1,0,30,0,0
141842,-100,4,1,0,40,0,0
142516,-100,4,1,0,50,0,0
142853,-100,4,2,0,40,0,0
143190,-100,4,1,0,50,0,0
143358,-100,4,2,0,50,0,0
143527,-100,4,2,0,40,0,0
143864,-100,4,1,0,40,0,0
144201,-100,4,2,0,30,0,0
144370,-100,4,1,0,30,0,0
144538,-100,4,1,0,40,0,0
144707,-100,4,2,0,30,0,0
144875,-100,4,2,0,20,0,0
145044,-100,4,1,0,40,0,0
145212,-100,4,2,0,30,0,0
145886,-100,4,1,0,30,0,0
146055,-100,4,2,0,20,0,0
146561,-100,4,1,0,30,0,0
146729,-100,4,2,0,20,0,0
147235,-100,4,2,0,30,0,0
147572,-100,4,1,0,40,0,0
147740,-100,4,1,0,30,0,0
147909,-100,4,2,0,40,0,0
148246,-100,4,2,0,30,0,0
148583,-100,4,1,0,40,0,0
148752,-100,4,2,0,30,0,0
149089,-100,4,2,0,20,0,0
149257,-100,4,2,0,20,0,0
149931,-100,4,1,0,15,0,0
150606,-100,4,2,0,12,0,0
156673,-100,4,2,0,5,0,0
157347,-100,4,2,0,10,0,0
158021,-100,4,2,0,15,0,0
159370,-100,4,2,0,20,0,0
160718,-100,4,2,0,25,0,0
162066,-133.333333333333,4,2,0,30,0,0
164763,-133.333333333333,4,2,0,35,0,0
167460,-100,4,2,0,40,0,0
170156,-100,4,2,0,45,0,0
171504,-100,4,2,0,50,0,0
171842,-100,4,2,0,55,0,0
172179,-100,4,2,0,60,0,0
172516,-100,4,2,0,65,0,0
172853,-100,4,2,0,50,0,0
173864,-100,4,1,0,50,0,0
174033,-100,4,2,0,50,0,0
174426,-100,4,1,0,50,0,0
175212,-100,4,2,0,50,0,0
176224,-100,4,1,0,50,0,0
176729,-100,4,2,0,50,0,0
177235,-100,4,1,0,50,0,0
177740,-100,4,2,0,50,0,0
178077,-100,4,2,0,40,0,0
178246,-100,4,1,0,50,0,0
178415,-100,4,2,0,50,0,0
178583,-100,4,1,0,50,0,0
179089,-100,4,2,0,50,0,0
179931,-100,4,1,0,50,0,0
180493,-100,4,2,0,50,0,0
180606,-100,4,1,0,50,0,0
181842,-100,4,2,0,50,0,0
182628,-100,4,1,0,50,0,0
182965,-100,4,1,0,50,0,0
184482,-100,4,2,0,50,0,0
184651,-100,4,1,0,50,0,0
184875,-100,4,2,0,50,0,0
185325,-100,4,1,0,50,0,0
186673,-100,4,2,0,50,0,0
187010,-100,4,1,0,40,0,0
187684,-100,4,1,0,30,0,0
187853,-100,4,2,0,30,0,0
188021,-100,4,1,0,30,0,0
188190,-100,4,2,0,30,0,0
188358,-100,4,1,0,20,0,0
191729,-100,4,1,0,50,0,0
193302,-100,4,2,0,30,0,0
193415,-100,4,1,0,50,0,0
193639,-100,4,2,0,30,0,0
193752,-100,4,1,0,50,0,0
194313,-100,4,2,0,30,0,0
194426,-100,4,1,0,50,0,0
194679,-100,4,2,0,50,0,0
195100,-100,4,1,0,50,0,0
195325,-100,4,2,0,50,0,0
195437,-100,4,1,0,50,0,0
195999,-100,4,2,0,50,0,0
196111,-100,4,1,0,50,0,0
196448,-100,4,2,0,50,0,0
197122,-100,4,1,0,50,0,0
197454,-100,4,2,0,40,0,0
197466,-100,4,1,0,50,0,0
198021,-100,4,2,0,50,0,0
198695,-100,4,1,0,50,0,0
199370,-100,4,2,0,50,0,0
199819,-100,4,1,0,50,0,0
200044,-100,4,2,0,50,0,0
200493,-100,4,1,0,50,0,0
200718,-100,4,2,0,50,0,0
200830,-100,4,1,0,50,0,0
201055,-100,4,2,0,50,0,0
201504,-100,4,1,0,50,0,0
202066,-100,4,2,0,50,0,0
202179,-100,4,1,0,50,0,0
203415,-100,4,2,0,40,0,0
203864,-100,4,1,0,40,0,0
204089,-100,4,2,0,50,0,0
204201,-100,4,1,0,50,0,0
205549,-100,4,2,0,50,0,0
205886,-100,4,1,0,50,0,0
206111,-100,4,2,0,50,0,0
206224,-100,4,1,0,50,0,0
206561,-100,4,2,0,40,0,0
206898,-100,4,1,0,50,0,0
207122,-100,4,2,0,50,0,0
207235,-100,4,1,0,50,0,0
207572,-100,4,2,0,20,0,0
207909,-100,4,1,0,50,0,0
208246,-100,4,2,0,50,0,0
208583,-100,4,1,0,50,0,0
208920,-100,4,2,0,50,0,0
209257,-100,4,1,0,50,0,0
210156,-100,4,2,0,50,0,0
210606,-100,4,2,0,30,0,0
211954,-100,4,2,0,40,0,0
213302,-100,4,1,0,50,0,0
213639,-100,4,2,0,50,0,0
213976,-100,4,1,0,50,0,0
214313,-100,4,2,0,50,0,0
214875,-100,4,1,0,50,0,0
216448,-100,4,2,0,50,0,0
216673,-100,4,1,0,50,0,0
216898,-100,4,2,0,50,0,0
217010,-100,4,1,0,50,0,0
218246,-100,4,2,0,50,0,0
218358,-100,4,1,0,50,0,0
218920,-100,4,2,0,50,0,0
219033,-100,4,1,0,50,0,0
219707,-100,4,2,0,50,0,0
220044,-100,4,1,0,50,0,0
221055,-100,4,2,0,50,0,0
221392,-100,4,1,0,50,0,0
222572,-100,4,2,0,50,0,0
222965,-100,4,1,0,50,0,0
223583,-100,4,2,0,50,0,0
224089,-100,4,1,0,50,0,0
224931,-100,4,2,0,50,0,0
225100,-100,4,1,0,50,0,0
226785,-100,4,1,0,50,0,0
227122,-100,4,2,0,50,0,0
227460,-100,4,1,0,50,0,0
228021,-100,4,2,0,50,0,0
228471,-100,4,1,0,50,0,0
228808,-100,4,2,0,50,0,0
229482,-100,4,1,0,50,0,0
229651,-100,4,2,0,50,0,0
230156,-100,4,1,0,50,0,0
230325,-100,4,2,0,50,0,0
230832,-100,4,2,0,40,0,0
231167,-100,4,1,0,50,0,0
231392,-100,4,2,0,50,0,0
232179,-100,4,1,0,50,0,0
232516,-100,4,2,0,50,0,0
233190,-100,4,1,0,50,0,0
233358,-100,4,2,0,50,0,0
233695,-100,4,1,0,30,0,0
233864,-100,4,1,0,50,0,0
234538,-100,4,2,0,50,0,0
234875,-100,4,1,0,30,0,0
235549,-100,4,1,0,35,0,0
236224,-100,4,1,0,40,0,0
236898,-100,4,1,0,45,0,0
237572,-100,4,2,0,30,0,0

[Colours]
Combo1 : 137,54,71
Combo2 : 132,145,147
Combo3 : 242,242,244
Combo4 : 205,69,83

[HitObjects]
256,192,19145,5,0,1:0:0:0:
71,137,19819,2,0,P|62:89|58:41,1,96,2|0,0:0|1:0,0:0:0:0:
153,56,20493,2,0,L|156:105,1,48
201,119,20830,2,0,P|244:107|278:58,1,96,0|0,0:0|0:0,0:0:0:0:
359,23,21504,1,0,0:0:0:0:
437,79,21842,6,0,L|422:178,1,96,4|0,0:0|0:0,0:0:0:0:
487,244,22516,2,0,P|447:270|400:266,1,96,8|0,0:0|0:0,0:0:0:0:
365,299,23021,1,0,0:0:0:0:
365,299,23190,2,0,L|253:291,1,96,0|0,0:0|0:0,0:0:0:0:
181,331,23864,2,0,B|173:283|173:283|186:235,1,96,8|0,0:0|0:0,0:0:0:0:
105,184,24538,6,0,P|56:199|12:191,1,96,0|2,0:0|0:0,0:0:0:0:
54,105,25212,1,8,0:0:0:0:
22,14,25549,1,2,0:0:0:0:
114,37,25886,2,0,L|212:22,2,96,2|0|8,0:0|0:0|0:0,0:0:0:0:
146,127,26898,1,0,0:0:0:0:
180,216,27235,6,0,L|163:324,1,96,0|0,0:0|0:0,0:0:0:0:
239,371,27909,1,8,0:0:0:0:
317,319,28246,2,0,P|374:317|413:349,1,96,0|0,0:0|0:0,0:0:0:0:
492,376,28920,1,0,0:0:0:0:
473,281,29257,2,0,L|477:178,1,96,8|4,0:0|0:0,0:0:0:0:
413,112,29931,6,0,P|365:116|319:131,2,96,0|0|8,0:0|0:0|0:0,0:0:0:0:
477,40,30943,1,0,0:0:0:0:
382,24,31280,2,0,P|333:21|286:12,1,96,2|0,0:0|0:0,0:0:0:0:
191,4,31954,2,0,B|176:93|218:62|205:143,1,144,10|0,0:0|0:0,0:0:0:0:
231,184,32628,6,0,P|213:224|210:278,1,96,4|0,0:0|0:0,0:0:0:0:
254,360,33302,1,8,0:0:0:0:
158,358,33639,2,0,P|127:329|121:228,1,144,0|0,0:0|0:0,0:0:0:0:
101,187,34313,1,0,0:0:0:0:
37,115,34651,2,0,P|64:74|69:20,1,96,8|0,0:0|0:0,0:0:0:0:
161,57,35325,6,0,B|194:59|194:59|220:69|220:69|254:70,1,96,0|0,0:0|0:0,0:0:0:0:
346,100,35999,1,8,0:0:0:0:
413,37,36336,1,0,0:0:0:0:
455,122,36673,2,0,P|450:145|450:169,1,48,2|0,0:0|0:0,0:0:0:0:
468,214,37010,2,0,P|435:227|406:287,1,96,0|8,0:0|0:0,0:0:0:0:
414,373,37684,1,4,0:0:0:0:
321,348,38021,6,0,B|273:340|273:340|227:350,2,96,0|0|8,0:0|0:0|0:0,0:0:0:0:
272,259,39033,2,0,P|268:186|276:147,1,96,0|2,0:0|0:0,0:0:0:0:
333,90,39707,2,0,L|327:42,1,48,0|0,0:0|0:0,0:0:0:0:
285,18,40044,2,0,P|238:31|190:37,1,96,10|0,0:0|0:0,0:0:0:0:
102,0,40718,6,0,L|112:95,1,96,4|2,0:0|0:0,0:0:0:0:
178,165,41392,1,8,0:0:0:0:
133,250,41729,1,2,0:0:0:0:
210,306,42066,2,0,P|126:345|47:297,1,192,0|0,0:0|0:0,0:0:0:0:
45,201,43077,1,2,0:0:0:0:
110,130,43415,6,0,P|128:86|130:27,2,96,4|2|8,0:0|0:0|0:0,0:0:0:0:
139,221,44426,1,0,0:0:0:0:
218,167,44763,2,0,P|261:150|316:142,1,96,8|0,0:0|0:0,0:0:0:0:
378,75,45437,2,0,P|420:93|464:126,1,96,8|0,0:0|0:0,0:0:0:0:
489,213,46111,5,4,0:0:0:0:
436,293,46448,1,0,0:0:0:0:
361,232,46785,2,0,B|311:220|311:220|262:238,1,96,8|2,0:0|0:0,0:0:0:0:
186,186,47460,2,0,L|191:133,1,48,2|0,0:0|0:0,0:0:0:0:
149,112,47797,2,0,L|139:16,2,96,4|8|2,0:0|0:0|0:0,0:0:0:0:
129,205,48808,5,4,0:0:0:0:
40,166,49145,1,0,0:0:0:0:
7,256,49482,1,8,0:0:0:0:
61,335,49819,2,0,P|146:361|233:306,1,192,2|8,0:0|0:0,0:0:0:0:
277,227,50830,1,8,0:0:0:0:
217,151,51167,1,8,0:0:0:0:
268,69,51504,6,0,P|303:36|352:17,2,96,4|2|8,0:0|0:0|0:0,0:0:0:0:
172,57,52516,2,0,P|148:43|128:24,1,48,2|4,0:0|0:0,0:0:0:0:
95,59,52853,2,0,P|70:72|44:80,1,48,0|8,0:0|0:0,0:0:0:0:
34,123,53190,1,0,0:0:0:0:
102,189,53527,2,0,P|128:232|145:277,1,96,8|8,0:0|0:0,0:0:0:0:
240,284,54201,6,0,P|261:187|300:104,1,192,6|8,0:0|0:0,0:0:0:0:
378,47,55212,1,0,0:0:0:0:
455,103,55549,2,0,P|477:109|505:112,2,48,2|0|0,0:0|0:0|0:0,0:0:0:0:
395,179,56224,2,0,P|424:215|469:250,1,96,8|2,0:0|0:0,0:0:0:0:
441,339,56898,6,0,B|391:357|305:302|252:314,1,192,0|8,0:0|0:0,0:0:0:0:
187,244,57909,1,2,0:0:0:0:
125,317,58246,2,0,P|104:326|79:334,2,48,2|0|0,0:0|0:0|0:0,0:0:0:0:
187,244,58920,1,8,0:0:0:0:
115,179,59257,1,4,0:0:0:0:
167,98,59594,6,0,P|201:68|250:48,1,96,0|0,0:0|0:0,0:0:0:0:
321,109,60268,2,0,P|361:129|414:135,1,96,8|2,0:0|0:0,0:0:0:0:
486,196,60943,2,0,P|502:237|509:299,2,96,2|0|8,0:0|0:0|0:0,0:0:0:0:
395,227,61954,1,2,0:0:0:0:
313,176,62291,6,0,B|288:135|288:135|271:84,2,96,0|0|0,0:0|0:0|0:0,0:0:0:0:
243,241,63302,2,0,B|200:264|200:264|160:299,2,96,0|8|0,0:0|0:0|0:0,0:0:0:0:
313,306,64313,1,8,0:0:0:0:
384,240,64651,1,0,0:0:0:0:
435,91,74426,6,0,P|395:64|348:59,1,96,0|0,0:0|0:0,0:0:0:0:
320,151,75100,2,0,P|280:177|233:182,1,96,0|0,0:0|0:0,0:0:0:0:
210,88,75774,2,0,L|191:284,1,192,2|0,0:0|0:0,0:0:0:0:
118,341,76785,1,0,0:0:0:0:
68,155,77460,2,0,B|62:110|62:110|80:62,2,96,0|0|2,0:0|0:0|0:0,0:0:0:0:
159,124,78471,6,0,B|266:137|235:74|341:85,1,192,0|8,0:0|0:0,0:0:0:0:
314,178,79482,1,0,0:0:0:0:
389,237,79819,2,0,L|383:344,1,96,8|0,0:0|0:0,0:0:0:0:
299,286,80493,2,0,P|241:299|212:335,1,96,8|8,0:0|0:0,0:0:0:0:
126,355,81167,6,0,P|78:356|30:355,2,96,2|0|8,0:0|0:0|0:0,0:0:0:0:
162,266,82179,1,4,0:0:0:0:
126,176,82516,2,0,B|117:129|117:129|121:80,2,96,0|0|8,0:0|0:0|0:0,0:0:0:0:
162,266,83527,2,0,L|225:262,1,48,2|0,0:0|0:0,0:0:0:0:
257,272,83864,6,0,P|278:233|279:171,1,96,0|2,0:0|0:0,0:0:0:0:
375,164,84538,2,0,P|398:201|451:233,1,96,8|0,0:0|0:0,0:0:0:0:
484,209,85044,1,4,0:0:0:0:
484,209,85212,2,0,L|491:161,2,48,8|8|0,0:0|0:0|0:0,0:0:0:0:
484,304,85886,1,0,0:0:0:0:
296,346,86561,6,0,P|265:309|244:259,1,96,4|0,0:0|0:0,0:0:0:0:
243,169,87235,1,8,0:0:0:0:
157,213,87572,1,2,0:0:0:0:
99,136,87909,2,0,P|51:115|-11:105,2,96,8|0|8,0:0|0:0|0:0,0:0:0:0:
157,59,88920,1,0,0:0:0:0:
248,89,89257,6,0,P|277:57|301:7,1,96,4|0,0:0|0:0,0:0:0:0:
396,8,89931,1,8,0:0:0:0:
470,68,90268,1,0,0:0:0:0:
387,117,90606,2,0,P|370:156|365:212,1,96,8|0,0:0|0:0,0:0:0:0:
269,222,91280,2,0,P|285:261|322:304,1,96,0|0,0:0|0:0,0:0:0:0:
251,369,91954,5,4,0:0:0:0:
164,326,92291,2,0,B|136:316|136:316|71:337,2,96,0|8|0,0:0|0:0|0:0,0:0:0:0:
208,241,93302,1,2,0:0:0:0:
300,266,93639,2,0,B|321:246|321:246|336:180,2,96,0|2|2,0:0|0:0|0:0,0:0:0:0:
208,241,94651,6,0,P|171:194|150:109,1,144,4|0,0:0|0:0,0:0:0:0:
105,95,95325,2,0,P|60:134|24:214,1,144,0|0,0:0|0:0,0:0:0:0:
20,258,95999,1,2,0:0:0:0:
71,339,96336,1,0,0:0:0:0:
161,305,96673,2,0,L|167:253,2,48,0|0|8,0:0|0:0|0:0,0:0:0:0:
235,364,97347,6,0,P|281:358|326:336,1,96,4|0,0:0|0:0,0:0:0:0:
363,248,98021,1,8,0:0:0:0:
451,284,98358,2,0,P|490:200|475:92,1,192,0|2,0:0|0:0,0:0:0:0:
394,60,99370,1,4,0:0:0:0:
340,140,99707,1,8,0:0:0:0:
275,69,100044,6,0,P|235:37|185:11,2,96,4|2|8,0:0|0:0|0:0,0:0:0:0:
251,161,101055,1,2,0:0:0:0:
281,252,101392,2,0,B|252:272|252:272|184:265,1,96,4|2,0:0|0:0,0:0:0:0:
141,179,102066,2,0,B|112:159|112:159|44:166,1,96,8|0,0:0|0:0,0:0:0:0:
8,250,102740,5,4,0:0:0:0:
173,347,103415,2,0,P|234:309|289:263,2,144.000005493164,2|2|2,0:0|0:0|0:0,0:0:0:0:
44,204,105437,5,4,0:0:0:0:
110,24,106111,1,4,0:0:0:0:
271,127,106785,1,4,0:0:0:0:
452,64,107460,1,8,0:0:0:0:
400,198,107965,1,2,0:0:0:0:
400,198,108134,6,0,P|393:273|406:345,2,144.000005493164,4|8|0,0:0|0:0|0:0,0:0:0:0:
284,70,127684,6,0,B|391:50|360:114|470:92,2,192,0|2|0,0:0|0:0|0:0,0:0:0:0:
105,140,129707,6,0,L|121:255,1,96,4|2,0:0|0:0,0:0:0:0:
154,266,130212,1,0,0:0:0:0:
154,266,130381,2,0,L|138:381,1,96,0|0,0:0|0:0,0:0:0:0:
245,380,131055,2,0,L|258:284,1,96,8|0,0:0|0:0,0:0:0:0:
300,261,131561,1,2,0:0:0:0:
300,261,131729,2,0,P|346:258|385:285,1,96,8|8,0:0|0:0,0:0:0:0:
460,226,132403,6,0,P|445:163|438:27,1,192,0|0,0:0|0:0,0:0:0:0:
398,8,133246,1,0,0:0:0:0:
398,8,133415,2,0,L|321:20,1,48,0|0,0:0|0:0,0:0:0:0:
326,57,133752,2,0,P|279:49|231:44,1,96,0|0,0:0|0:0,0:0:0:0:
189,67,134257,1,0,0:0:0:0:
99,100,134594,2,0,L|51:91,1,48,0|0,0:0|0:0,0:0:0:0:
66,186,135100,6,0,P|112:192|156:173,1,96,0|0,0:0|0:0,0:0:0:0:
251,160,135774,2,0,L|241:224,1,48,0|2,0:0|0:0,0:0:0:0:
264,250,136111,1,0,0:0:0:0:
299,335,136448,2,0,L|394:327,1,96,8|0,0:0|0:0,0:0:0:0:
432,298,136954,1,0,0:0:0:0:
432,298,137122,2,0,P|414:246|412:184,1,96,8|8,0:0|0:0,0:0:0:0:
447,116,137797,6,0,L|504:124,2,48,2|2|0,0:0|0:0|0:0,0:0:0:0:
412,83,138302,2,0,L|364:86,1,48,8|2,0:0|0:0,0:0:0:0:
321,64,138639,1,0,0:0:0:0:
321,64,138808,1,8,0:0:0:0:
259,137,139145,2,0,L|271:252,1,96,10|0,0:0|0:0,0:0:0:0:
202,301,139819,1,0,0:0:0:0:
202,301,139988,2,0,L|127:305,1,48,0|0,0:0|0:0,0:0:0:0:
67,346,140493,6,0,P|48:332|32:315,1,48,2|2,0:0|0:0,0:0:0:0:
34,266,140830,2,0,P|25:245|19:221,1,48,0|10,0:0|0:0,0:0:0:0:
43,178,141167,2,0,P|58:108|54:37,1,144,2|2,0:0|0:0,0:0:0:0:
92,7,141842,1,8,0:0:0:0:
180,42,142179,1,0,0:0:0:0:
273,20,142516,2,0,L|371:10,1,96,0|0,0:0|0:0,0:0:0:0:
408,36,143021,1,0,0:0:0:0:
408,36,143190,6,0,P|420:56|430:78,2,48,0|8|8,0:0|0:0|0:0,0:0:0:0:
336,99,143864,1,0,0:0:0:0:
391,177,144201,2,0,L|386:233,1,48,8|0,0:0|0:0,0:0:0:0:
407,268,144538,2,0,B|357:264|357:264|315:281|315:281|266:275,1,144,4|0,0:0|0:0,0:0:0:0:
130,321,145549,2,0,L|122:259,1,48,0|10,0:0|0:0,0:0:0:0:
96,233,145886,6,0,P|113:171|116:112,1,96,0|0,0:0|0:0,0:0:0:0:
117,42,146561,2,0,P|163:49|195:84,1,96,0|0,0:0|0:0,0:0:0:0:
247,165,147235,2,0,L|365:158,1,96,8|0,0:0|0:0,0:0:0:0:
377,125,147740,1,2,0:0:0:0:
377,125,147909,1,8,0:0:0:0:
463,166,148246,1,0,0:0:0:0:
426,254,148583,6,0,L|423:301,1,48,0|2,0:0|0:0,0:0:0:0:
385,331,148920,2,0,L|337:328,1,48,0|6,0:0|0:0,0:0:0:0:
294,352,149257,2,0,P|261:320|214:317,1,96,8|0,0:0|0:0,0:0:0:0:
172,294,149763,1,0,0:0:0:0:
172,294,149931,6,0,P|170:197|183:102,2,192,4|0|0,0:0|0:0|0:0,0:0:0:0:
256,192,156673,12,0,159370,0:0:0:0:
115,291,161392,5,0,0:0:0:0:
271,180,162066,6,0,P|291:111|295:28,2,144.000005493164,2|0|0,0:0|0:0|0:0,0:0:0:0:
335,360,164089,1,0,0:0:0:0:
491,250,164763,6,0,P|499:181|460:117,1,144.000005493164,2|0,0:0|0:0,0:0:0:0:
383,64,165774,1,0,0:0:0:0:
328,142,166111,2,0,P|297:157|257:154,1,72.0000027465821,2|0,0:0|0:0,0:0:0:0:
190,89,166785,1,8,0:0:0:0:
104,45,167122,1,0,0:0:0:0:
24,99,167460,6,0,P|1:141|-5:195,1,96,0|0,1:0|0:0,0:0:0:0:
76,237,168134,2,0,P|89:282|123:325,1,96,8|0,0:0|0:0,0:0:0:0:
200,370,168808,1,2,0:0:0:0:
278,315,169145,2,0,P|315:294|374:285,2,96,0|8|0,1:0|0:0|0:0,0:0:0:0:
200,258,170156,5,0,1:0:0:0:
152,174,170493,1,0,1:0:0:0:
222,109,170830,2,0,P|242:65|251:12,1,96,8|0,0:0|0:0,0:0:0:0:
345,35,171504,2,0,P|353:82|373:125,1,96,0|2,1:0|0:0,0:0:0:0:
461,164,172179,1,8,0:0:0:0:
386,224,172516,1,0,0:0:0:0:
425,311,172853,6,0,B|324:344|343:267|240:292,1,192,4|4,0:0|0:0,0:0:0:0:
151,327,173864,1,0,0:0:0:0:
76,265,174201,2,0,P|89:220|91:172,1,96,0|0,0:0|0:0,0:0:0:0:
168,115,174875,2,0,P|154:69|152:21,1,96,0|2,0:0|0:0,0:0:0:0:
242,54,175549,1,4,0:0:0:0:
332,22,175886,1,8,0:0:0:0:
361,113,176224,6,0,L|354:209,1,96,8|0,0:0|0:0,0:0:0:0:
444,240,176898,2,0,L|437:336,1,96,2|0,0:0|0:0,0:0:0:0:
344,359,177572,1,8,0:0:0:0:
275,289,177909,1,2,0:0:0:0:
194,341,178246,6,0,P|176:291|184:245,1,96,0|0,0:0|0:0,0:0:0:0:
240,173,178920,2,0,P|258:123|249:77,1,96,8|2,0:0|0:0,0:0:0:0:
186,10,179594,2,0,L|90:22,1,96,4|0,0:0|0:0,0:0:0:0:
132,109,180268,2,0,L|36:121,1,96,8|0,0:0|0:0,0:0:0:0:
13,215,180943,5,2,0:0:0:0:
96,262,181280,1,2,0:0:0:0:
177,210,181617,2,0,P|222:223|251:261,1,96,8|2,0:0|0:0,0:0:0:0:
316,331,182291,2,0,P|345:293|390:279,1,96,0|0,0:0|0:0,0:0:0:0:
485,294,182965,1,8,0:0:0:0:
466,199,183302,1,0,0:0:0:0:
442,105,183639,6,0,L|449:9,1,96,4|0,0:0|0:0,0:0:0:0:
362,50,184313,2,0,P|314:42|267:50,1,96,8|0,0:0|0:0,0:0:0:0:
318,131,184988,2,0,P|288:168|270:212,1,96,8|0,0:0|0:0,0:0:0:0:
329,289,185662,1,8,0:0:0:0:
240,325,185999,1,0,0:0:0:0:
161,270,186336,6,0,P|113:273|71:295,2,96,0|8|0,0:0|0:0|0:0,0:0:0:0:
240,325,187347,1,0,0:0:0:0:
329,289,187684,2,0,P|376:285|418:263,2,96,0|0|0,0:0|0:0|0:0,0:0:0:0:
250,234,188695,1,0,0:0:0:0:
440,142,191729,6,0,P|411:97|355:76,1,96,0|8,0:0|0:0,0:0:0:0:
281,103,192403,2,0,P|256:143|255:190,1,96,0|8,0:0|0:0,0:0:0:0:
322,259,193077,2,0,L|416:243,2,96,0|0|0,0:0|0:0|0:0,0:0:0:0:
256,329,194089,1,0,0:0:0:0:
197,252,194426,6,0,P|137:214|58:188,1,144,4|0,0:0|0:0,0:0:0:0:
35,154,195100,2,0,L|30:105,2,48,8|0|0,0:0|0:0|0:0,0:0:0:0:
122,113,195774,2,0,P|145:72|162:25,1,96,0|0,0:0|0:0,0:0:0:0:
247,69,196448,1,8,0:0:0:0:
317,3,196785,1,2,0:0:0:0:
392,61,197122,6,0,P|439:64|486:39,2,96,0|8|8,0:0|0:0|0:0,0:0:0:0:
335,138,198134,1,2,0:0:0:0:
416,188,198471,2,0,P|436:231|448:291,1,96,0|0,0:0|0:0,0:0:0:0:
376,343,199145,1,8,0:0:0:0:
292,294,199482,1,4,0:0:0:0:
204,334,199819,6,2,P|154:347|105:352,1,96,4|2,0:0|0:0,0:0:0:0:
44,281,200493,2,0,P|57:231|77:186,1,96,8|0,0:0|0:0,0:0:0:0:
169,168,201167,1,4,0:0:0:0:
229,242,201504,1,2,0:0:0:0:
306,299,201842,2,0,P|354:306|408:292,1,96,8|2,0:0|0:0,0:0:0:0:
484,251,202516,5,6,0:0:0:0:
401,201,202853,1,0,0:0:0:0:
485,156,203190,2,0,P|497:109|503:55,1,96,8|0,0:0|0:0,0:0:0:0:
415,21,203864,2,0,P|403:68|397:122,1,96,0|0,0:0|0:0,0:0:0:0:
313,162,204538,1,8,0:0:0:0:
242,96,204875,1,0,0:0:0:0:
164,152,205212,6,0,P|119:171|72:182,1,96,4|0,0:0|0:0,0:0:0:0:
111,269,205886,2,0,P|157:283|200:305,1,96,8|0,0:0|0:0,0:0:0:0:
288,267,206561,2,0,P|297:218|298:165,2,96,4|0|8,0:0|0:0|0:0,0:0:0:0:
351,339,207572,1,4,0:0:0:0:
412,265,207909,6,0,P|456:251|510:243,1,96,0|0,0:0|0:0,0:0:0:0:
468,154,208583,2,0,P|422:138|380:116,1,96,8|0,0:0|0:0,0:0:0:0:
295,70,209257,1,0,0:0:0:0:
235,145,209594,2,0,P|220:190|211:240,2,96,0|8|2,0:0|0:0|0:0,0:0:0:0:
184,63,210606,6,0,B|76:47|121:118|2:100,1,192,4|0,0:0|0:0,0:0:0:0:
7,292,211954,2,0,P|63:291|105:314,1,96,0|0,0:0|0:0,0:0:0:0:
181,355,212628,2,0,L|228:349,1,48,2|0,0:0|0:0,0:0:0:0:
322,239,213302,6,0,P|286:208|239:201,2,96,0|8|0,0:0|0:0|0:0,0:0:0:0:
401,293,214313,1,8,0:0:0:0:
480,239,214651,2,0,L|476:185,1,48,2|0,0:0|0:0,0:0:0:0:
493,145,214988,2,0,P|465:107|449:62,1,96,0|0,0:0|0:0,0:0:0:0:
364,18,215662,1,2,0:0:0:0:
279,63,215999,6,0,P|236:40|189:32,1,96,4|0,0:0|0:0,0:0:0:0:
107,81,216673,2,0,L|117:182,1,96,8|0,0:0|0:0,0:0:0:0:
185,242,217347,1,2,0:0:0:0:
107,298,217684,1,0,0:0:0:0:
186,351,218021,2,0,P|232:340|265:306,1,96,8|0,0:0|0:0,0:0:0:0:
309,221,218695,6,0,P|359:218|453:329,1,192,0|8,0:0|0:0,0:0:0:0:
373,368,219707,1,2,0:0:0:0:
294,312,220044,2,0,L|231:318,1,48,0|0,0:0|0:0,0:0:0:0:
212,351,220381,2,0,P|192:315|178:259,1,96,0|8,0:0|0:0,0:0:0:0:
157,168,221055,1,2,0:0:0:0:
247,137,221392,6,0,P|288:137|343:153,2,96,4|0|8,0:0|0:0|0:0,0:0:0:0:
157,168,222403,1,0,0:0:0:0:
94,94,222740,2,0,P|78:50|87:-1,1,96,4|0,0:0|0:0,0:0:0:0:
175,38,223415,2,0,L|222:31,1,48,8|2,0:0|0:0,0:0:0:0:
267,48,223752,2,0,L|314:41,1,48,2|2,0:0|0:0,0:0:0:0:
356,65,224089,6,0,B|407:69|396:42|449:45,1,96,4|0,0:0|0:0,0:0:0:0:
491,130,224763,2,0,P|463:168|446:213,1,96,8|0,0:0|0:0,0:0:0:0:
412,248,225268,1,2,0:0:0:0:
412,248,225437,2,0,P|424:280|428:298,2,48,0|8|8,0:0|0:0|0:0,0:0:0:0:
323,210,226111,2,0,L|228:224,1,96,8|0,0:0|0:0,0:0:0:0:
149,279,226785,6,0,B|132:228|132:228|157:145|157:145|144:95,1,192,4|8,0:0|0:0,0:0:0:0:
214,29,227797,1,0,0:0:0:0:
296,77,228134,2,0,L|342:61,2,48,2|2|4,0:0|0:0|0:0,0:0:0:0:
263,167,228808,2,0,B|295:185|295:185|363:193,1,96,8|6,0:0|0:0,0:0:0:0:
440,233,229482,6,0,P|442:283|433:327,1,96,6|2,0:0|0:0,0:0:0:0:
345,368,230156,2,0,P|295:370|251:361,1,96,8|2,0:0|0:0,0:0:0:0:
160,326,230830,1,4,0:0:0:0:
122,296,230999,1,0,0:0:0:0:
109,249,231167,1,4,0:0:0:0:
174,176,231504,2,0,P|190:131|197:80,1,96,8|4,0:0|0:0,0:0:0:0:
276,30,232179,6,0,B|322:23|322:23|376:33,2,96,6|0|8,0:0|0:0|0:0,0:0:0:0:
196,83,233190,1,0,0:0:0:0:
116,29,233527,2,0,P|92:23|63:21,1,48,2|4,0:0|0:0,0:0:0:0:
81,67,233864,2,0,P|56:71|29:82,1,48,2|0,0:0|0:0,0:0:0:0:
70,111,234201,2,0,P|34:145|6:187,1,96,10|0,0:0|0:0,0:0:0:0:
39,274,234875,6,0,B|98:296|98:296|135:288,1,96,12|2,0:0|0:0,0:0:0:0:
196,219,235549,2,0,B|228:212|228:212|287:234,1,96,12|0,0:0|0:0,0:0:0:0:
301,329,236224,1,14,0:0:0:0:
390,362,236561,1,0,0:0:0:0:
468,306,236898,1,14,0:0:0:0:
458,210,237235,1,10,0:0:0:0:
367,179,237572,5,4,0:0:0:0:
