osu file format v14

[General]
AudioFilename: audio.mp3
AudioLeadIn: 0
PreviewTime: 190971
Countdown: 1
SampleSet: Soft
StackLeniency: 0.7
Mode: 0
LetterboxInBreaks: 0
WidescreenStoryboard: 0

[Editor]
Bookmarks: 19145,43415,64988,86561,108134,151280,172853,194426,210606,226785,237572
DistanceSpacing: 1.5
BeatDivisor: 4
GridSize: 8
TimelineZoom: 1

[Metadata]
Title:Sense of Nostalgia
TitleUnicode:Sense of Nostalgia
Artist:tieff
ArtistUnicode:tieff
Creator:Mirash
Version:Collab Insane
Source:
Tags:Hinsvar Trynna schoolboy Komore Delis osu! featured artist fa mappers' guild
BeatmapID:1940875
BeatmapSetID:929284

[Difficulty]
HPDrainRate:7
CircleSize:4
OverallDifficulty:8
ApproachRate:8
SliderMultiplier:1.2
SliderTickRate:1

[Events]
//Background and Video events
0,0,"natsukahii kanji.jpg",0,0
//Break Periods
2,65188,73676
2,110830,126934
2,151480,155923
2,189063,190979
//Storyboard Layer 0 (Background)
//Storyboard Layer 1 (Fail)
//Storyboard Layer 2 (Pass)
//Storyboard Layer 3 (Foreground)
//Storyboard Sound Samples

[TimingPoints]
269,337.078651685393,4,1,0,60,1,0
20493,-100,4,2,0,50,0,0
20830,-100,4,1,0,50,0,0
21173,-100,4,2,0,50,0,0
21504,-100,4,2,0,50,0,0
21842,-100,4,1,0,50,0,0
22179,-100,4,2,0,50,0,0
22853,-100,4,1,0,50,0,0
23190,-100,4,2,0,50,0,0
23527,-100,4,1,0,50,0,0
24201,-100,4,2,0,50,0,0
24538,-100,4,1,0,50,0,0
24763,-100,4,2,0,50,0,0
26111,-100,4,2,0,50,0,0
26224,-100,4,1,0,50,0,0
26448,-100,4,2,0,50,0,0
27235,-100,4,1,0,50,0,0
27572,-100,4,2,0,50,0,0
28246,-100,4,1,0,50,0,0
28471,-100,4,2,0,50,0,0
28920,-100,4,1,0,50,0,0
29263,-100,4,2,0,50,0,0
29594,-100,4,2,0,20,0,0
29931,-100,4,1,0,50,0,0
30606,-100,4,2,0,50,0,0
31617,-100,4,1,0,50,0,0
31842,-100,4,2,0,50,0,0
31960,-100,4,1,0,50,0,0
32628,-100,4,1,0,50,0,0
32965,-100,4,2,0,50,0,0
33639,-100,4,1,0,50,0,0
33976,-100,4,2,0,50,0,0
34313,-100,4,1,0,50,0,0
34538,-100,4,2,0,50,0,0
34651,-100,4,1,0,50,0,0
34988,-100,4,2,0,50,0,0
35325,-100,4,1,0,50,0,0
35662,-100,4,2,0,50,0,0
37010,-100,4,1,0,50,0,0
37347,-100,4,2,0,50,0,0
38021,-100,4,1,0,50,0,0
38358,-100,4,2,0,50,0,0
39033,-100,4,1,0,50,0,0
39039,-100,4,2,0,50,0,0
39707,-100,4,1,0,50,0,0
40044,-100,4,2,0,50,0,0
40718,-100,4,1,0,40,0,0
41055,-100,4,2,0,50,0,0
41392,-100,4,2,0,30,0,0
42403,-100,4,1,0,50,0,0
42740,-100,4,2,0,35,0,0
43077,-100,4,2,0,40,0,0
43415,-100,4,1,0,50,0,0
43639,-100,4,2,0,50,0,0
44089,-100,4,1,0,50,0,0
44763,-100,4,2,0,50,0,0
45100,-100,4,1,0,50,0,0
45662,-100,4,2,0,50,0,0
45774,-100,4,1,0,50,0,0
45999,-100,4,2,0,20,0,0
46111,-100,4,2,0,50,0,0
46448,-100,4,1,0,50,0,0
47010,-100,4,2,0,50,0,0
47347,-100,4,1,0,50,0,0
47797,-100,4,2,0,50,0,0
48134,-100,4,1,0,50,0,0
48471,-100,4,2,0,50,0,0
48808,-100,4,1,0,50,0,0
49707,-100,4,2,0,50,0,0
50044,-100,4,1,0,50,0,0
50156,-100,4,2,0,50,0,0
50381,-100,4,1,0,50,0,0
50493,-100,4,2,0,50,0,0
50718,-100,4,1,0,50,0,0
51167,-100,4,2,0,50,0,0
52179,-100,4,1,0,50,0,0
52347,-100,4,2,0,50,0,0
52853,-100,4,1,0,50,0,0
54538,-100,4,2,0,50,0,0
54875,-100,4,1,0,50,0,0
55437,-100,4,2,0,50,0,0
55774,-100,4,1,0,50,0,0
56448,-100,4,2,0,50,0,0
56785,-100,4,1,0,50,0,0
57235,-100,4,2,0,50,0,0
57572,-100,4,1,0,50,0,0
57909,-100,4,2,0,50,0,0
58246,-100,4,1,0,50,0,0
59257,-100,4,2,0,50,0,0
59482,-100,4,1,0,50,0,0
59763,-100,4,2,0,50,0,0
59931,-100,4,1,0,50,0,0
60943,-100,4,2,0,50,0,0
61167,-100,4,1,0,50,0,0
62291,-100,4,2,0,40,0,0
62628,-100,4,1,0,50,0,0
62965,-100,4,2,0,50,0,0
63302,-100,4,1,0,60,0,0
63639,-100,4,2,0,60,0,0
63976,-100,4,1,0,70,0,0
64313,-100,4,2,0,70,0,0
64651,-100,4,1,0,80,0,0
64988,-100,4,2,0,40,0,0
74426,-200,4,2,0,10,0,0
75774,-200,4,2,0,13,0,0
76785,-200,4,1,0,13,0,0
76791,-200,4,2,0,13,0,0
79145,-200,4,1,0,15,0,0
79482,-200,4,2,0,10,0,0
79819,-200,4,2,0,15,0,0
80493,-200,4,1,0,20,0,0
80499,-200,4,2,0,15,0,0
81167,-200,4,2,0,20,0,0
81842,-200,4,2,0,25,0,0
82516,-200,4,1,0,30,0,0
82740,-200,4,2,0,30,0,0
82853,-200,4,1,0,30,0,0
83077,-200,4,2,0,30,0,0
83190,-200,4,1,0,30,0,0
83527,-200,4,2,0,30,0,0
83864,-133.333333333333,4,1,0,30,0,0
83870,-133.333333333333,4,2,0,30,0,0
84201,-133.333333333333,4,1,0,40,0,0
84370,-133.333333333333,4,2,0,15,0,0
84538,-133.333333333333,4,1,0,40,0,0
85044,-133.333333333333,4,2,0,40,0,0
85381,-133.333333333333,4,1,0,40,0,0
85549,-133.333333333333,4,1,0,30,0,0
85718,-133.333333333333,4,1,0,20,0,0
85886,-133.333333333333,4,2,0,15,0,0
86561,-100,4,1,0,50,0,0
87066,-100,4,2,0,50,0,0
87235,-100,4,1,0,50,0,0
87572,-100,4,2,0,50,0,0
87740,-100,4,2,0,20,0,0
87909,-100,4,1,0,50,0,0
88471,-100,4,2,0,50,0,0
88583,-100,4,1,0,50,0,0
89145,-100,4,2,0,50,0,0
89594,-100,4,1,0,50,0,0
89763,-100,4,2,0,50,0,0
89931,-100,4,1,0,50,0,0
90437,-100,4,2,0,50,0,0
90943,-100,4,1,0,50,0,0
91785,-100,4,2,0,50,0,0
91954,-100,4,1,0,50,0,0
92460,-100,4,2,0,50,0,0
92628,-100,4,1,0,50,0,0
93190,-100,4,2,0,50,0,0
93302,-100,4,1,0,50,0,0
93864,-100,4,2,0,50,0,0
93976,-100,4,1,0,50,0,0
94482,-100,4,2,0,50,0,0
95325,-100,4,1,0,50,0,0
95549,-100,4,2,0,50,0,0
96167,-100,4,1,0,50,0,0
98190,-100,4,2,0,50,0,0
98358,-100,4,1,0,50,0,0
98527,-100,4,2,0,50,0,0
98695,-100,4,1,0,50,0,0
99370,-100,4,2,0,50,0,0
99707,-100,4,1,0,50,0,0
100381,-100,4,2,0,50,0,0
100718,-100,4,1,0,50,0,0
100886,-100,4,2,0,50,0,0
101617,-100,4,1,0,50,0,0
101729,-100,4,2,0,50,0,0
101954,-100,4,1,0,50,0,0
102291,-100,4,2,0,50,0,0
102403,-100,4,1,0,50,0,0
103415,-100,4,2,0,50,0,0
103864,-100,4,1,0,50,0,0
104089,-100,4,2,0,50,0,0
104313,-100,4,1,0,50,0,0
104988,-100,4,2,0,50,0,0
105437,-100,4,1,0,60,0,0
106785,-100,4,1,0,40,0,0
107010,-100,4,2,0,20,0,0
107122,-100,4,1,0,30,0,0
107460,-100,4,1,0,40,0,0
107797,-100,4,2,0,50,0,0
107965,-100,4,1,0,50,0,0
108134,-100,4,2,0,50,0,0
108302,-200,4,2,0,40,0,0
108639,-100,4,2,0,30,0,0
108808,-100,4,1,0,25,0,0
108976,-100,4,2,0,20,0,0
109482,-100,4,2,0,10,0,0
128021,-100,4,2,0,20,0,0
128358,-100,4,2,0,30,0,0
128695,-100,4,2,0,40,0,0
129033,-100,4,2,0,50,0,0
129707,-100,4,1,0,50,0,0
130044,-100,4,2,0,50,0,0
130381,-100,4,1,0,50,0,0
130465,-100,4,2,0,50,0,0
130634,-100,4,1,0,30,0,0
130718,-100,4,2,0,50,0,0
130886,-100,4,2,0,40,0,0
130971,-100,4,2,0,40,0,0
131055,-100,4,2,0,50,0,0
131392,-100,4,1,0,50,0,0
131561,-100,4,2,0,50,0,0
131729,-100,4,1,0,40,0,0
132066,-100,4,2,0,40,0,0
132403,-100,4,1,0,40,0,0
132909,-100,4,2,0,40,0,0
133077,-100,4,1,0,20,0,0
133752,-100,4,1,0,40,0,0
133758,-100,4,1,0,20,0,0
135100,-100,4,1,0,30,0,0
135268,-100,4,2,0,30,0,0
135774,-100,4,1,0,40,0,0
135943,-100,4,2,0,30,0,0
136111,-100,4,1,0,40,0,0
136280,-100,4,2,0,30,0,0
136448,-100,4,1,0,40,0,0
136954,-100,4,2,0,40,0,0
137291,-100,4,2,0,30,0,0
137460,-100,4,2,0,20,0,0
137628,-100,4,1,0,50,0,0
138134,-100,4,2,0,40,0,0
138471,-100,4,1,0,40,0,0
138639,-100,4,2,0,40,0,0
138976,-100,4,1,0,40,0,0
139482,-100,4,1,0,30,0,0
139819,-100,4,2,0,30,0,0
139988,-100,4,1,0,30,0,0
140156,-100,4,1,0,40,0,0
140325,-100,4,2,0,50,0,0
140493,-100,4,1,0,50,0,0
140662,-100,4,2,0,50,0,0
140746,-100,4,1,0,30,0,0
141167,-100,4,1,0,40,0,0
141504,-100,4,2,0,30,0,0
141673,-100,4,1,0,30,0,0
141842,-100,4,1,0,40,0,0
142347,-100,4,2,0,40,0,0
142516,-100,4,1,0,50,0,0
142853,-100,4,2,0,40,0,0
143190,-100,4,1,0,50,0,0
143358,-100,4,2,0,50,0,0
143527,-100,4,2,0,40,0,0
143695,-100,4,2,0,30,0,0
143864,-100,4,1,0,40,0,0
144033,-100,4,2,0,40,0,0
144201,-100,4,2,0,30,0,0
144370,-100,4,1,0,30,0,0
144454,-100,4,2,0,30,0,0
144538,-100,4,1,0,40,0,0
144707,-100,4,2,0,30,0,0
144875,-100,4,2,0,20,0,0
145044,-100,4,1,0,40,0,0
145212,-100,4,2,0,30,0,0
145886,-100,4,1,0,30,0,0
146055,-100,4,2,0,20,0,0
146561,-100,4,1,0,30,0,0
146729,-100,4,2,0,20,0,0
147235,-100,4,2,0,30,0,0
147572,-100,4,1,0,40,0,0
147656,-100,4,2,0,30,0,0
147740,-100,4,1,0,30,0,0
147825,-100,4,2,0,30,0,0
147909,-100,4,2,0,40,0,0
148246,-100,4,2,0,30,0,0
148583,-100,4,1,0,40,0,0
148752,-100,4,2,0,30,0,0
149089,-100,4,2,0,20,0,0
149257,-100,4,2,0,20,0,0
149931,-100,4,1,0,15,0,0
150606,-100,4,2,0,12,0,0
156673,-100,4,2,0,5,0,0
157347,-100,4,2,0,10,0,0
158021,-100,4,2,0,15,0,0
159370,-100,4,2,0,20,0,0
160718,-100,4,2,0,25,0,0
162066,-100,4,2,0,30,0,0
164763,-100,4,2,0,35,0,0
167460,-100,4,2,0,40,0,0
170156,-100,4,2,0,45,0,0
171504,-100,4,2,0,50,0,0
171842,-100,4,2,0,55,0,0
172179,-100,4,2,0,60,0,0
172516,-100,4,2,0,65,0,0
172853,-100,4,2,0,50,0,0
173864,-100,4,1,0,50,0,0
174033,-100,4,2,0,50,0,0
174426,-100,4,1,0,50,0,0
175212,-100,4,2,0,50,0,0
176224,-100,4,1,0,50,0,0
176729,-100,4,2,0,50,0,0
177235,-100,4,1,0,50,0,0
177740,-100,4,2,0,50,0,0
178077,-100,4,2,0,40,0,0
178246,-100,4,1,0,50,0,0
178415,-100,4,2,0,50,0,0
178583,-100,4,1,0,50,0,0
179089,-100,4,2,0,50,0,0
179931,-100,4,1,0,50,0,0
180493,-100,4,2,0,50,0,0
180606,-100,4,1,0,50,0,0
181842,-100,4,2,0,50,0,0
182628,-100,4,1,0,50,0,0
182965,-100,4,1,0,50,0,0
183190,-100,4,2,0,50,0,0
183302,-100,4,1,0,50,0,0
184145,-100,4,2,0,50,0,0
184313,-100,4,1,0,50,0,0
184482,-100,4,2,0,50,0,0
184651,-100,4,1,0,50,0,0
184819,-100,4,2,0,50,0,0
185325,-100,4,1,0,50,0,0
185549,-100,4,2,0,50,0,0
185662,-100,4,1,0,50,0,0
186224,-100,4,2,0,50,0,0
186336,-100,4,1,0,50,0,0
186673,-100,4,2,0,50,0,0
187010,-100,4,1,0,40,0,0
187179,-100,4,2,0,40,0,0
187347,-100,4,1,0,40,0,0
187516,-100,4,2,0,40,0,0
187684,-100,4,1,0,30,0,0
187853,-100,4,2,0,30,0,0
188021,-100,4,1,0,30,0,0
188190,-100,4,2,0,30,0,0
188358,-100,4,1,0,20,0,0
191729,-100,4,1,0,50,0,0
193302,-100,4,2,0,30,0,0
193415,-100,4,1,0,50,0,0
193639,-100,4,2,0,30,0,0
193752,-100,4,1,0,50,0,0
193976,-100,4,2,0,30,0,0
194089,-100,4,1,0,50,0,0
194313,-100,4,2,0,30,0,0
194426,-100,4,1,0,50,0,0
194679,-100,4,2,0,50,0,0
194988,-100,4,2,0,50,0,0
195100,-100,4,1,0,50,0,0
195325,-100,4,2,0,50,0,0
195437,-100,4,1,0,50,0,0
195662,-100,4,2,0,50,0,0
195774,-100,4,1,0,50,0,0
195999,-100,4,2,0,50,0,0
196111,-100,4,1,0,50,0,0
196448,-100,4,2,0,50,0,0
197122,-100,4,1,0,50,0,0
197454,-100,4,2,0,40,0,0
197466,-100,4,1,0,50,0,0
198021,-100,4,2,0,50,0,0
198358,-100,4,2,0,40,0,0
198471,-100,4,2,0,50,0,0
198695,-100,4,1,0,50,0,0
199033,-100,4,2,0,50,0,0
199145,-100,4,1,0,50,0,0
199370,-100,4,2,0,50,0,0
199819,-100,4,1,0,50,0,0
200044,-100,4,2,0,50,0,0
200493,-100,4,1,0,50,0,0
200718,-100,4,2,0,50,0,0
200830,-100,4,1,0,50,0,0
201055,-100,4,2,0,50,0,0
201504,-100,4,1,0,50,0,0
202066,-100,4,2,0,50,0,0
202179,-100,4,1,0,50,0,0
202403,-100,4,2,0,50,0,0
202516,-100,4,1,0,50,0,0
202740,-100,4,2,0,50,0,0
202853,-100,4,1,0,50,0,0
203077,-100,4,2,0,50,0,0
203190,-100,4,1,0,50,0,0
203415,-100,4,2,0,40,0,0
203864,-100,4,1,0,40,0,0
204089,-100,4,2,0,50,0,0
204201,-100,4,1,0,50,0,0
204426,-100,4,2,0,50,0,0
204538,-100,4,1,0,50,0,0
204707,-100,4,2,0,40,0,0
204875,-100,4,1,0,50,0,0
205044,-100,4,2,0,40,0,0
205212,-100,4,1,0,50,0,0
205549,-100,4,2,0,50,0,0
205886,-100,4,1,0,50,0,0
206111,-100,4,2,0,50,0,0
206224,-100,4,1,0,50,0,0
206448,-100,4,2,0,50,0,0
206561,-100,4,2,0,40,0,0
206898,-100,4,1,0,50,0,0
207122,-100,4,2,0,50,0,0
207235,-100,4,1,0,50,0,0
207488,-100,4,2,0,50,0,0
207572,-100,4,2,0,20,0,0
207909,-100,4,1,0,50,0,0
208246,-100,4,2,0,50,0,0
208583,-100,4,1,0,50,0,0
208920,-100,4,2,0,50,0,0
209257,-100,4,1,0,50,0,0
209426,-100,4,2,0,50,0,0
209594,-100,4,1,0,50,0,0
210156,-100,4,2,0,50,0,0
210606,-100,4,2,0,30,0,0
211954,-100,4,2,0,40,0,0
213302,-100,4,1,0,50,0,0
213639,-100,4,2,0,50,0,0
213976,-100,4,1,0,50,0,0
214313,-100,4,2,0,50,0,0
214875,-100,4,1,0,50,0,0
216448,-100,4,2,0,50,0,0
216673,-100,4,1,0,50,0,0
216898,-100,4,2,0,50,0,0
217010,-100,4,1,0,50,0,0
217460,-100,4,2,0,50,0,0
217684,-100,4,1,0,50,0,0
218246,-100,4,2,0,50,0,0
218358,-100,4,1,0,50,0,0
218920,-100,4,2,0,50,0,0
219033,-100,4,1,0,50,0,0
219707,-100,4,2,0,50,0,0
220044,-100,4,1,0,50,0,0
220268,-100,4,2,0,50,0,0
220381,-100,4,1,0,50,0,0
221055,-100,4,2,0,50,0,0
221392,-100,4,1,0,50,0,0
222235,-100,4,2,0,50,0,0
222403,-100,4,1,0,50,0,0
222572,-100,4,2,0,50,0,0
222965,-100,4,1,0,50,0,0
223583,-100,4,2,0,50,0,0
224089,-100,4,1,0,50,0,0
224594,-100,4,2,0,50,0,0
224763,-100,4,1,0,50,0,0
224931,-100,4,2,0,50,0,0
225100,-100,4,1,0,50,0,0
226785,-100,4,1,0,50,0,0
227122,-100,4,2,0,50,0,0
227460,-100,4,1,0,50,0,0
227684,-100,4,2,0,50,0,0
227797,-100,4,1,0,50,0,0
228021,-100,4,2,0,50,0,0
228471,-100,4,1,0,50,0,0
228808,-100,4,2,0,50,0,0
229482,-100,4,1,0,50,0,0
229651,-100,4,2,0,50,0,0
230156,-100,4,1,0,50,0,0
230325,-100,4,2,0,50,0,0
230832,-100,4,2,0,40,0,0
231167,-100,4,1,0,50,0,0
231392,-100,4,2,0,50,0,0
232179,-100,4,1,0,50,0,0
232516,-100,4,2,0,50,0,0
233190,-100,4,1,0,50,0,0
233358,-100,4,2,0,50,0,0
233695,-100,4,1,0,30,0,0
233864,-100,4,1,0,50,0,0
234538,-100,4,2,0,50,0,0
234875,-100,4,1,0,30,0,0
235549,-100,4,1,0,35,0,0
236224,-100,4,1,0,40,0,0
236898,-100,4,1,0,45,0,0
237572,-100,4,2,0,30,0,0

[Colours]
Combo1 : 137,54,71
Combo2 : 132,145,147
Combo3 : 242,242,244
Combo4 : 205,69,83

[HitObjects]
400,280,19145,5,0,0:0:0:0:
480,328,20493,1,0,0:0:0:0:
392,360,20718,1,0,0:0:0:0:
392,360,20830,1,0,0:0:0:0:
360,272,21167,2,0,B|368:200|368:144,1,120
112,80,21842,6,0,B|104:128|112:200,1,120,4|0,0:0|0:0,0:0:0:0:
184,288,22516,2,0,B|232:272|256:248|264:200,1,120,8|0,0:0|0:0,0:0:0:0:
224,88,23190,5,0,0:0:0:0:
312,40,23415,1,0,0:0:0:0:
312,40,23527,1,0,0:0:0:0:
392,104,23752,1,0,0:0:0:0:
392,104,23864,1,8,0:0:0:0:
304,264,24201,5,0,0:0:0:0:
472,240,24538,6,0,B|424:208|392:160,1,80
392,192,24875,1,2,0:0:0:0:
296,128,25100,1,0,0:0:0:0:
320,136,25212,1,8,0:0:0:0:
184,224,25549,1,2,0:0:0:0:
40,152,25886,2,0,B|82:154|128:168,1,80,2|0,0:0|0:0,0:0:0:0:
136,152,26224,1,0,0:0:0:0:
318,221,26448,1,2,0:0:0:0:
302,205,26561,2,0,B|254:205|182:253,1,120,8|2,0:0|0:0,0:0:0:0:
191,247,27235,5,0,0:0:0:0:
280,112,27572,1,0,0:0:0:0:
408,200,27909,1,8,0:0:0:0:
328,336,28246,1,0,0:0:0:0:
264,224,28471,5,0,0:0:0:0:
264,224,28583,2,0,B|256:304,1,80
240,320,28920,1,0,0:0:0:0:
328,160,29145,1,0,0:0:0:0:
328,160,29257,2,0,B|344:288,1,120,8|4,0:0|0:0,0:0:0:0:
120,104,29931,5,0,0:0:0:0:
240,80,30268,1,0,0:0:0:0:
352,48,30606,1,8,0:0:0:0:
352,48,30943,5,0,0:0:0:0:
248,40,31167,1,8,0:0:0:0:
272,48,31280,1,2,0:0:0:0:
152,120,31504,1,0,0:0:0:0:
160,96,31617,1,0,0:0:0:0:
64,40,31842,1,0,0:0:0:0:
32,24,31954,2,0,B|40:80|40:168,1,120,10|0,0:0|0:0,0:0:0:0:
208,248,32628,6,0,B|160:240|120:264|104:320,1,120,4|0,0:0|0:0,0:0:0:0:
40,240,33190,1,0,0:0:0:0:
56,248,33302,2,0,B|64:184|64:112,1,120,8|0,0:0|0:0,0:0:0:0:
63,128,33976,1,0,0:0:0:0:
152,88,34201,1,0,0:0:0:0:
168,104,34313,1,0,0:0:0:0:
240,168,34538,1,0,0:0:0:0:
256,160,34651,1,8,0:0:0:0:
416,104,34988,5,0,0:0:0:0:
392,176,35325,2,0,B|352:160|328:128|328:80,1,120
472,168,35999,2,0,B|480:296,1,120,8|0,0:0|0:0,0:0:0:0:
328,216,36561,5,0,0:0:0:0:
336,240,36673,1,2,0:0:0:0:
256,160,36898,1,2,0:0:0:0:
248,184,37010,1,0,0:0:0:0:
128,352,37347,1,8,0:0:0:0:
16,216,37684,1,4,0:0:0:0:
144,40,38021,6,0,B|160:104|112:96|144:184,1,120
176,288,38695,2,0,B|240:256|224:160,2,120,8|0|2,0:0|0:0|0:0,0:0:0:0:
8,272,39594,1,2,0:0:0:0:
24,288,39707,2,0,B|48:248|104:240,1,80
112,256,40044,1,10,0:0:0:0:
160,320,40212,2,0,B|288:312,1,120,4|0,0:0|0:0,0:0:0:0:
352,352,40718,5,4,0:0:0:0:
480,224,41055,1,2,0:0:0:0:
352,96,41392,1,8,0:0:0:0:
224,224,41729,1,2,0:0:0:0:
296,304,42066,5,0,0:0:0:0:
376,232,42291,1,0,0:0:0:0:
376,232,42403,1,0,0:0:0:0:
304,152,42740,1,0,0:0:0:0:
296,224,43077,5,2,0:0:0:0:
400,144,43415,2,0,B|416:96|392:56,1,80,4|0,0:0|0:0,0:0:0:0:
398,66,43752,2,0,B|266:81,2,120,2|8|0,0:0|0:0|0:0,0:0:0:0:
176,56,44763,6,0,B|192:96|184:160,1,80,8|0,0:0|0:0,0:0:0:0:
208,168,45100,2,0,B|216:72,1,80
248,72,45437,1,8,0:0:0:0:
448,208,45662,1,2,0:0:0:0:
448,208,45774,2,0,B|400:208|368:248,1,80
352,264,46111,6,0,B|376:136,2,120,4|0|8,0:0|0:0|0:0,0:0:0:0:
256,336,47010,1,2,0:0:0:0:
256,336,47122,2,0,B|224:304|168:312,1,80,2|0,0:0|0:0,0:0:0:0:
144,328,47460,5,2,0:0:0:0:
176,216,47684,1,0,0:0:0:0:
160,232,47797,2,0,B|176:128,1,80,4|0,0:0|0:0,0:0:0:0:
200,120,48134,2,0,B|144:168|72:136,1,120,8|2,0:0|0:0,0:0:0:0:
368,104,48695,1,2,0:0:0:0:
392,128,48808,6,0,B|368:248,2,120,4|0|8,0:0|0:0|0:0,0:0:0:0:
208,208,49707,1,0,0:0:0:0:
208,208,49819,2,0,B|256:216|296:184,1,80,2|0,0:0|0:0,0:0:0:0:
304,160,50156,5,8,0:0:0:0:
256,296,50381,1,0,0:0:0:0:
256,296,50493,2,0,B|208:296|176:328,1,80,8|0,0:0|0:0,0:0:0:0:
144,304,50830,1,8,0:0:0:0:
40,176,51167,1,8,0:0:0:0:
176,48,51504,6,0,B|256:56|320:48,2,120,4|2|8,0:0|0:0|0:0,0:0:0:0:
128,160,52347,1,2,0:0:0:0:
224,240,52516,2,0,B|224:280|216:320,1,60,2|4,0:0|0:0,0:0:0:0:
144,336,52853,5,0,0:0:0:0:
304,344,53021,1,8,0:0:0:0:
320,184,53190,1,0,0:0:0:0:
320,184,53274,1,8,0:0:0:0:
320,184,53358,1,0,0:0:0:0:
480,280,53527,5,8,0:0:0:0:
336,264,53695,1,0,0:0:0:0:
336,264,53780,1,8,0:0:0:0:
336,264,53864,1,8,0:0:0:0:
192,296,54033,1,2,0:0:0:0:
48,272,54201,2,2,B|24:216|48:136,1,120,6|2,0:0|0:0,0:0:0:0:
144,96,54707,1,2,0:0:0:0:
248,48,54875,1,8,0:0:0:0:
248,48,55212,2,0,B|240:104|264:144,1,80
280,160,55549,6,0,B|200:144,1,80,2|0,0:0|0:0,0:0:0:0:
160,136,55886,1,0,0:0:0:0:
104,312,56111,1,0,0:0:0:0:
120,304,56224,2,0,B|136:264|112:216,1,80,8|0,0:0|0:0,0:0:0:0:
96,192,56561,2,0,B|128:224|176:216,1,80,2|0,0:0|0:0,0:0:0:0:
240,256,56898,6,0,B|288:208|368:224,1,120,0|4,0:0|0:0,0:0:0:0:
480,336,57572,1,8,0:0:0:0:
480,336,57909,2,0,B|472:224,1,80,2|0,0:0|0:0,0:0:0:0:
456,224,58246,6,0,B|464:144,1,60,2|0,0:0|0:0,0:0:0:0:
408,72,58583,1,0,0:0:0:0:
104,312,58920,1,8,0:0:0:0:
296,224,59257,2,0,B|256:216|208:176,1,80,4|0,0:0|0:0,0:0:0:0:
200,160,59594,6,0,B|216:240,1,60
288,144,59931,2,0,B|272:64,1,60
176,224,60268,2,0,B|200:368,1,120,8|2,0:0|0:0,0:0:0:0:
112,360,60774,1,2,0:0:0:0:
88,232,60943,6,0,B|72:192|88:144,1,80,2|0,0:0|0:0,0:0:0:0:
112,120,61280,1,0,0:0:0:0:
232,96,61504,1,0,0:0:0:0:
272,104,61617,1,8,0:0:0:0:
456,136,61954,1,2,0:0:0:0:
56,248,62291,6,0,B|40:112,1,120,0|0,0:0|0:0,0:0:0:0:
456,136,62965,2,0,B|472:272,1,120,0|0,0:0|0:0,0:0:0:0:
160,312,63639,2,0,B|144:168,1,120,8|0,0:0|0:0,0:0:0:0:
352,72,64313,2,0,B|368:216,1,120,8|0,0:0|0:0,0:0:0:0:
256,192,64988,1,2,0:0:0:0:
352,168,74426,6,0,B|368:296,1,120
320,344,75774,6,0,B|272:336|256:336,1,60,2|0,0:0|0:0,0:0:0:0:
208,288,76448,1,0,0:0:0:0:
152,336,76785,2,0,B|96:312|56:256|88:184,1,180
64,120,78134,5,2,0:0:0:0:
136,96,78471,2,0,B|200:112,2,60,0|0|8,0:0|0:0|0:0,0:0:0:0:
256,64,79482,1,0,0:0:0:0:
224,240,79819,5,8,0:0:0:0:
312,200,80044,1,0,0:0:0:0:
312,200,80156,1,0,0:0:0:0:
352,312,80381,1,0,0:0:0:0:
352,312,80493,2,0,B|368:240,1,60,8|8,0:0|0:0,0:0:0:0:
160,72,81167,6,0,B|144:144,1,60,2|0,0:0|0:0,0:0:0:0:
192,192,81842,1,8,0:0:0:0:
192,192,82179,1,4,0:0:0:0:
360,192,82516,5,0,0:0:0:0:
272,112,82740,1,0,0:0:0:0:
272,112,82853,1,0,0:0:0:0:
272,272,83077,1,0,0:0:0:0:
272,272,83190,1,8,0:0:0:0:
272,192,83527,5,2,0:0:0:0:
128,144,83695,1,0,0:0:0:0:
120,288,83864,2,0,B|112:248|104:224,1,59.9999982118607
72,224,84201,5,2,0:0:0:0:
192,96,84370,1,4,0:0:0:0:
208,320,84538,1,8,0:0:0:0:
288,360,84875,5,0,0:0:0:0:
192,240,85044,1,4,0:0:0:0:
160,376,85212,1,8,0:0:0:0:
280,344,85381,1,8,0:0:0:0:
128,280,85549,5,0,0:0:0:0:
64,328,85718,1,0,0:0:0:0:
136,352,85886,1,0,0:0:0:0:
80,88,86224,5,0,0:0:0:0:
80,88,86561,2,0,B|136:104|200:96,1,120,4|0,0:0|0:0,0:0:0:0:
400,72,87066,1,0,0:0:0:0:
472,40,87235,1,8,0:0:0:0:
472,40,87572,2,0,B|464:80|472:112,1,60,2|2,0:0|0:0,0:0:0:0:
408,312,87909,6,0,B|424:272|408:208,1,80,8|0,0:0|0:0,0:0:0:0:
440,208,88246,2,0,B|352:232,1,80,0|0,0:0|0:0,0:0:0:0:
296,184,88583,1,8,0:0:0:0:
136,328,88920,2,0,B|168:352|232:336,1,80
248,320,89257,6,0,B|272:256|224:200,1,120,4|0,0:0|0:0,0:0:0:0:
336,248,89763,1,0,0:0:0:0:
168,264,89931,2,0,B|88:248,1,60,8|0,0:0|0:0,0:0:0:0:
336,248,90268,2,0,B|416:264,1,60
480,304,90606,6,0,B|472:192,1,80,8|0,0:0|0:0,0:0:0:0:
448,192,90943,2,0,B|440:72,1,120
304,80,91448,1,0,0:0:0:0:
192,48,91617,2,0,B|184:88|200:128,1,60
104,336,91954,6,0,B|136:280|104:200,1,120,4|0,0:0|0:0,0:0:0:0:
40,256,92460,1,0,0:0:0:0:
192,288,92628,1,8,0:0:0:0:
192,288,92965,2,0,B|296:272,1,80
304,296,93302,5,2,0:0:0:0:
384,224,93527,1,2,0:0:0:0:
384,224,93639,2,0,B|416:200|480:208,1,80
496,208,93976,2,2,B|432:200|400:136,1,120,2|2,0:0|0:0,0:0:0:0:
384,64,94482,1,0,0:0:0:0:
200,32,94651,6,0,B|224:136,2,80,4|2|2,0:0|0:0|0:0,0:0:0:0:
312,352,95325,6,0,B|288:248,2,80,0|2|2,0:0|0:0|0:0,0:0:0:0:
72,176,95999,6,0,B|144:184,1,60,2|8,0:0|0:0,0:0:0:0:
256,192,96336,1,0,0:0:0:0:
256,192,96420,1,8,0:0:0:0:
256,192,96504,1,0,0:0:0:0:
376,200,96673,5,8,0:0:0:0:
248,304,96842,1,0,0:0:0:0:
248,304,96926,1,8,0:0:0:0:
248,304,97010,1,8,0:0:0:0:
133,183,97179,1,8,0:0:0:0:
264,64,97347,2,0,B|344:80|400:56,1,120,4|0,0:0|0:0,0:0:0:0:
382,62,98021,6,0,B|368:104|384:144,1,60,8|0,0:0|0:0,0:0:0:0:
256,200,98358,2,0,B|224:184|184:192,1,60,0|0,0:0|0:0,0:0:0:0:
96,32,98695,2,0,B|112:80|112:136,1,80,8|0,0:0|0:0,0:0:0:0:
96,152,99033,2,0,B|80:200|80:248,1,80,2|0,0:0|0:0,0:0:0:0:
96,272,99370,5,4,0:0:0:0:
256,352,99707,1,8,0:0:0:0:
432,272,100044,2,0,B|416:144,2,120,4|2|8,0:0|0:0|0:0,0:0:0:0:
344,344,100886,1,0,0:0:0:0:
256,352,101055,2,0,B|176:344,1,60,2|2,0:0|0:0,0:0:0:0:
112,264,101392,6,0,B|216:256,1,80,4|0,0:0|0:0,0:0:0:0:
232,272,101729,2,0,B|216:232|232:176,1,80,2|0,0:0|0:0,0:0:0:0:
256,152,102066,1,8,0:0:0:0:
80,32,102291,1,2,0:0:0:0:
80,32,102403,2,0,B|104:72|88:120,1,80
72,144,102740,1,4,0:0:0:0:
280,240,103415,5,2,0:0:0:0:
216,184,103639,1,2,0:0:0:0:
288,160,103864,1,2,0:0:0:0:
232,232,104089,5,2,0:0:0:0:
240,144,104313,1,2,0:0:0:0:
312,200,104538,1,2,0:0:0:0:
216,184,104763,5,2,0:0:0:0:
280,240,104988,1,2,0:0:0:0:
288,160,105212,1,2,0:0:0:0:
144,224,105437,6,0,B|136:288|144:352,1,120,4|8,0:0|0:0,0:0:0:0:
376,336,105998,1,0,0:0:0:0:
376,336,106111,2,0,B|384:272|376:208,1,120,4|8,0:0|0:0,0:0:0:0:
208,48,106673,5,0,0:0:0:0:
208,48,106785,2,0,B|112:72,1,80,4|0,0:0|0:0,0:0:0:0:
312,128,107122,6,0,B|408:104,1,80,4|0,0:0|0:0,0:0:0:0:
208,184,107460,6,0,B|240:336,1,120,8|2,0:0|0:0,0:0:0:0:
232,301,107965,1,2,0:0:0:0:
505,194,108134,6,0,L|420:215,1,80,4|10,0:0|0:0,0:0:0:0:
301,206,108695,6,0,L|313:261,1,40,0|8,0:0|0:0,0:0:0:0:
362,298,109033,1,2,0:0:0:0:
255,382,109482,5,2,0:0:0:0:
256,192,127684,12,4,129707,0:0:0:0:
392,104,130044,5,2,0:0:0:0:
408,192,130212,1,0,0:0:0:0:
320,152,130381,1,0,0:0:0:0:
308,152,130465,1,0,0:0:0:0:
296,152,130549,1,0,0:0:0:0:
283,152,130634,1,0,0:0:0:0:
271,152,130718,1,0,0:0:0:0:
259,152,130802,1,0,0:0:0:0:
247,152,130886,1,4,0:0:0:0:
234,152,130971,1,2,0:0:0:0:
222,152,131055,1,8,0:0:0:0:
112,120,131392,5,0,0:0:0:0:
184,80,131561,1,2,0:0:0:0:
152,192,131729,1,8,0:0:0:0:
264,376,132066,1,8,0:0:0:0:
448,264,132403,1,0,0:0:0:0:
256,16,132909,5,0,0:0:0:0:
256,16,132993,1,0,0:0:0:0:
256,16,133077,2,0,B|272:96,2,60
336,120,133583,1,0,0:0:0:0:
160,192,133752,6,0,B|144:312,1,120
208,352,134257,1,0,0:0:0:0:
280,344,134426,1,8,0:0:0:0:
352,384,134594,1,0,0:0:0:0:
352,384,134679,1,8,0:0:0:0:
352,384,134763,1,0,0:0:0:0:
264,192,135100,6,0,B|384:208,1,120
272,112,135606,1,0,0:0:0:0:
272,112,135690,1,2,0:0:0:0:
272,112,135774,2,0,B|198:121,1,60,0|2,0:0|0:0,0:0:0:0:
224,280,136111,2,0,B|298:271,1,60,0|2,0:0|0:0,0:0:0:0:
112,208,136448,1,8,0:0:0:0:
168,152,136785,5,0,0:0:0:0:
168,264,136954,1,0,0:0:0:0:
56,264,137122,1,8,0:0:0:0:
56,264,137291,1,2,0:0:0:0:
56,144,137460,2,0,B|72:48,1,90,8|0,0:0|0:0,0:0:0:0:
96,40,137797,5,2,0:0:0:0:
248,88,137965,1,2,0:0:0:0:
304,32,138134,1,0,0:0:0:0:
456,80,138302,1,8,0:0:0:0:
352,168,138471,5,2,0:0:0:0:
276,192,138639,1,0,0:0:0:0:
172,188,138808,1,8,0:0:0:0:
248,163,138976,1,0,0:0:0:0:
280,288,139145,5,10,0:0:0:0:
296,360,139482,1,0,0:0:0:0:
280,288,139819,5,0,0:0:0:0:
296,360,139988,1,0,0:0:0:0:
360,296,140156,1,0,0:0:0:0:
376,368,140325,1,0,0:0:0:0:
152,296,140493,5,2,0:0:0:0:
176,280,140577,1,8,0:0:0:0:
200,264,140662,1,2,0:0:0:0:
176,248,140746,1,8,0:0:0:0:
152,232,140830,1,0,0:0:0:0:
176,216,140915,1,0,0:0:0:0:
200,200,140999,1,10,0:0:0:0:
176,184,141083,1,0,0:0:0:0:
152,168,141167,1,2,0:0:0:0:
208,24,141504,5,0,0:0:0:0:
144,80,141673,1,2,0:0:0:0:
216,120,141842,1,8,0:0:0:0:
384,40,142179,5,0,0:0:0:0:
448,96,142348,1,0,0:0:0:0:
296,248,142516,1,0,0:0:0:0:
480,192,142853,5,0,0:0:0:0:
464,192,142937,1,2,0:0:0:0:
448,192,143021,1,0,0:0:0:0:
432,192,143106,1,2,0:0:0:0:
416,192,143190,1,0,0:0:0:0:
344,152,143358,1,8,0:0:0:0:
272,192,143527,1,8,0:0:0:0:
360,256,143695,5,8,0:0:0:0:
344,184,143864,1,0,0:0:0:0:
320,112,144033,1,8,0:0:0:0:
376,64,144201,5,8,0:0:0:0:
304,304,144370,1,0,0:0:0:0:
304,304,144454,1,0,0:0:0:0:
304,304,144538,1,4,0:0:0:0:
232,280,144707,1,8,0:0:0:0:
208,352,144875,1,8,0:0:0:0:
280,376,145044,1,0,0:0:0:0:
128,296,145212,6,0,B|120:328,2,30,0|2|8,0:0|0:0|0:0,0:0:0:0:
88,232,145549,1,0,0:0:0:0:
72,235,145634,1,2,0:0:0:0:
56,238,145718,1,10,0:0:0:0:
41,241,145802,1,0,0:0:0:0:
25,245,145886,1,0,0:0:0:0:
24,176,146055,1,0,0:0:0:0:
32,104,146224,1,0,0:0:0:0:
256,192,146561,6,0,B|384:176,1,120
256,192,147235,6,0,B|128:176,1,120,8|0,0:0|0:0,0:0:0:0:
136,177,147656,1,0,0:0:0:0:
136,177,147740,1,2,0:0:0:0:
136,177,147825,1,0,0:0:0:0:
136,177,147909,1,8,0:0:0:0:
192,80,148077,1,2,0:0:0:0:
304,96,148246,1,0,0:0:0:0:
308,86,148583,5,0,0:0:0:0:
185,68,148752,1,2,0:0:0:0:
125,175,148920,1,0,0:0:0:0:
256,192,149089,1,6,0:0:0:0:
224,128,149257,5,8,0:0:0:0:
152,112,149594,5,0,0:0:0:0:
152,112,149763,1,0,0:0:0:0:
152,112,149931,1,4,0:0:0:0:
80,96,150606,5,0,0:0:0:0:
256,0,151280,5,0,0:0:0:0:
256,192,156673,12,4,172853,0:0:0:0:
120,136,173527,5,4,0:0:0:0:
120,136,173864,2,0,B|112:96|120:64,1,60
256,192,174201,2,0,B|264:240|256:296,1,80
296,288,174538,2,0,B|288:232|296:192,1,80
320,176,174875,2,0,B|256:184|184:176,1,120,0|2,0:0|0:0,0:0:0:0:
136,248,175381,1,0,0:0:0:0:
368,248,175549,6,0,B|424:240|504:248,2,120,4|8|8,0:0|0:0|0:0,0:0:0:0:
296,304,176392,1,0,0:0:0:0:
216,272,176561,2,0,B|208:200,1,60
192,64,176898,5,2,0:0:0:0:
280,48,177066,1,8,0:0:0:0:
320,224,177235,5,0,0:0:0:0:
304,136,177403,1,0,0:0:0:0:
512,192,177572,5,8,0:0:0:0:
424,208,177740,1,2,0:0:0:0:
384,32,177909,5,2,0:0:0:0:
400,120,178077,1,0,0:0:0:0:
216,160,178246,6,0,B|184:152|136:152,1,60
120,80,178583,2,0,B|120:152|96:224,1,120,0|8,0:0|0:0,0:0:0:0:
48,264,179089,1,0,0:0:0:0:
24,120,179257,2,0,B|16:168|16:192,1,60,2|2,0:0|0:0,0:0:0:0:
152,280,179594,6,0,B|224:288|280:240,1,120,4|0,0:0|0:0,0:0:0:0:
328,144,180156,1,0,0:0:0:0:
328,144,180268,2,0,B|336:104|328:56,1,80,8|0,0:0|0:0,0:0:0:0:
304,40,180606,2,0,B|344:48|384:40,1,80
456,56,180943,5,2,0:0:0:0:
88,72,181280,1,2,0:0:0:0:
88,72,181617,2,0,B|72:112|80:168,1,80,8|0,0:0|0:0,0:0:0:0:
88,192,181954,1,2,0:0:0:0:
176,288,182179,1,8,0:0:0:0:
176,288,182291,2,0,B|280:272,1,80,0|0,0:0|0:0,0:0:0:0:
288,304,182628,2,0,B|272:256|296:208,1,80,0|0,0:0|0:0,0:0:0:0:
320,192,182965,1,8,0:0:0:0:
224,128,183190,1,0,0:0:0:0:
224,128,183302,1,0,0:0:0:0:
472,88,183527,5,0,0:0:0:0:
472,88,183639,2,0,B|488:144|480:208,1,120,4|0,0:0|0:0,0:0:0:0:
416,272,184145,1,0,0:0:0:0:
344,320,184313,2,0,B|264:312,1,60,8|4,0:0|0:0,0:0:0:0:
216,256,184651,2,0,B|128:248,1,60
24,280,184988,6,0,B|64:232|40:160,1,120,8|0,0:0|0:0,0:0:0:0:
120,56,185549,1,0,0:0:0:0:
120,56,185662,2,0,B|136:160,1,80,8|0,0:0|0:0,0:0:0:0:
120,176,185999,2,0,B|200:152,1,80
256,96,186336,6,0,B|224:152|256:232,1,120,0|8,0:0|0:0,0:0:0:0:
320,272,186842,1,0,0:0:0:0:
480,192,187010,6,0,B|408:176,1,60
360,120,187347,2,0,B|288:104,1,60
336,200,187684,6,0,B|264:184,1,60
240,152,188021,2,0,B|168:136,1,60
192,232,188358,6,0,B|120:216,1,60
120,200,188695,2,0,B|48:184,1,60
352,304,191729,5,0,0:0:0:0:
152,280,192066,1,8,0:0:0:0:
176,80,192291,1,0,0:0:0:0:
176,80,192403,1,0,0:0:0:0:
376,104,192740,1,8,0:0:0:0:
328,256,192965,5,0,0:0:0:0:
328,256,193077,1,0,0:0:0:0:
192,264,193302,1,0,0:0:0:0:
192,264,193415,1,0,0:0:0:0:
184,128,193639,1,0,0:0:0:0:
184,128,193752,1,0,0:0:0:0:
320,120,193976,1,0,0:0:0:0:
320,120,194089,1,0,0:0:0:0:
256,192,194313,5,0,0:0:0:0:
256,192,194426,2,0,B|272:336,1,120,4|0,0:0|0:0,0:0:0:0:
408,328,194988,1,2,0:0:0:0:
408,304,195100,2,0,B|424:272|464:240,1,80,8|0,0:0|0:0,0:0:0:0:
456,224,195437,2,0,B|376:200,1,80
360,216,195774,1,0,0:0:0:0:
216,136,195999,5,2,0:0:0:0:
192,120,196111,2,0,B|208:216,1,80,0|0,0:0|0:0,0:0:0:0:
176,272,196448,2,0,B|48:248,1,120,8|2,0:0|0:0,0:0:0:0:
240,56,197122,6,0,B|357:78,2,120,0|8|8,0:0|0:0|0:0,0:0:0:0:
32,72,198021,1,0,0:0:0:0:
48,64,198134,2,0,B|96:80|104:136,1,80,2|4,0:0|0:0,0:0:0:0:
120,112,198471,2,0,B|144:152|128:200,1,80
152,200,198808,1,0,0:0:0:0:
280,272,199033,5,0,0:0:0:0:
248,256,199145,2,0,B|152:280,1,80,8|0,0:0|0:0,0:0:0:0:
152,312,199482,2,0,B|56:336,1,80,4|2,0:0|0:0,0:0:0:0:
56,352,199819,2,2,B|88:280|29:220,1,120,4|2,0:0|0:0,0:0:0:0:
176,176,200381,5,0,0:0:0:0:
192,192,200493,2,0,B|112:184,1,80,8|0,0:0|0:0,0:0:0:0:
48,144,200830,2,0,B|127:151,1,80
240,120,201167,2,0,B|160:112,1,80,4|8,0:0|0:0,0:0:0:0:
96,64,201504,1,2,0:0:0:0:
304,40,201729,5,2,0:0:0:0:
304,40,201842,1,8,0:0:0:0:
248,200,202066,1,0,0:0:0:0:
248,200,202179,1,2,0:0:0:0:
408,256,202403,1,0,0:0:0:0:
408,256,202516,6,0,B|400:168,1,80,6|0,0:0|0:0,0:0:0:0:
312,112,202853,2,0,B|319:191,1,80
464,96,203190,2,0,B|456:8,1,80,8|4,0:0|0:0,0:0:0:0:
448,8,203752,5,10,0:0:0:0:
448,8,203864,2,0,B|456:88,1,80,0|2,0:0|0:0,0:0:0:0:
319,191,204201,2,0,B|312:112,1,80,0|2,0:0|0:0,0:0:0:0:
400,176,204538,5,8,0:0:0:0:
408,256,204707,1,4,0:0:0:0:
248,280,204875,5,0,0:0:0:0:
320,313,205044,1,2,0:0:0:0:
306,127,205212,6,0,B|296:8,1,120,4|0,0:0|0:0,0:0:0:0:
192,200,205774,1,2,0:0:0:0:
168,224,205886,2,0,B|160:136,1,80,8|0,0:0|0:0,0:0:0:0:
128,136,206224,2,0,B|136:48,1,80
168,40,206561,1,4,0:0:0:0:
56,264,206786,5,2,0:0:0:0:
80,288,206898,2,0,B|88:200,1,80,0|0,0:0|0:0,0:0:0:0:
264,144,207235,2,0,B|272:264,1,120,8|4,0:0|0:0,0:0:0:0:
504,192,207909,5,0,0:0:0:0:
256,336,208246,1,0,0:0:0:0:
8,192,208583,1,8,0:0:0:0:
256,120,208920,5,0,0:0:0:0:
256,224,209145,1,2,0:0:0:0:
256,224,209257,1,0,0:0:0:0:
192,176,209482,5,8,0:0:0:0:
320,176,209594,1,0,0:0:0:0:
248,16,209931,6,0,B|256:120,1,80,8|0,0:0|0:0,0:0:0:0:
256,120,210268,1,2,0:0:0:0:
280,376,210606,5,4,0:0:0:0:
352,336,211280,1,0,0:0:0:0:
224,304,211954,1,0,0:0:0:0:
400,224,212628,1,2,0:0:0:0:
168,160,213302,5,0,0:0:0:0:
168,160,213639,1,8,0:0:0:0:
344,224,213976,5,0,0:0:0:0:
344,224,214313,1,8,0:0:0:0:
192,240,214538,5,0,0:0:0:0:
192,240,214651,2,0,B|144:240|96:248,1,80,2|0,0:0|0:0,0:0:0:0:
320,144,214988,2,0,B|368:144|416:136,1,80
304,296,215325,5,0,0:0:0:0:
208,88,215662,1,2,0:0:0:0:
304,296,215999,6,0,B|360:296|448:272,1,120,4|0,0:0|0:0,0:0:0:0:
432,80,216561,1,0,0:0:0:0:
432,80,216673,2,0,B|440:144|456:184,1,80,8|0,0:0|0:0,0:0:0:0:
368,184,217010,2,0,B|320:200|264:200,1,80
184,144,217347,5,2,0:0:0:0:
216,264,217572,1,0,0:0:0:0:
200,256,217684,2,0,B|152:240|96:248,1,80
48,280,218021,2,0,B|32:248|40:200,1,80,8|0,0:0|0:0,0:0:0:0:
96,144,218358,1,0,0:0:0:0:
240,80,218583,5,0,0:0:0:0:
240,80,218695,2,0,B|144:88,1,80
320,144,219033,2,0,B|456:136,1,120,0|8,0:0|0:0,0:0:0:0:
439,136,219707,1,2,0:0:0:0:
256,192,219931,5,0,0:0:0:0:
256,192,220044,2,0,B|224:224|160:216,1,80
120,168,220381,2,0,B|88:72,1,80
32,160,220718,2,0,B|72:280,1,120,8|2,0:0|0:0,0:0:0:0:
104,352,221224,1,2,0:0:0:0:
352,328,221392,6,0,B|408:296|488:320,2,120,4|0|8,0:0|0:0|0:0,0:0:0:0:
256,360,222235,1,2,0:0:0:0:
240,272,222403,2,0,B|256:200,1,60
376,120,222740,2,0,B|336:144|272:128,1,80,4|0,0:0|0:0,0:0:0:0:
216,88,223077,2,0,B|112:96,1,80
96,72,223415,2,0,B|104:104|96:144,1,60,8|2,0:0|0:0,0:0:0:0:
24,208,223752,5,2,0:0:0:0:
176,192,223920,1,2,0:0:0:0:
328,200,224089,2,0,B|472:192,1,120,4|0,0:0|0:0,0:0:0:0:
488,120,224594,1,2,0:0:0:0:
488,264,224763,2,0,B|472:344,1,60,8|0,0:0|0:0,0:0:0:0:
488,120,225100,2,0,B|472:32,1,60,0|2,0:0|0:0,0:0:0:0:
312,232,225437,5,0,0:0:0:0:
216,152,225606,1,8,0:0:0:0:
272,312,225774,1,8,0:0:0:0:
272,312,225858,1,0,0:0:0:0:
272,312,225943,1,8,0:0:0:0:
240,72,226111,1,8,0:0:0:0:
200,368,226280,1,8,0:0:0:0:
200,368,226364,1,8,0:0:0:0:
200,368,226448,1,0,0:0:0:0:
312,40,226617,1,8,0:0:0:0:
200,240,226785,6,0,B|144:272|64:264,1,120,4|0,0:0|0:0,0:0:0:0:
48,96,227347,1,2,0:0:0:0:
48,96,227460,2,0,B|88:88|128:88,1,80,8|0,0:0|0:0,0:0:0:0:
160,80,227797,2,0,B|152:120|152:160,1,80
192,168,228134,5,2,0:0:0:0:
344,216,228302,1,2,0:0:0:0:
384,64,228471,1,4,0:0:0:0:
296,40,228695,5,2,0:0:0:0:
296,40,228808,2,0,B|304:120,1,80,8|0,0:0|0:0,0:0:0:0:
280,120,229145,2,0,B|272:200,1,80,6|0,0:0|0:0,0:0:0:0:
248,224,229482,5,6,0:0:0:0:
288,296,229651,1,2,0:0:0:0:
136,312,229819,1,2,0:0:0:0:
160,232,229988,1,2,0:0:0:0:
264,368,230156,1,8,0:0:0:0:
184,384,230325,1,2,0:0:0:0:
56,304,230493,6,0,B|64:224,1,60,2|0,0:0|0:0,0:0:0:0:
104,184,230830,2,2,B|88:64,1,120,4|4,0:0|0:0,0:0:0:0:
296,16,231392,1,2,0:0:0:0:
296,16,231504,2,0,B|312:104,1,80,8|0,0:0|0:0,0:0:0:0:
344,104,231842,2,2,B|360:192,1,80,4|0,0:0|0:0,0:0:0:0:
344,208,232179,6,0,B|288:200|208:192,1,120,6|0,0:0|0:0,0:0:0:0:
96,72,232740,1,2,0:0:0:0:
96,72,232853,2,0,B|144:72|176:80,1,80,8|0,0:0|0:0,0:0:0:0:
184,104,233190,1,0,0:0:0:0:
264,88,233358,1,2,0:0:0:0:
344,16,233527,5,2,0:0:0:0:
384,104,233695,1,4,0:0:0:0:
432,192,233864,1,2,0:0:0:0:
512,344,234089,1,0,0:0:0:0:
512,344,234201,1,10,0:0:0:0:
64,336,234538,5,0,0:0:0:0:
168,272,234707,1,2,0:0:0:0:
224,376,234875,1,12,0:0:0:0:
296,128,235212,37,2,0:0:0:0:
376,184,235549,5,12,0:0:0:0:
312,264,235886,37,0,0:0:0:0:
232,208,236224,21,14,0:0:0:0:
224,136,236561,5,0,0:0:0:0:
368,112,236898,37,14,0:0:0:0:
384,256,237235,5,10,0:0:0:0:
240,280,237572,37,4,0:0:0:0:
