osu file format v14

[General]
AudioFilename: audio.mp3
AudioLeadIn: 0
PreviewTime: 190971
Countdown: 1
SampleSet: Soft
StackLeniency: 0.8
Mode: 0
LetterboxInBreaks: 0
WidescreenStoryboard: 1

[Editor]
Bookmarks: 19145,43415,64988,86561,108134,151280,172853,194426,210606,226785,237572
DistanceSpacing: 1.5
BeatDivisor: 3
GridSize: 32
TimelineZoom: 1.5

[Metadata]
Title:Sense of Nostalgia
TitleUnicode:Sense of Nostalgia
Artist:tieff
ArtistUnicode:tieff
Creator:Mirash
Version:Collab Hard
Source:
Tags:Hinsvar Trynna schoolboy Komore Delis osu! featured artist fa mappers' guild
BeatmapID:1954393
BeatmapSetID:929284

[Difficulty]
HPDrainRate:5
CircleSize:4
OverallDifficulty:6
ApproachRate:7
SliderMultiplier:1.1
SliderTickRate:1

[Events]
//Background and Video events
0,0,"natsukahii kanji.jpg",0,0
//Break Periods
2,65188,73526
2,110830,127121
2,151479,161166
2,189233,190829
//Storyboard Layer 0 (Background)
//Storyboard Layer 1 (Fail)
//Storyboard Layer 2 (Pass)
//Storyboard Layer 3 (Foreground)
//Storyboard Sound Samples

[TimingPoints]
269,337.078651685393,4,2,0,60,1,0
19482,-100,4,2,0,40,0,0
20493,-100,4,2,0,50,0,0
20830,-100,4,1,0,50,0,0
21173,-100,4,2,0,50,0,0
21504,-100,4,2,0,50,0,0
21842,-100,4,1,0,50,0,0
22179,-100,4,2,0,50,0,0
22853,-100,4,1,0,50,0,0
23190,-100,4,2,0,50,0,0
23527,-100,4,1,0,50,0,0
24201,-100,4,2,0,50,0,0
24538,-100,4,1,0,50,0,0
24763,-100,4,2,0,50,0,0
26111,-100,4,2,0,50,0,0
26224,-100,4,1,0,50,0,0
26448,-100,4,2,0,50,0,0
27235,-100,4,1,0,50,0,0
27572,-100,4,2,0,50,0,0
28246,-100,4,1,0,50,0,0
28471,-100,4,2,0,50,0,0
28920,-100,4,1,0,50,0,0
29263,-100,4,2,0,50,0,0
29594,-100,4,2,0,20,0,0
29931,-100,4,1,0,50,0,0
30606,-100,4,2,0,50,0,0
31617,-100,4,1,0,50,0,0
31842,-100,4,2,0,50,0,0
31960,-100,4,1,0,50,0,0
32628,-100,4,1,0,50,0,0
32965,-100,4,2,0,50,0,0
33639,-100,4,1,0,50,0,0
33976,-100,4,2,0,50,0,0
34313,-100,4,1,0,50,0,0
34538,-100,4,2,0,50,0,0
34651,-100,4,1,0,50,0,0
34988,-100,4,2,0,50,0,0
35325,-100,4,1,0,50,0,0
35662,-100,4,2,0,50,0,0
37010,-100,4,1,0,50,0,0
37347,-100,4,2,0,50,0,0
38021,-100,4,1,0,50,0,0
38358,-100,4,2,0,50,0,0
39033,-100,4,1,0,50,0,0
39039,-100,4,2,0,50,0,0
39707,-100,4,1,0,50,0,0
40044,-100,4,2,0,50,0,0
40718,-100,4,1,0,40,0,0
41055,-100,4,2,0,50,0,0
41392,-100,4,2,0,30,0,0
42403,-100,4,1,0,30,0,0
42740,-100,4,2,0,35,0,0
43077,-100,4,2,0,40,0,0
43415,-100,4,1,0,50,0,0
43639,-100,4,2,0,50,0,0
44089,-100,4,1,0,50,0,0
44763,-100,4,2,0,50,0,0
45100,-100,4,1,0,50,0,0
45662,-100,4,2,0,50,0,0
45774,-100,4,1,0,50,0,0
45999,-100,4,2,0,20,0,0
46111,-100,4,2,0,50,0,0
46448,-100,4,1,0,50,0,0
47010,-100,4,2,0,50,0,0
47347,-100,4,1,0,50,0,0
47797,-100,4,2,0,50,0,0
48134,-100,4,1,0,50,0,0
48471,-100,4,2,0,50,0,0
48808,-100,4,1,0,50,0,0
49707,-100,4,2,0,50,0,0
50044,-100,4,1,0,50,0,0
50156,-100,4,2,0,50,0,0
50381,-100,4,1,0,50,0,0
50493,-100,4,2,0,50,0,0
50718,-100,4,1,0,50,0,0
51167,-100,4,2,0,50,0,0
52179,-100,4,1,0,50,0,0
52347,-100,4,2,0,50,0,0
52853,-100,4,1,0,50,0,0
54538,-100,4,2,0,50,0,0
54875,-100,4,1,0,50,0,0
55437,-100,4,2,0,50,0,0
55774,-100,4,1,0,50,0,0
56448,-100,4,2,0,50,0,0
56785,-100,4,1,0,50,0,0
57235,-100,4,2,0,50,0,0
57572,-100,4,1,0,50,0,0
57909,-100,4,2,0,50,0,0
58246,-100,4,1,0,50,0,0
59257,-100,4,2,0,50,0,0
59482,-100,4,1,0,50,0,0
59763,-100,4,2,0,50,0,0
59931,-100,4,1,0,50,0,0
60943,-100,4,2,0,50,0,0
61167,-100,4,1,0,50,0,0
62291,-100,4,2,0,40,0,0
62628,-100,4,1,0,50,0,0
62965,-100,4,2,0,50,0,0
63302,-100,4,1,0,60,0,0
63639,-100,4,2,0,60,0,0
63976,-100,4,1,0,70,0,0
64313,-100,4,2,0,70,0,0
64651,-100,4,1,0,80,0,0
64988,-100,4,2,0,40,0,0
74426,-200,4,2,0,10,0,0
75774,-200,4,2,0,13,0,0
76785,-200,4,1,0,13,0,0
76791,-200,4,2,0,13,0,0
79145,-200,4,1,0,15,0,0
79482,-200,4,2,0,10,0,0
79819,-200,4,2,0,15,0,0
80493,-200,4,1,0,20,0,0
80499,-200,4,2,0,15,0,0
81167,-200,4,2,0,20,0,0
81842,-200,4,2,0,25,0,0
82516,-200,4,1,0,30,0,0
82740,-200,4,2,0,30,0,0
82853,-200,4,1,0,30,0,0
83077,-200,4,2,0,30,0,0
83190,-200,4,1,0,30,0,0
83527,-200,4,2,0,30,0,0
83864,-133.333333333333,4,1,0,30,0,0
83870,-133.333333333333,4,2,0,30,0,0
84201,-133.333333333333,4,1,0,40,0,0
84370,-133.333333333333,4,2,0,15,0,0
84538,-133.333333333333,4,1,0,40,0,0
85044,-133.333333333333,4,2,0,40,0,0
85381,-133.333333333333,4,1,0,40,0,0
85549,-133.333333333333,4,1,0,30,0,0
85718,-133.333333333333,4,1,0,20,0,0
85886,-133.333333333333,4,2,0,15,0,0
86561,-100,4,1,0,50,0,0
87066,-100,4,2,0,50,0,0
87235,-100,4,1,0,50,0,0
87572,-100,4,2,0,50,0,0
87909,-100,4,1,0,50,0,0
88471,-100,4,2,0,50,0,0
88583,-100,4,1,0,50,0,0
89145,-100,4,2,0,50,0,0
89594,-100,4,1,0,50,0,0
89763,-100,4,2,0,50,0,0
89931,-100,4,1,0,50,0,0
90437,-100,4,2,0,50,0,0
90943,-100,4,1,0,50,0,0
91785,-100,4,2,0,50,0,0
91954,-100,4,1,0,50,0,0
92460,-100,4,2,0,50,0,0
92628,-100,4,1,0,50,0,0
93190,-100,4,2,0,50,0,0
93302,-100,4,1,0,50,0,0
93864,-100,4,2,0,50,0,0
93976,-100,4,1,0,50,0,0
94482,-100,4,2,0,50,0,0
95325,-100,4,1,0,50,0,0
95549,-100,4,2,0,50,0,0
96167,-100,4,1,0,50,0,0
98190,-100,4,2,0,50,0,0
98358,-100,4,1,0,50,0,0
98527,-100,4,2,0,50,0,0
98695,-100,4,1,0,50,0,0
99370,-100,4,2,0,50,0,0
99707,-100,4,1,0,50,0,0
100381,-100,4,2,0,50,0,0
100718,-100,4,1,0,50,0,0
100886,-100,4,2,0,50,0,0
101617,-100,4,1,0,50,0,0
101729,-100,4,2,0,50,0,0
101954,-100,4,1,0,50,0,0
102291,-100,4,2,0,50,0,0
102403,-100,4,1,0,50,0,0
103415,-100,4,2,0,50,0,0
103864,-100,4,1,0,50,0,0
104089,-100,4,2,0,50,0,0
104313,-100,4,1,0,50,0,0
104988,-100,4,2,0,50,0,0
105437,-100,4,1,0,60,0,0
106785,-100,4,1,0,40,0,0
107010,-100,4,2,0,20,0,0
107122,-100,4,1,0,30,0,0
107460,-100,4,1,0,40,0,0
107797,-100,4,2,0,50,0,0
107965,-100,4,1,0,50,0,0
108134,-100,4,2,0,50,0,0
108302,-100,4,2,0,40,0,0
108639,-100,4,2,0,30,0,0
108808,-100,4,1,0,25,0,0
108976,-100,4,2,0,20,0,0
109482,-100,4,2,0,10,0,0
128021,-100,4,2,0,20,0,0
128358,-100,4,2,0,30,0,0
128695,-100,4,2,0,40,0,0
129033,-100,4,2,0,50,0,0
129707,-100,4,1,0,50,0,0
130044,-100,4,2,0,50,0,0
130381,-100,4,1,0,50,0,0
130465,-100,4,2,0,50,0,0
130634,-100,4,1,0,30,0,0
130718,-100,4,2,0,50,0,0
130886,-100,4,2,0,40,0,0
130971,-100,4,2,0,40,0,0
131055,-100,4,2,0,50,0,0
131392,-100,4,1,0,50,0,0
131561,-100,4,2,0,50,0,0
131729,-100,4,1,0,40,0,0
132066,-100,4,2,0,40,0,0
132403,-100,4,1,0,40,0,0
132909,-100,4,2,0,40,0,0
133077,-100,4,1,0,20,0,0
133752,-100,4,1,0,40,0,0
133758,-100,4,1,0,20,0,0
135100,-100,4,1,0,30,0,0
135268,-100,4,2,0,30,0,0
135774,-100,4,1,0,40,0,0
135943,-100,4,2,0,30,0,0
136111,-100,4,1,0,40,0,0
136280,-100,4,2,0,30,0,0
136448,-100,4,1,0,40,0,0
136954,-100,4,2,0,40,0,0
137291,-100,4,2,0,30,0,0
137460,-100,4,2,0,20,0,0
137628,-100,4,1,0,50,0,0
138134,-100,4,2,0,40,0,0
138471,-100,4,1,0,40,0,0
138639,-100,4,2,0,40,0,0
138976,-100,4,1,0,40,0,0
139482,-100,4,1,0,30,0,0
139819,-100,4,2,0,30,0,0
139988,-100,4,1,0,30,0,0
140156,-100,4,1,0,40,0,0
140325,-100,4,2,0,50,0,0
140493,-100,4,1,0,50,0,0
140662,-100,4,2,0,50,0,0
140746,-100,4,1,0,30,0,0
141167,-100,4,1,0,40,0,0
141504,-100,4,2,0,30,0,0
141673,-100,4,1,0,30,0,0
141842,-100,4,1,0,40,0,0
142347,-100,4,2,0,40,0,0
142516,-100,4,1,0,50,0,0
142853,-100,4,2,0,40,0,0
143190,-100,4,1,0,50,0,0
143358,-100,4,2,0,50,0,0
143527,-100,4,2,0,40,0,0
143695,-100,4,2,0,30,0,0
143864,-100,4,1,0,40,0,0
144033,-100,4,2,0,40,0,0
144201,-100,4,2,0,30,0,0
144370,-100,4,1,0,30,0,0
144454,-100,4,2,0,30,0,0
144538,-100,4,1,0,40,0,0
144707,-100,4,2,0,30,0,0
144875,-100,4,2,0,20,0,0
145044,-100,4,1,0,40,0,0
145212,-100,4,2,0,30,0,0
145886,-100,4,1,0,30,0,0
146055,-100,4,2,0,20,0,0
146561,-100,4,1,0,30,0,0
146729,-100,4,2,0,20,0,0
147235,-100,4,2,0,30,0,0
147572,-100,4,1,0,40,0,0
147656,-100,4,2,0,30,0,0
147740,-100,4,1,0,30,0,0
147825,-100,4,2,0,30,0,0
147909,-100,4,2,0,40,0,0
148246,-100,4,2,0,30,0,0
148583,-100,4,1,0,40,0,0
148752,-100,4,2,0,30,0,0
149089,-100,4,2,0,20,0,0
149257,-100,4,2,0,20,0,0
149931,-100,4,1,0,15,0,0
150606,-100,4,2,0,12,0,0
156673,-100,4,2,0,5,0,0
157347,-100,4,2,0,10,0,0
158021,-100,4,2,0,15,0,0
159370,-100,4,2,0,20,0,0
160718,-100,4,2,0,25,0,0
162066,-100,4,2,0,30,0,0
164763,-100,4,2,0,35,0,0
167460,-100,4,2,0,40,0,0
170156,-100,4,2,0,45,0,0
171504,-100,4,2,0,50,0,0
171842,-100,4,2,0,55,0,0
172179,-100,4,2,0,60,0,0
172516,-100,4,2,0,65,0,0
172853,-100,4,2,0,50,0,0
173864,-100,4,1,0,50,0,0
174033,-100,4,2,0,50,0,0
174426,-100,4,1,0,50,0,0
175212,-100,4,2,0,50,0,0
176224,-100,4,1,0,50,0,0
176729,-100,4,2,0,50,0,0
177235,-100,4,1,0,50,0,0
177740,-100,4,2,0,50,0,0
178077,-100,4,2,0,40,0,0
178246,-100,4,1,0,50,0,0
178415,-100,4,2,0,50,0,0
178583,-100,4,1,0,50,0,0
179089,-100,4,2,0,50,0,0
179931,-100,4,1,0,50,0,0
180493,-100,4,2,0,50,0,0
180606,-100,4,1,0,50,0,0
181842,-100,4,2,0,50,0,0
182628,-100,4,1,0,50,0,0
182965,-100,4,1,0,50,0,0
183190,-100,4,2,0,50,0,0
183302,-100,4,1,0,50,0,0
184145,-100,4,2,0,50,0,0
184313,-100,4,1,0,50,0,0
184482,-100,4,2,0,50,0,0
184651,-100,4,1,0,50,0,0
184875,-100,4,2,0,50,0,0
185325,-100,4,1,0,50,0,0
185549,-100,4,2,0,50,0,0
185662,-100,4,1,0,50,0,0
186224,-100,4,2,0,50,0,0
186336,-100,4,1,0,50,0,0
186673,-100,4,2,0,50,0,0
187010,-100,4,1,0,40,0,0
187179,-100,4,2,0,40,0,0
187347,-100,4,1,0,40,0,0
187516,-100,4,2,0,40,0,0
187684,-100,4,1,0,30,0,0
187853,-100,4,2,0,30,0,0
188021,-100,4,1,0,30,0,0
188190,-100,4,2,0,30,0,0
188358,-100,4,1,0,20,0,0
191729,-100,4,1,0,50,0,0
193302,-100,4,2,0,30,0,0
193415,-100,4,1,0,50,0,0
193639,-100,4,2,0,30,0,0
193752,-100,4,1,0,50,0,0
193976,-100,4,2,0,30,0,0
194089,-100,4,1,0,50,0,0
194313,-100,4,2,0,30,0,0
194426,-100,4,1,0,50,0,0
194679,-100,4,2,0,50,0,0
194988,-100,4,2,0,50,0,0
195100,-100,4,1,0,50,0,0
195325,-100,4,2,0,50,0,0
195437,-100,4,1,0,50,0,0
195662,-100,4,2,0,50,0,0
195774,-100,4,1,0,50,0,0
195999,-100,4,2,0,50,0,0
196111,-100,4,1,0,50,0,0
196448,-100,4,2,0,50,0,0
197122,-100,4,1,0,50,0,0
197454,-100,4,2,0,40,0,0
197466,-100,4,1,0,50,0,0
198021,-100,4,2,0,50,0,0
198358,-100,4,2,0,40,0,0
198471,-100,4,2,0,50,0,0
198695,-100,4,1,0,50,0,0
199033,-100,4,2,0,50,0,0
199145,-100,4,1,0,50,0,0
199370,-100,4,2,0,50,0,0
199819,-100,4,1,0,50,0,0
200044,-100,4,2,0,50,0,0
200493,-100,4,1,0,50,0,0
200718,-100,4,2,0,50,0,0
200830,-100,4,1,0,50,0,0
201055,-100,4,2,0,50,0,0
201504,-100,4,1,0,50,0,0
202066,-100,4,2,0,50,0,0
202179,-100,4,1,0,50,0,0
202403,-100,4,2,0,50,0,0
202516,-100,4,1,0,50,0,0
202740,-100,4,2,0,50,0,0
202853,-100,4,1,0,50,0,0
203077,-100,4,2,0,50,0,0
203190,-100,4,1,0,50,0,0
203415,-100,4,2,0,40,0,0
203864,-100,4,1,0,40,0,0
204089,-100,4,2,0,50,0,0
204201,-100,4,1,0,50,0,0
204426,-100,4,2,0,50,0,0
204538,-100,4,1,0,50,0,0
204707,-100,4,2,0,40,0,0
204875,-100,4,1,0,50,0,0
205044,-100,4,2,0,40,0,0
205212,-100,4,1,0,50,0,0
205549,-100,4,2,0,50,0,0
205886,-100,4,1,0,50,0,0
206111,-100,4,2,0,50,0,0
206224,-100,4,1,0,50,0,0
206448,-100,4,2,0,50,0,0
206561,-100,4,2,0,40,0,0
206898,-100,4,1,0,50,0,0
207122,-100,4,2,0,50,0,0
207235,-100,4,1,0,50,0,0
207488,-100,4,2,0,50,0,0
207572,-100,4,2,0,20,0,0
207909,-100,4,1,0,50,0,0
208246,-100,4,2,0,50,0,0
208583,-100,4,1,0,50,0,0
208920,-100,4,2,0,50,0,0
209257,-100,4,1,0,50,0,0
209426,-100,4,2,0,50,0,0
209594,-100,4,1,0,50,0,0
210156,-100,4,2,0,50,0,0
210606,-100,4,2,0,30,0,0
211954,-100,4,2,0,40,0,0
213302,-100,4,1,0,50,0,0
213639,-100,4,2,0,50,0,0
213976,-100,4,1,0,50,0,0
214313,-100,4,2,0,50,0,0
214875,-100,4,1,0,50,0,0
216448,-100,4,2,0,50,0,0
216673,-100,4,1,0,50,0,0
216898,-100,4,2,0,50,0,0
217010,-100,4,1,0,50,0,0
217460,-100,4,2,0,50,0,0
217684,-100,4,1,0,50,0,0
218246,-100,4,2,0,50,0,0
218358,-100,4,1,0,50,0,0
218920,-100,4,2,0,50,0,0
219033,-100,4,1,0,50,0,0
219707,-100,4,2,0,50,0,0
220044,-100,4,1,0,50,0,0
220268,-100,4,2,0,50,0,0
220381,-100,4,1,0,50,0,0
221055,-100,4,2,0,50,0,0
221392,-100,4,1,0,50,0,0
222235,-100,4,2,0,50,0,0
222403,-100,4,1,0,50,0,0
222572,-100,4,2,0,50,0,0
222965,-100,4,1,0,50,0,0
223583,-100,4,2,0,50,0,0
224089,-100,4,1,0,50,0,0
224594,-100,4,2,0,50,0,0
224763,-100,4,1,0,50,0,0
224931,-100,4,2,0,50,0,0
225100,-100,4,1,0,50,0,0
226785,-100,4,1,0,50,0,0
227122,-100,4,2,0,50,0,0
227460,-100,4,1,0,50,0,0
227684,-100,4,2,0,50,0,0
227797,-100,4,1,0,50,0,0
228021,-100,4,2,0,50,0,0
228471,-100,4,1,0,50,0,0
228808,-100,4,2,0,50,0,0
229482,-100,4,1,0,50,0,0
229651,-100,4,2,0,50,0,0
230156,-100,4,1,0,50,0,0
230325,-100,4,2,0,50,0,0
230832,-100,4,2,0,40,0,0
231167,-100,4,1,0,50,0,0
231392,-100,4,2,0,50,0,0
232179,-100,4,1,0,50,0,0
232516,-100,4,2,0,50,0,0
233190,-100,4,1,0,50,0,0
233358,-100,4,2,0,50,0,0
233695,-100,4,1,0,30,0,0
233864,-100,4,1,0,50,0,0
234538,-100,4,2,0,50,0,0
234875,-100,4,1,0,30,0,0
235549,-100,4,1,0,35,0,0
236224,-100,4,1,0,40,0,0
236898,-100,4,1,0,45,0,0
237572,-100,4,2,0,30,0,0

[Colours]
Combo1 : 137,54,71
Combo2 : 132,145,147
Combo3 : 242,242,244
Combo4 : 205,69,83

[HitObjects]
82,82,19145,6,0,P|136:79|189:92,1,110,0|0,1:0|2:0,0:0:0:0:
323,142,19819,2,0,P|377:145|430:132,1,110,2|0,2:0|1:0,0:0:0:0:
358,9,20493,2,0,L|365:63,1,55,0|0,0:0|0:0,0:0:0:0:
323,142,20830,2,0,P|285:179|278:233,2,110,0|0|0,0:0|0:0|0:0,0:0:0:0:
477,237,21842,6,0,B|421:242|424:214|369:221,1,110,4|0,0:0|0:0,0:0:0:0:
230,312,22516,2,0,P|281:331|333:314,1,110,8|0,0:0|0:0,0:0:0:0:
187,222,23190,2,0,P|164:238|139:279,1,73.3333333333333,0|0,0:0|0:0,0:0:0:0:
115,292,23527,2,0,P|106:250|97:216,1,73.3333333333333,0|0,0:0|0:0,0:0:0:0:
83,201,23864,2,0,P|50:158|51:103,1,110,8|0,0:0|0:0,0:0:0:0:
201,24,24538,6,0,L|318:33,1,110,0|2,0:0|0:0,0:0:0:0:
333,195,25212,2,0,P|317:168|233:151,1,110,8|2,0:0|0:0,0:0:0:0:
401,32,25886,2,0,P|391:67|377:101,1,73.3333333333333,2|0,0:0|0:0,0:0:0:0:
389,128,26224,1,0,0:0:0:0:
419,290,26561,2,0,P|364:296|310:306,1,110,8|0,0:0|0:0,0:0:0:0:
219,367,27122,1,0,0:0:0:0:
219,367,27235,6,0,P|191:320|201:267,1,110,0|0,0:0|0:0,0:0:0:0:
253,111,27909,2,0,P|207:142|155:158,1,110,8|0,0:0|0:0,0:0:0:0:
21,253,28583,2,0,P|55:224|113:246,1,110,0|0,0:0|0:0,0:0:0:0:
56,146,29145,1,0,0:0:0:0:
56,146,29257,2,0,L|48:20,1,110,8|4,0:0|0:0,0:0:0:0:
240,54,29931,6,0,B|180:58|198:87|139:93,2,110,0|0|8,0:0|0:0|0:0,0:0:0:0:
342,183,30943,2,0,P|329:148|331:112,1,73.3333333333333,0|8,0:0|0:0,0:0:0:0:
346,93,31280,2,0,P|391:95|463:92,1,110,2|0,0:0|0:0,0:0:0:0:
386,261,31954,2,0,B|350:262|332:276|332:276|315:260|284:255,1,110,10|0,0:0|0:0,0:0:0:0:
135,184,32628,6,0,P|160:232|178:284,1,110,4|0,0:0|0:0,0:0:0:0:
23,340,33302,2,0,P|13:289|75:291,1,110,8|0,0:0|0:0,0:0:0:0:
193,372,33976,1,0,0:0:0:0:
196,219,34313,2,0,L|212:146,1,73.3333333333333,0|0,0:0|0:0,0:0:0:0:
210,118,34651,2,0,P|169:96|89:127,1,110,8|0,0:0|0:0,0:0:0:0:
300,200,35325,6,0,L|409:188,1,110,0|0,0:0|0:0,0:0:0:0:
369,348,35999,1,8,0:0:0:0:
220,275,36336,1,0,0:0:0:0:
270,117,36673,2,0,L|276:32,1,73.3333333333333,2|2,0:0|0:0,0:0:0:0:
291,20,37010,2,0,P|199:27|152:28,1,110,0|8,0:0|0:0,0:0:0:0:
34,102,37684,1,4,0:0:0:0:
134,232,38021,6,0,B|148:167|119:181|135:123,2,110,0|0|8,0:0|0:0|0:0,0:0:0:0:
260,338,39033,2,0,P|205:338|158:365,1,110,0|2,0:0|0:0,0:0:0:0:
233,252,39594,1,2,0:0:0:0:
233,252,39707,2,0,P|276:251|313:265,1,73.3333333333333,0|0,0:0|0:0,0:0:0:0:
327,276,40044,2,0,L|399:266,1,55,10|4,0:0|0:0,0:0:0:0:
410,41,40718,6,0,P|367:74|342:123,1,110,4|2,0:0|0:0,0:0:0:0:
178,101,41392,2,0,P|220:134|245:183,1,110,8|2,0:0|0:0,0:0:0:0:
256,192,41842,12,0,43077,0:0:0:0:
336,321,43415,6,0,L|448:302,1,110,4|2,0:0|0:0,0:0:0:0:
489,144,44089,1,8,0:0:0:0:
326,171,44426,1,0,0:0:0:0:
289,10,44763,5,8,0:0:0:0:
376,77,44988,1,0,0:0:0:0:
376,77,45100,1,0,0:0:0:0:
271,111,45325,1,0,0:0:0:0:
271,111,45437,1,8,0:0:0:0:
118,47,45774,2,0,L|26:65,1,73.3333333333333,0|0,0:0|0:0,0:0:0:0:
21,48,46111,2,0,P|43:111|56:173,1,110,4|0,0:0|0:0,0:0:0:0:
90,313,46785,6,0,P|176:269|214:266,1,110,8|2,0:0|0:0,0:0:0:0:
257,312,47291,1,0,0:0:0:0:
322,261,47460,1,2,0:0:0:0:
381,318,47628,1,0,0:0:0:0:
452,276,47797,1,4,0:0:0:0:
311,189,48134,6,0,P|319:120|336:53,1,110,8|2,0:0|0:0,0:0:0:0:
240,8,48695,1,2,0:0:0:0:
244,12,48808,2,0,B|181:5|194:41|133:37,2,110,4|0|8,0:0|0:0|0:0,0:0:0:0:
408,0,49819,1,2,0:0:0:0:
437,159,50156,5,8,0:0:0:0:
328,178,50381,1,0,0:0:0:0:
328,178,50493,1,8,0:0:0:0:
400,260,50718,1,0,0:0:0:0:
400,260,50830,1,8,0:0:0:0:
268,359,51167,1,8,0:0:0:0:
146,247,51504,6,0,P|177:231|202:158,1,110,4|2,0:0|0:0,0:0:0:0:
93,39,52179,1,8,0:0:0:0:
2,208,52516,2,0,L|14:146,1,55,2|4,0:0|0:0,0:0:0:0:
94,147,52853,2,0,L|81:208,1,55,2|8,0:0|0:0,0:0:0:0:
78,283,53190,5,0,0:0:0:0:
78,283,53274,1,8,0:0:0:0:
78,283,53358,1,0,0:0:0:0:
156,258,53527,1,8,0:0:0:0:
195,330,53695,2,0,L|237:322,2,27.5,0|8|8,0:0|0:0|0:0,0:0:0:0:
293,287,54033,1,2,0:0:0:0:
344,350,54201,6,0,P|396:329|412:277,1,110,6|2,0:0|0:0,0:0:0:0:
376,120,54875,2,0,P|307:123|249:112,1,110,8|0,0:0|0:0,0:0:0:0:
203,22,55437,1,0,0:0:0:0:
203,22,55549,1,2,0:0:0:0:
110,82,55774,1,0,0:0:0:0:
110,82,55886,1,0,0:0:0:0:
165,176,56111,1,0,0:0:0:0:
165,176,56224,2,0,L|158:293,1,110,8|2,0:0|0:0,0:0:0:0:
312,345,56898,5,0,0:0:0:0:
465,282,57235,2,0,L|458:172,2,110,4|8|2,0:0|0:0|0:0,0:0:0:0:
359,249,58134,1,0,0:0:0:0:
359,249,58246,1,2,0:0:0:0:
256,289,58471,1,0,0:0:0:0:
256,289,58583,1,0,0:0:0:0:
156,242,58808,1,0,0:0:0:0:
156,242,58920,2,0,P|152:187|174:126,1,110,8|4,0:0|0:0,0:0:0:0:
320,200,59594,6,0,L|433:170,1,110,0|0,0:0|0:0,0:0:0:0:
359,20,60268,1,8,0:0:0:0:
232,126,60606,1,2,0:0:0:0:
109,15,60943,5,2,0:0:0:0:
218,25,61167,1,0,0:0:0:0:
218,25,61280,1,0,0:0:0:0:
151,112,61504,1,0,0:0:0:0:
151,112,61617,2,0,L|164:232,1,110,8|2,0:0|0:0,0:0:0:0:
133,327,62291,5,0,0:0:0:0:
240,351,62628,1,0,0:0:0:0:
274,246,62965,1,0,0:0:0:0:
162,221,63302,1,0,0:0:0:0:
119,335,63639,5,8,0:0:0:0:
247,363,63976,1,0,0:0:0:0:
288,237,64313,1,8,0:0:0:0:
153,207,64650,1,0,0:0:0:0:
204,283,64988,5,0,0:0:0:0:
97,98,74426,6,0,P|125:98|150:109,1,55,0|0,0:0|0:0,0:0:0:0:
222,53,75100,2,0,P|234:77|238:104,1,55,0|0,0:0|0:0,0:0:0:0:
334,119,75774,6,0,P|309:167|263:195,1,110,2|0,0:0|0:0,0:0:0:0:
203,259,76785,2,0,P|146:240|92:226,1,110,0|0,0:0|0:0,0:0:0:0:
335,340,78471,6,0,P|379:307|433:300,1,110,0|8,0:0|0:0,0:0:0:0:
340,240,79482,1,0,0:0:0:0:
401,176,79819,2,0,P|391:141|391:129,1,36.6666666666667,8|0,0:0|0:0,0:0:0:0:
371,120,80156,1,0,0:0:0:0:
388,25,80493,2,0,L|333:29,1,55,8|8,0:0|0:0,0:0:0:0:
271,91,81167,6,0,B|214:99|221:67|163:77,1,110,2|8,0:0|0:0,0:0:0:0:
39,51,82179,1,4,0:0:0:0:
78,148,82516,2,0,L|72:184,1,36.6666666666667,0|0,0:0|0:0,0:0:0:0:
82,209,82853,1,0,0:0:0:0:
34,276,83077,1,0,0:0:0:0:
34,276,83190,1,8,0:0:0:0:
124,334,83527,2,0,L|160:328,1,36.6666666666667,2|0,0:0|0:0,0:0:0:0:
181,303,83864,6,0,P|221:303|262:314,1,82.5000031471254,0|2,0:0|0:0,0:0:0:0:
402,360,84538,2,0,P|381:324|371:283,1,82.5000031471254,8|0,0:0|0:0,0:0:0:0:
380,202,85044,1,4,0:0:0:0:
367,116,85212,2,0,L|359:64,2,41.2500015735627,8|8|0,0:0|0:0|0:0,0:0:0:0:
449,148,85718,2,0,P|460:165|465:185,1,41.2500015735627,0|0,0:0|0:0,0:0:0:0:
465,185,86561,6,0,P|472:231|494:297,1,110,4|0,0:0|0:0,0:0:0:0:
338,352,87235,2,0,P|294:330|272:310,1,73.3333333333333,8|0,0:0|0:0,0:0:0:0:
283,292,87572,1,2,0:0:0:0:
198,221,87797,1,0,0:0:0:0:
198,221,87909,2,0,L|111:237,1,73.3333333333333,8|0,0:0|0:0,0:0:0:0:
119,261,88246,2,0,L|45:252,1,73.3333333333333,0|0,0:0|0:0,0:0:0:0:
25,258,88583,1,8,0:0:0:0:
9,93,88920,1,0,0:0:0:0:
168,134,89257,6,0,L|291:110,1,110,4|0,0:0|0:0,0:0:0:0:
414,22,89931,2,0,L|525:47,2,110,8|0|8,0:0|0:0|0:0,0:0:0:0:
306,45,90830,1,0,0:0:0:0:
306,45,90943,2,0,L|215:22,1,73.3333333333333,0|0,0:0|0:0,0:0:0:0:
219,12,91280,2,0,L|128:35,1,73.3333333333333,0|0,0:0|0:0,0:0:0:0:
135,51,91617,1,0,0:0:0:0:
23,172,91954,5,4,0:0:0:0:
125,301,92291,1,0,0:0:0:0:
253,197,92628,1,8,0:0:0:0:
142,192,92853,5,0,0:0:0:0:
142,192,92965,1,0,0:0:0:0:
202,283,93190,1,0,0:0:0:0:
202,283,93302,1,2,0:0:0:0:
291,219,93527,1,2,0:0:0:0:
291,219,93639,1,0,0:0:0:0:
228,128,93864,1,0,0:0:0:0:
228,128,93976,2,0,P|241:76|250:12,1,110,2|2,0:0|0:0,0:0:0:0:
359,26,94538,5,0,0:0:0:0:
378,28,94651,2,0,P|387:86|400:137,1,110,4|2,0:0|0:0,0:0:0:0:
469,178,95156,1,2,0:0:0:0:
433,252,95325,2,0,P|415:302|419:366,1,110,2|0,0:2|0:0,0:0:0:0:
335,365,95830,1,0,0:0:0:0:
275,307,95999,6,0,L|205:323,1,55,2|8,0:0|0:0,0:0:0:0:
139,304,96336,1,0,0:0:0:0:
139,304,96420,1,8,0:0:0:0:
139,304,96504,1,0,0:0:0:0:
59,325,96673,1,0,0:0:0:0:
21,251,96842,2,0,L|-10:261,2,27.5,0|8|8,0:0|0:0|0:0,0:0:0:0:
75,188,97179,1,8,0:0:0:0:
151,219,97347,6,0,P|196:202|260:170,1,110,4|0,0:0|0:0,0:0:0:0:
340,35,98021,2,0,P|401:46|464:73,2,110,8|0|8,0:0|0:0|0:0,0:0:0:0:
237,74,98920,1,0,0:0:0:0:
237,74,99033,2,0,P|196:72|159:61,1,73.3333333333333,2|0,0:0|0:0,0:0:0:0:
146,37,99370,2,0,P|109:51|49:96,1,110,4|8,0:0|0:0,0:0:0:0:
41,256,100044,6,0,P|76:310|90:376,2,110,4|2|8,0:0|0:0|0:0,0:0:0:0:
118,178,100943,1,0,0:0:0:0:
118,178,101055,2,0,L|207:191,1,73.3333333333333,2|0,0:0|0:0,0:0:0:0:
201,207,101392,2,0,L|296:203,1,73.3333333333333,4|0,0:0|0:0,0:0:0:0:
299,184,101729,1,2,0:0:0:0:
380,257,101954,1,0,0:0:0:0:
380,257,102066,1,8,0:0:0:0:
479,208,102291,1,2,0:0:0:0:
479,208,102403,1,0,0:0:0:0:
397,64,102740,5,4,0:0:0:0:
397,64,103415,2,0,L|311:78,2,73.3333333333333,2|2|2,0:0|0:0|0:0,0:0:0:0:
438,165,104089,2,0,L|524:179,2,73.3333333333333,2|2|2,0:0|0:0|0:0,0:0:0:0:
330,189,104763,1,2,0:0:0:0:
221,205,104988,1,2,0:0:0:0:
112,221,105212,2,0,L|71:216,2,36.6666666666667,2|0|4,0:0|0:0|0:0,0:0:0:0:
258,378,105999,1,0,0:0:0:0:
258,378,106111,1,4,0:0:0:0:
415,232,106673,5,0,0:0:0:0:
415,232,106785,2,0,P|403:173|399:110,1,110,4|4,0:0|0:0,0:0:0:0:
349,25,107347,1,0,0:0:0:0:
349,25,107460,1,8,0:0:0:0:
511,54,107797,2,0,P|504:103|493:130,1,55,2|2,0:0|0:0,0:0:0:0:
503,190,108134,5,4,0:0:0:0:
256,192,128021,12,0,129707,0:0:0:0:
179,151,130381,6,0,L|170:109,2,27.5,0|0|0,0:0|0:0|0:0,0:0:0:0:
129,217,130718,2,0,L|120:259,2,27.5,0|0|4,0:0|0:0|0:0,0:0:0:0:
212,232,131055,2,0,P|243:216|321:213,1,110,8|0,0:0|0:0,0:0:0:0:
392,244,131561,1,2,0:0:0:0:
381,161,131729,2,0,P|385:107|406:55,1,110,8|8,0:0|0:0,0:0:0:0:
471,203,132403,6,0,P|480:257|400:335,1,165,0|0,0:0|0:0,0:0:0:0:
332,306,133077,2,0,L|278:316,1,55,0|0,0:0|0:0,0:0:0:0:
206,357,133415,2,0,L|152:347,1,55,0|0,0:0|0:0,0:0:0:0:
209,268,133752,2,0,P|210:213|203:158,1,110,0|0,0:0|0:0,0:0:0:0:
141,103,134257,2,0,P|96:107|78:172,1,110,0|0,0:0|0:0,0:0:0:0:
80,180,134679,1,8,0:0:0:0:
90,196,134763,1,0,0:0:0:0:
261,211,135100,6,0,L|372:190,1,110,0|0,0:0|0:0,0:0:0:0:
446,45,135774,2,0,L|381:37,1,55,0|2,0:0|0:0,0:0:0:0:
314,69,136111,1,0,0:0:0:0:
314,69,136280,1,2,0:0:0:0:
244,5,136448,2,0,P|224:55|232:109,1,110,8|0,0:0|0:0,0:0:0:0:
169,162,136954,1,0,0:0:0:0:
100,115,137122,2,0,L|45:108,2,55,8|2|8,0:0|0:0|0:0,0:0:0:0:
170,264,137797,6,0,P|135:281|111:299,1,55,2|2,0:0|0:0,0:0:0:0:
182,346,138134,1,0,0:0:0:0:
250,300,138302,1,8,0:0:0:0:
320,340,138471,2,0,P|346:350|373:356,2,55,2|0|8,0:0|0:0|0:0,0:0:0:0:
322,258,138976,1,0,0:0:0:0:
395,221,139145,2,0,P|456:243|486:298,1,110,10|0,0:0|0:0,0:0:0:0:
410,129,139819,2,0,P|408:101|412:74,1,55,0|0,0:0|0:0,0:0:0:0:
332,54,140156,2,0,P|333:26|329:0,1,55,0|0,0:0|0:0,0:0:0:0:
265,96,140493,6,0,P|252:90|239:85,2,27.5,2|8|2,0:0|0:0|0:0,0:0:0:0:
214,161,140830,2,0,P|201:166|188:171,2,27.5,0|0|10,0:0|0:0|0:0,0:0:0:0:
146,100,141167,2,0,B|46:81|81:144|-12:122,2,165,2|2|0,0:0|0:0|0:0,0:0:0:0:
96,257,142516,2,0,P|118:291|131:330,1,82.5,0|0,0:0|0:0,0:0:0:0:
154,348,142853,2,0,L|181:343,2,27.5,0|2|0,0:0|0:0|0:0,0:0:0:0:
214,271,143190,6,0,P|236:285|253:308,1,55,0|8,0:0|0:0,0:0:0:0:
322,353,143527,2,0,P|338:330|361:315,1,55,8|8,0:0|0:0,0:0:0:0:
447,360,143864,2,0,L|433:250,1,110,0|8,0:0|0:0,0:0:0:0:
473,178,144370,1,0,0:0:0:0:
408,127,144538,2,0,P|354:131|324:175,1,110,4|8,0:0|0:0,0:0:0:0:
257,223,145044,1,0,0:0:0:0:
166,85,145381,1,8,0:0:0:0:
87,109,145549,2,0,L|14:89,1,55,0|10,0:0|0:0,0:0:0:0:
101,28,145886,6,0,P|148:2|202:7,1,110,0|0,0:0|0:0,0:0:0:0:
341,97,146561,2,0,P|393:90|448:75,1,110,0|0,0:0|0:0,0:0:0:0:
285,169,147235,2,0,P|304:205|315:245,1,82.5,8|0,0:0|0:0,0:0:0:0:
331,272,147572,2,0,L|370:275,2,27.5,0|0|2,0:0|0:0|0:0,0:0:0:0:
260,316,147909,1,8,0:0:0:0:
102,266,148246,1,0,0:0:0:0:
153,109,148583,6,0,L|147:44,1,55,0|2,0:0|0:0,0:0:0:0:
235,127,148920,2,0,L|229:62,1,55,0|6,0:0|0:0,0:0:0:0:
305,37,149257,1,8,0:0:0:0:
450,318,149931,2,0,B|394:316|350:276|350:276|321:331|263:333,2,220,4|0|0,0:0|0:0|0:0,0:0:0:0:
256,192,162066,12,4,172853,0:0:0:0:
295,248,173527,6,0,L|415:231,1,110,4|0,0:0|0:0,0:0:0:0:
318,91,174201,1,0,0:0:0:0:
221,143,174426,1,0,0:0:0:0:
221,143,174538,2,0,L|145:134,1,73.3333333333333,0|0,0:0|0:0,0:0:0:0:
136,116,174875,2,0,L|16:142,1,110,0|2,0:0|0:0,0:0:0:0:
58,301,175549,6,0,L|181:313,1,110,4|8,0:0|0:0,0:0:0:0:
305,220,176224,1,8,0:0:0:0:
415,342,176561,1,0,0:0:0:0:
502,201,176898,2,0,L|428:208,1,55,2|8,0:0|0:0,0:0:0:0:
430,125,177235,2,0,L|504:132,1,55,0|0,0:0|0:0,0:0:0:0:
483,47,177572,2,0,L|364:59,1,110,8|2,0:0|0:0,0:0:0:0:
258,176,178246,5,0,0:0:0:0:
155,46,178583,1,0,0:0:0:0:
50,173,178920,2,0,L|118:165,1,55,8|0,0:0|0:0,0:0:0:0:
184,188,179257,2,0,L|170:315,1,110,2|4,0:0|0:0,0:0:0:0:
320,368,179931,2,0,L|394:351,1,73.3333333333333,0|0,0:0|0:0,0:0:0:0:
396,327,180268,2,0,L|521:343,1,110,8|0,0:0|0:0,0:0:0:0:
462,180,180943,5,2,0:0:0:0:
305,231,181280,1,2,0:0:0:0:
244,77,181617,1,8,0:0:0:0:
401,28,181954,1,2,0:0:0:0:
346,123,182179,5,8,0:0:0:0:
346,123,182291,1,0,0:0:0:0:
244,77,182516,1,0,0:0:0:0:
244,77,182628,1,0,0:0:0:0:
178,165,182853,1,0,0:0:0:0:
178,165,182965,1,8,0:0:0:0:
25,102,183302,1,0,0:0:0:0:
8,266,183639,6,0,L|125:284,1,110,4|0,0:0|0:0,0:0:0:0:
251,378,184313,1,8,0:0:0:0:
343,241,184651,1,0,0:0:0:0:
210,142,184988,5,8,0:0:0:0:
229,249,185212,1,0,0:0:0:0:
229,249,185325,1,0,0:0:0:0:
320,188,185549,1,0,0:0:0:0:
320,188,185662,1,8,0:0:0:0:
462,211,185999,5,0,0:0:0:0:
426,49,186336,2,0,P|398:110|383:173,2,110,0|8|0,0:0|0:0|0:0,0:0:0:0:
426,49,187347,1,0,0:0:0:0:
266,6,187684,5,0,0:0:0:0:
191,49,187909,1,0,0:0:0:0:
191,49,188021,1,0,0:0:0:0:
272,101,188246,1,0,0:0:0:0:
272,101,188358,1,0,0:0:0:0:
182,172,188695,1,0,0:0:0:0:
275,239,189033,1,0,0:0:0:0:
316,274,191729,5,0,0:0:0:0:
152,251,192066,1,8,0:0:0:0:
167,141,192291,1,0,0:0:0:0:
167,141,192403,1,0,0:0:0:0:
331,164,192740,1,8,0:0:0:0:
316,274,192965,5,0,0:0:0:0:
316,274,193077,1,0,0:0:0:0:
206,261,193302,1,0,0:0:0:0:
206,261,193415,1,0,0:0:0:0:
219,151,193639,1,0,0:0:0:0:
219,151,193752,1,0,0:0:0:0:
329,164,193976,1,0,0:0:0:0:
329,164,194088,1,0,0:0:0:0:
437,182,194313,5,0,0:0:0:0:
437,182,194426,2,0,P|461:135|465:69,1,110,4|0,0:0|0:0,0:0:0:0:
372,21,194988,1,2,0:0:0:0:
372,21,195100,2,0,L|256:27,1,110,8|0,0:0|0:0,0:0:0:0:
117,106,195774,2,0,L|39:100,1,73.3333333333333,0|2,0:0|0:0,0:0:0:0:
25,114,196111,2,0,L|31:192,1,73.3333333333333,0|0,0:0|0:0,0:0:0:0:
18,209,196448,1,8,0:0:0:0:
84,359,196785,1,2,0:0:0:0:
208,251,197122,6,0,P|262:249|312:271,2,110,0|8|8,0:0|0:0|0:0,0:0:0:0:
120,99,198134,1,2,0:0:0:0:
284,85,198471,2,0,L|358:67,2,55,0|0|0,0:0|0:0|0:0,0:0:0:0:
204,160,199033,1,0,0:0:0:0:
204,160,199145,1,8,0:0:0:0:
368,172,199482,2,0,P|408:143|449:121,1,73.3333333333333,4|2,0:0|0:0,0:0:0:0:
445,107,199819,6,2,L|461:221,1,110,4|2,0:0|0:0,0:0:0:0:
485,378,200493,1,8,0:0:0:0:
331,318,200830,2,0,L|249:312,1,73.3333333333333,0|0,0:0|0:0,0:0:0:0:
233,329,201167,2,0,L|162:335,2,55,4|0|2,0:0|0:0|0:0,0:0:0:0:
196,225,201729,1,2,0:0:0:0:
196,225,201842,1,8,0:0:0:0:
261,136,202066,1,0,0:0:0:0:
261,136,202179,1,2,0:0:0:0:
124,42,202516,6,0,P|84:79|63:130,1,110,6|0,0:0|0:0,0:0:0:0:
38,293,203190,2,0,L|103:339,1,73.3333333333333,8|4,0:0|0:0,0:0:0:0:
124,337,203527,1,0,0:0:0:0:
217,278,203752,1,10,0:0:0:0:
217,278,203864,1,0,0:0:0:0:
307,340,204089,1,2,0:0:0:0:
307,340,204201,2,0,L|396:332,1,73.3333333333333,0|2,0:0|0:0,0:0:0:0:
406,318,204538,2,0,P|390:275|385:186,1,110,8|0,0:0|0:0,0:0:0:0:
465,68,205212,6,0,P|490:112|455:149,1,110,4|0,0:0|0:0,0:0:0:0:
308,73,205886,2,0,P|272:78|238:90,1,73.3333333333333,8|0,0:0|0:0,0:0:0:0:
216,102,206224,1,0,0:0:0:0:
296,176,206448,1,0,0:0:0:0:
296,176,206561,1,4,0:0:0:0:
226,325,206898,2,0,L|154:309,1,73.3333333333333,0|0,0:0|0:0,0:0:0:0:
129,320,207235,2,0,L|16:295,1,110,8|4,0:0|0:0,0:0:0:0:
103,153,207909,6,0,P|106:101|122:44,1,110,0|0,0:0|0:0,0:0:0:0:
278,98,208583,2,0,P|225:84|204:139,1,110,8|0,0:0|0:0,0:0:0:0:
285,266,209257,2,0,L|296:347,1,73.3333333333333,0|8,0:0|0:0,0:0:0:0:
315,354,209594,1,0,0:0:0:0:
448,257,209931,2,0,P|488:273|506:340,2,110,8|2|4,0:0|0:0|0:0,0:0:0:0:
258,369,211280,5,0,0:0:0:0:
118,198,211954,1,0,0:0:0:0:
205,131,212291,1,0,0:0:0:0:
275,215,212628,1,2,0:0:0:0:
275,215,212797,2,0,L|388:201,1,110,0|0,0:0|0:0,0:0:0:0:
387,177,213302,6,0,B|437:206|437:206|494:191,2,110,0|8|0,0:0|0:0|0:0,0:0:0:0:
333,80,214313,1,8,0:0:0:0:
230,120,214651,1,2,0:0:0:0:
165,85,214875,1,0,0:0:0:0:
165,85,214988,1,0,0:0:0:0:
96,171,215325,1,0,0:0:0:0:
181,240,215662,1,2,0:0:0:0:
317,147,215999,6,0,P|366:151|419:208,1,110,4|0,0:0|0:0,0:0:0:0:
495,290,216673,2,0,L|377:303,1,110,8|0,0:0|0:0,0:0:0:0:
236,231,217347,1,2,0:0:0:0:
161,311,217572,1,0,0:0:0:0:
161,311,217684,1,0,0:0:0:0:
257,363,217909,1,0,0:0:0:0:
257,363,218021,1,8,0:0:0:0:
326,213,218358,6,0,L|311:121,1,73.3333333333333,0|0,0:0|0:0,0:0:0:0:
285,134,218695,2,0,L|298:14,1,110,0|0,0:0|0:0,0:0:0:0:
131,23,219370,1,8,0:0:0:0:
193,175,219707,5,2,0:0:0:0:
111,162,219875,1,0,0:0:0:0:
88,241,220044,1,0,0:0:0:0:
169,252,220212,1,0,0:0:0:0:
229,308,220381,2,0,P|288:313|349:332,2,110,0|8|2,0:0|0:0|0:0,0:0:0:0:
69,264,221392,6,0,P|62:209|48:135,1,110,4|0,0:0|0:0,0:0:0:0:
188,62,222066,1,8,0:0:0:0:
261,209,222403,1,0,0:0:0:0:
327,121,222628,1,0,0:0:0:0:
327,121,222740,1,4,0:0:0:0:
389,211,222965,1,0,0:0:0:0:
389,211,223077,1,0,0:0:0:0:
319,296,223302,1,0,0:0:0:0:
319,296,223415,1,8,0:0:0:0:
157,264,223752,5,2,0:0:0:0:
229,225,223920,1,2,0:0:0:0:
226,307,224089,2,0,P|285:316|352:320,1,110,4|0,0:0|0:0,0:0:0:0:
466,219,224763,2,0,P|407:228|340:232,1,110,8|0,0:0|0:0,0:0:0:0:
244,111,225437,5,0,0:0:0:0:
165,137,225606,1,8,0:0:0:0:
136,59,225774,1,8,0:0:0:0:
136,59,225858,1,0,0:0:0:0:
136,59,225943,1,8,0:0:0:0:
214,33,226111,1,8,0:0:0:0:
298,10,226280,1,8,0:0:0:0:
298,10,226364,1,8,0:0:0:0:
298,10,226448,2,0,P|343:20|373:20,1,55,0|8,0:0|0:0,0:0:0:0:
407,85,226785,6,0,P|460:76|496:115,1,110,4|0,0:0|0:0,0:0:0:0:
393,245,227460,2,0,P|408:285|414:319,1,73.3333333333333,8|0,0:0|0:0,0:0:0:0:
435,338,227797,1,0,0:0:0:0:
328,365,228021,1,0,0:0:0:0:
328,365,228134,2,0,L|266:359,2,55,2|2|4,0:0|0:0|0:0,0:0:0:0:
280,266,228695,1,2,0:0:0:0:
280,266,228808,2,0,B|218:257|229:292|174:285,1,110,8|6,0:0|0:0,0:0:0:0:
19,341,229482,6,0,P|36:278|40:250,1,73.3333333333333,6|0,0:0|0:0,0:0:0:0:
25,243,229819,2,0,P|18:202|17:129,1,110,2|8,0:0|0:0,0:0:0:0:
144,28,230493,1,2,0:0:0:0:
271,132,230830,2,0,L|325:127,2,55,4|0|4,0:0|0:0|0:0,0:0:0:0:
150,244,231504,2,0,L|223:239,1,73.3333333333333,8|0,0:0|0:0,0:0:0:0:
241,258,231842,1,4,0:0:0:0:
370,360,232179,6,0,P|401:331|401:265,1,110,6|0,0:0|0:0,0:0:0:0:
484,123,232853,2,0,L|499:231,2,110,8|0|2,0:0|0:0|0:0,0:0:0:0:
332,57,233864,1,2,0:0:0:0:
233,105,234089,1,0,0:0:0:0:
233,105,234201,2,0,L|241:180,1,55,10|0,0:0|0:0,0:0:0:0:
293,221,234538,1,0,0:0:0:0:
246,289,234707,1,2,0:0:0:0:
190,228,234875,6,0,P|141:240|72:240,1,110,12|2,0:0|0:0,0:0:0:0:
108,78,235549,2,0,P|157:66|226:66,1,110,12|0,0:0|0:0,0:0:0:0:
360,146,236224,6,0,P|409:134|478:134,1,110,14|0,0:0|0:0,0:0:0:0:
442,296,236898,2,0,P|392:307|323:307,1,110,14|10,0:0|0:0,0:0:0:0:
255,194,237572,5,4,0:0:0:0:
