osu file format v14

[General]
AudioFilename: audio.mp3
AudioLeadIn: 0
PreviewTime: 179194
Countdown: 0
SampleSet: Soft
StackLeniency: 0.4
Mode: 0
LetterboxInBreaks: 0
WidescreenStoryboard: 1

[Editor]
Bookmarks: 78783
DistanceSpacing: 1.5
BeatDivisor: 4
GridSize: 32
TimelineZoom: 1.5

[Metadata]
Title:Lucky Girl (Arranged Ver.)
TitleUnicode:Lucky Girl (Arranged Ver.)
Artist:tieff
ArtistUnicode:tieff
Creator:Niva
Version:normal
Source:
Tags:featured artist tieffsound qeeqqe ScissormanIsLove melodic beat Noffy
BeatmapID:2308235
BeatmapSetID:1080427

[Difficulty]
HPDrainRate:4
CircleSize:3.8
OverallDifficulty:4
ApproachRate:5.5
SliderMultiplier:1.4
SliderTickRate:1

[Events]
//Background and Video events
0,0,"2500935.jpg",0,0
//Break Periods
//Storyboard Layer 0 (Background)
//Storyboard Layer 1 (Fail)
//Storyboard Layer 2 (Pass)
//Storyboard Layer 3 (Foreground)
//Storyboard Layer 4 (Overlay)
//Storyboard Sound Samples

[TimingPoints]
192,722.89156626506,4,2,78,30,1,0
192,-125,4,2,78,30,0,0
1276,800,4,2,77,30,1,0
1676,779.220779220779,4,2,77,30,1,0
1676,-125,4,2,77,30,0,0
4208,793.388429752066,4,2,77,30,1,0
4208,-125,4,2,77,30,0,0
4803,759.493670886076,4,2,77,30,1,0
4803,-125,4,2,77,30,0,0
5562,779.220779220779,4,2,77,30,1,0
5562,-125,4,2,77,30,0,0
5756,800,4,2,77,30,1,0
5756,-125,4,2,77,30,0,0
6356,769.230769230769,4,2,77,30,1,0
6356,-125,4,2,77,30,0,0
7894,779.220779220779,4,2,77,30,1,0
7894,-125,4,2,77,30,0,0
11400,-100,4,2,77,50,0,0
12179,-100,4,2,77,55,0,0
12577,778.210116731518,4,2,77,60,1,0
12577,-100,4,2,77,60,0,0
14717,-100,4,2,78,60,0,0
14911,-100,4,2,77,60,0,0
16273,-100,4,2,78,60,0,0
16468,-100,4,2,77,60,0,0
17246,789.473684210526,4,2,77,60,1,0
17246,-100,4,2,77,60,0,0
18824,778.210116731518,4,2,77,60,1,0
18824,-100,4,2,77,60,0,0
23493,-100,4,2,77,50,0,0
25049,-100,4,2,77,60,0,0
29718,780.741704619388,4,2,77,60,1,0
29718,-100,4,2,77,60,0,0
31474,778.210116731518,4,2,77,60,1,0
31474,-100,4,2,77,60,0,0
33614,-100,4,2,78,60,0,0
33808,-100,4,2,77,60,0,0
35170,-100,4,2,78,60,0,0
35365,-100,4,2,77,60,0,0
36143,-100,4,2,77,50,0,0
37706,750,4,2,77,50,1,0
37706,-125,4,2,77,50,0,0
37799,-125,4,2,77,30,0,0
38081,790.774299835255,4,2,77,30,1,0
38504,722.89156626506,4,2,77,30,1,0
38504,-125,4,2,77,30,0,0
38865,779.220779220779,4,2,77,30,1,0
38865,-125,4,2,77,30,0,0
39644,869.565217391304,4,2,77,30,1,0
39644,-129.87012987013,4,2,77,30,0,0
40078,714.285714285714,4,2,77,30,1,0
40435,781.758957654723,4,2,77,30,1,0
40825,779.220779220779,4,2,77,30,1,0
40825,-125,4,2,77,30,0,0
49979,764.331210191083,4,2,77,60,1,0
50166,778.715120051914,4,2,77,60,1,0
50166,-100,4,2,77,60,0,0
56785,-100,4,2,77,60,0,0
56833,-100,4,2,77,5,0,0
56979,-100,4,2,77,60,0,0
57028,-100,4,2,77,5,0,0
57174,-100,4,2,77,60,0,0
57223,-100,4,2,77,5,0,0
57369,-100,4,2,77,60,0,0
57417,-100,4,2,77,5,0,0
57563,-100,4,2,77,60,0,0
57612,-100,4,2,77,5,0,0
57758,-100,4,2,77,60,0,0
57807,-100,4,2,77,5,0,0
57953,-100,4,2,77,60,0,0
58342,-100,4,2,77,60,0,0
58391,-100,4,2,77,5,0,0
58537,-100,4,2,77,60,0,0
58585,-100,4,2,77,5,0,0
58731,-100,4,2,77,60,0,0
58780,-100,4,2,77,5,0,0
58926,-100,4,2,77,60,0,0
58975,-100,4,2,77,5,0,0
59121,-100,4,2,77,60,0,0
59169,-100,4,2,77,5,0,0
59315,-100,4,2,77,60,0,0
59364,-100,4,2,77,5,0,0
59510,-100,4,2,77,60,0,0
60094,-100,4,2,78,60,0,0
60289,-100,4,2,77,60,0,0
61262,-100,4,2,77,60,0,0
61311,-100,4,2,77,5,0,0
61457,-100,4,2,77,60,0,0
61506,-100,4,2,77,5,0,0
61652,-100,4,2,77,60,0,0
61700,-100,4,2,77,5,0,0
61846,-100,4,2,77,60,0,0
62041,-100,4,2,77,60,0,0
62090,-100,4,2,77,5,0,0
62236,-100,4,2,77,60,0,0
62284,-100,4,2,77,5,0,0
62430,-100,4,2,77,60,0,0
62479,-100,4,2,77,5,0,0
62625,-90.9090909090909,4,2,77,70,0,1
73527,-90.9090909090909,4,2,77,70,0,1
73624,-90.9090909090909,4,2,77,60,0,1
75084,-90.9090909090909,4,2,77,70,0,1
81314,-90.9090909090909,4,2,77,50,0,1
81411,-90.9090909090909,4,2,77,30,0,1
82482,-90.9090909090909,4,2,77,50,0,1
82677,-90.9090909090909,4,2,77,60,0,1
82872,-90.9090909090909,4,2,77,70,0,1
85986,-90.9090909090909,4,2,77,60,0,1
87544,731.707317073171,4,2,77,60,1,0
87544,-90.9090909090909,4,2,77,60,0,0
87909,845.070422535211,4,2,77,60,1,0
87909,-125,4,2,77,60,0,0
88001,-125,4,2,78,30,0,0
89556,-125,4,2,77,5,0,0
89599,1061.94690265487,4,2,77,5,1,0
90660,777.705767984446,4,2,77,20,1,0
90660,-125,4,2,77,20,0,0
96881,-125,4,2,77,25,0,0
101547,789.473684210526,4,2,77,25,1,0
101547,-125,4,2,77,25,0,0
101941,768,4,2,77,25,1,0
102325,777.705767984446,4,2,77,25,1,0
102325,-125,4,2,77,25,0,0
103102,777.705767984446,4,2,77,30,1,0
103102,-125,4,2,77,30,0,0
112435,800,4,2,77,30,1,0
112435,-125,4,2,77,30,0,0
114035,761.904761904762,4,2,77,30,1,0
114035,-125,4,2,77,30,0,0
115558,777.705767984446,4,2,77,60,1,0
115558,-100,4,2,77,60,0,0
140444,759.493670886076,4,2,77,60,1,0
140444,-125,4,2,77,30,0,0
140633,769.230769230769,4,2,77,30,1,0
140633,-125,4,2,77,30,0,0
141789,821.917808219178,4,2,77,30,1,0
141789,-119.760479041916,4,2,77,30,0,0
141994,779.220779220779,4,2,78,30,1,0
141994,-125,4,2,78,30,0,0
145110,789.473684210526,4,2,77,30,1,0
145307,-100,4,2,78,30,0,0
145998,759.493670886076,4,2,77,30,1,0
145998,-125,4,2,77,30,0,0
146564,-125,4,2,77,5,0,0
146662,778.210116731518,4,2,77,30,1,0
146662,-125,4,2,77,30,0,0
148218,-125,4,2,78,30,0,0
149385,-125,4,2,77,30,0,0
151136,923.076923076923,4,2,77,30,1,0
151331,-125,4,2,77,30,0,0
151366,857.142857142857,4,2,77,30,1,0
151580,869.565217391304,4,2,77,30,1,0
151580,-125,4,2,78,30,0,0
152449,-125,4,2,77,5,0,0
152887,778.210116731518,4,2,77,30,1,0
152887,-125,4,2,77,30,0,0
154443,-125,4,2,78,30,0,0
155221,-125,4,2,77,30,0,0
157750,-125,4,2,78,30,0,0
158432,759.493670886076,4,2,77,30,1,0
158432,-125,4,2,77,30,0,0
158998,-125,4,2,77,5,0,0
159096,778.210116731518,4,2,77,30,1,0
159096,-125,4,2,77,30,0,0
160652,-125,4,2,78,30,0,0
161819,-125,4,2,77,30,0,0
163783,869.565217391304,4,2,77,30,1,0
164000,805.369127516779,4,2,77,30,1,0
164000,-125,4,2,78,30,0,0
164805,-125,4,2,77,5,0,0
165307,778.210116731518,4,2,77,30,1,0
165307,-125,4,2,77,30,0,0
175812,808.080808080808,4,2,77,30,1,0
175812,-125,4,2,77,30,0,0
176216,769.230769230769,4,2,77,30,1,0
176216,-125,4,2,78,30,0,0
178523,-125,4,2,78,5,0,0
179100,-125,4,2,77,5,0,0
179292,778.210116731518,4,2,77,50,1,0
179292,-100,4,2,79,50,0,0
180459,-100,4,2,77,50,0,0
181237,-100,4,2,77,70,0,0
182404,776.196636481242,4,2,77,70,1,1
182404,-90.9090909090909,4,2,77,70,0,1
190165,-90.9090909090909,4,2,77,70,0,1
190262,-90.9090909090909,4,2,77,60,0,1
191718,-90.9090909090909,4,2,77,70,0,1
202585,-125,4,2,77,60,0,0
202682,-125,4,2,77,30,0,0
204137,-125,4,2,77,30,0,0
208018,810.810810810811,4,2,77,30,1,0
208018,-125,4,2,77,30,0,0
208828,842.105263157895,4,2,77,30,1,0
208828,-125,4,2,77,30,0,0
209249,895.522388059701,4,2,77,30,1,0
209696,928.433268858801,4,2,77,30,1,0
209696,-125,4,2,77,30,0,0
210160,1008.40336134454,4,2,77,30,1,0
210664,916.030534351145,4,2,77,30,1,0
210664,-125,4,2,77,30,0,0
211122,-125,4,2,78,30,0,0
213412,-125,4,2,77,5,0,0

[Colours]
Combo1 : 17,254,176
Combo2 : 173,255,95
Combo3 : 255,88,100
Combo4 : 255,94,55
SliderBorder : 255,241,184

[HitObjects]
63,305,192,6,0,L|234:287,1,168,2|2,0:0|0:0,0:0:0:0:
320,323,1676,2,0,L|375:317,1,56,2|0,0:0|0:0,0:0:0:0:
449,256,2455,2,0,P|458:228|445:204,1,56,2|0,0:0|0:0,0:0:0:0:
459,165,3039,1,2,0:0:0:0:
459,165,3234,6,0,L|376:173,1,84,2|0,0:0|0:0,0:0:0:0:
282,183,4208,1,2,0:0:0:0:
133,197,4803,2,0,P|120:175|137:147,1,56,2|0,0:0|0:0,0:0:0:0:
196,82,5562,1,2,0:0:0:0:
196,82,5756,2,0,L|259:82,1,56,2|2,0:0|0:0,0:0:0:0:
289,104,6356,6,0,P|316:112|344:104,1,56,2|0,0:0|0:0,0:0:0:0:
414,166,7125,2,0,B|426:193|426:193|414:220,1,56,2|2,0:0|0:0,0:0:0:0:
434,312,7894,2,0,L|378:304,1,56,2|0,0:0|0:0,0:0:0:0:
287,333,8673,2,0,L|231:325,1,56,2|2,0:0|0:0,0:0:0:0:
140,354,9452,6,0,L|25:336,2,112,2|2|2,0:0|0:0|0:0,0:0:0:0:
231,325,11400,1,0,1:2:0:0:
322,354,11790,1,8,0:0:0:0:
413,325,12179,1,0,1:2:0:0:
509,302,12569,5,6,1:2:0:0:
509,302,12771,2,0,P|521:270|504:237,1,70,2|2,0:0|1:2,0:0:0:0:
512,192,13355,2,0,L|438:198,1,70,10|2,0:0|0:0,0:0:0:0:
395,203,13938,1,10,0:0:0:0:
348,209,14133,2,0,B|332:177|332:177|350:138,1,70,0|0,1:2|1:2,0:0:0:0:
372,44,14911,2,0,L|302:49,1,70,8|2,0:0|0:0,0:0:0:0:
207,95,15689,5,2,1:2:0:0:
207,95,15884,2,0,P|168:100|143:82,1,70,2|2,0:0|0:2,0:0:0:0:
112,118,16468,2,0,B|78:109|78:109|44:121,1,70,10|2,0:0|0:0,0:0:0:0:
51,167,17051,1,10,0:0:0:0:
57,213,17246,2,0,P|24:249|41:298,2,105,2|2|8,1:2|0:0|0:0,0:0:0:0:
163,230,18824,5,6,1:2:0:0:
163,230,19018,2,0,P|198:236|228:216,1,70,2|2,0:0|1:2,0:0:0:0:
271,229,19602,2,0,L|261:157,1,70,10|2,0:0|1:2,0:0:0:0:
295,127,20185,1,10,0:0:0:0:
331,97,20380,2,0,L|321:25,1,70,0|0,1:2|1:2,0:0:0:0:
421,61,21158,2,0,P|454:72|486:60,1,70,8|2,0:0|0:0,0:0:0:0:
505,164,21936,5,2,1:2:0:0:
505,164,22131,2,0,L|498:250,1,70,2|2,0:0|0:0,0:0:0:0:
511,279,22715,2,0,L|432:274,1,70,10|2,0:0|0:0,0:0:0:0:
419,316,23298,1,10,0:0:0:0:
393,355,23493,6,0,P|353:326|299:332,2,105,0|0|8,1:2|1:2|0:0,0:0:0:0:
495,327,25049,5,2,1:2:0:0:
495,327,25244,2,0,B|508:297|508:297|492:261,1,70,2|2,0:0|1:2,0:0:0:0:
496,215,25827,2,0,P|463:226|430:216,1,70,10|2,0:0|0:0,0:0:0:0:
386,234,26411,1,10,0:0:0:0:
341,216,26606,2,0,L|265:216,1,70,0|0,1:2|1:2,0:0:0:0:
181,272,27384,2,0,P|155:249|120:246,1,70,8|2,0:0|0:0,0:0:0:0:
44,174,28162,5,2,1:2:0:0:
44,174,28357,2,0,L|114:143,1,70,2|2,0:0|0:0,0:0:0:0:
117,99,28940,2,0,P|143:115|183:109,1,70,10|2,0:0|0:0,0:0:0:0:
222,132,29524,1,10,0:0:0:0:
263,153,29718,6,0,B|311:153|311:153|319:148|319:148|369:148,2,105,0|2|8,1:2|1:2|2:2,0:0:0:0:
155,270,31474,5,6,0:0:0:0:
155,270,31668,2,0,P|142:300|156:337,1,70,2|2,0:0|1:2,0:0:0:0:
187,365,32252,2,0,B|220:355|220:355|255:364,1,70,10|2,0:0|0:0,0:0:0:0:
300,355,32835,1,10,0:0:0:0:
346,345,33030,2,0,B|379:355|379:355|413:346,1,70,0|0,1:2|1:2,0:0:0:0:
512,382,33808,2,0,L|507:309,1,70,8|2,0:0|0:0,0:0:0:0:
437,234,34586,5,2,1:2:0:0:
437,234,34781,2,0,P|401:237|369:211,1,70,2|2,0:0|0:0,0:0:0:0:
331,240,35365,2,0,L|258:240,1,70,10|2,0:0|0:0,0:0:0:0:
219,263,35948,1,10,0:0:0:0:
176,284,36143,1,0,1:2:0:0:
176,284,36337,2,0,P|148:265|103:266,1,70,2|0,1:2|1:2,0:0:0:0:
66,273,36921,1,0,1:2:0:0:
185,99,37706,6,0,L|217:51,1,56,6|2,0:0|0:0,0:0:0:0:
313,93,38504,2,0,L|345:42,1,56,2|0,0:0|0:0,0:0:0:0:
442,87,39254,1,2,0:0:0:0:
442,87,39644,2,0,P|470:126|443:164,1,98,2|0,0:0|0:0,0:0:0:0:
464,258,40825,6,0,L|403:250,1,56,2|2,0:0|0:0,0:0:0:0:
321,211,41604,2,0,L|313:272,1,56,2|0,0:0|0:0,0:0:0:0:
302,361,42383,2,0,B|276:373|246:360|246:360|220:348|192:360,1,112,2|0,0:0|0:0,0:0:0:0:
130,179,43941,6,0,L|188:167,1,56,2|2,0:0|0:0,0:0:0:0:
271,207,44720,2,0,L|329:195,1,56,2|0,0:0|0:0,0:0:0:0:
412,235,45499,1,2,0:0:0:0:
412,235,45889,2,0,P|459:209|517:209,1,112,2|2,0:0|0:0,0:0:0:0:
487,118,47058,6,0,P|502:95|477:72,1,56,2|0,0:0|0:0,0:0:0:0:
506,36,47642,1,2,0:0:0:0:
506,36,47837,2,0,L|440:36,1,56,2|0,0:0|0:0,0:0:0:0:
360,69,48617,2,0,B|315:82|278:53|278:53|242:22|201:37,1,168,2|0,0:0|0:0,0:0:0:0:
182,80,49979,5,2,0:0:0:0:
162,121,50166,1,6,1:2:0:0:
325,328,51334,6,0,L|350:263,1,70,2|2,0:0|1:2,0:0:0:0:
384,164,52112,1,2,1:2:0:0:
186,55,52891,6,0,L|162:121,1,70,2|2,0:0|1:2,0:0:0:0:
128,220,53670,1,2,1:2:0:0:
92,319,54059,2,0,P|125:309|158:319,1,70,10|2,0:0|0:0,0:0:0:0:
197,293,54643,1,10,0:0:0:0:
197,293,54838,2,0,L|270:293,1,70,2|10,0:0|0:0,0:0:0:0:
364,334,55617,1,10,0:0:0:0:
413,242,56006,1,2,0:0:0:0:
316,201,56395,6,0,B|302:169|302:169|316:137,1,70,4|2,1:2|0:0,0:0:0:0:
343,98,56979,1,2,1:2:0:0:
343,98,57174,2,0,L|320:60,2,35,10|2|2,0:0|1:2|0:0,0:0:0:0:
235,109,57953,2,0,P|201:120|165:107,1,70,0|2,1:2|0:0,0:0:0:0:
124,126,58537,1,2,1:2:0:0:
124,126,58731,2,0,L|89:126,2,35,10|2|2,0:0|1:2|1:2,0:0:0:0:
117,232,59510,6,0,L|192:232,1,70,0|2,1:2|1:2,0:0:0:0:
226,258,60094,1,2,0:0:0:0:
266,282,60289,2,0,P|296:267|334:271,1,70,10|2,0:0|0:0,0:0:0:0:
431,237,61068,2,0,L|448:203,2,35,0|10|10,1:2|0:0|0:0,0:0:0:0:
474,332,61846,2,0,L|516:351,2,35,0|10|2,0:0|0:0|0:0,0:0:0:0:
378,367,62625,6,0,P|343:351|306:353,1,77.0000023498536,6|0,1:2|0:0,0:0:0:0:
258,368,63209,1,0,1:2:0:0:
210,355,63404,2,0,L|134:356,1,77.0000023498536,8|2,0:0|0:0,0:0:0:0:
63,269,64182,2,0,B|45:235|45:235|65:197,1,77.0000023498536,2|0,1:2|1:2,0:0:0:0:
55,89,64961,2,0,P|85:111|128:105,1,77.0000023498536,10|0,0:0|0:0,0:0:0:0:
166,129,65545,1,2,0:0:0:0:
210,148,65740,6,0,L|254:148,1,38.5000011749268,2|2,1:2|0:0,0:0:0:0:
329,224,66324,1,2,0:0:0:0:
420,157,66713,2,0,L|408:77,1,77.0000023498536,2|8,0:0|0:0,0:0:0:0:
438,42,67297,1,2,1:2:0:0:
326,36,67687,1,2,0:0:0:0:
214,33,68076,1,10,0:2:0:0:
214,33,68271,2,0,P|178:46|141:34,1,77.0000023498536,2|10,0:0|0:0,0:0:0:0:
111,72,68855,6,0,L|115:117,1,38.5000011749268,4|2,1:2|0:0,0:0:0:0:
79,145,69244,2,0,L|83:190,1,38.5000011749268,2|2,1:2|0:0,0:0:0:0:
50,220,69633,2,0,P|58:256|97:272,1,77.0000023498536,10|0,0:0|0:0,0:0:0:0:
186,334,70412,2,0,L|227:334,1,38.5000011749268,6|0,0:0|1:2,0:0:0:0:
265,360,70801,2,0,P|283:350|305:345,1,38.5000011749268,2|2,1:2|0:0,0:0:0:0:
327,304,71191,2,0,P|360:324|406:316,1,77.0000023498536,10|2,0:0|0:0,0:0:0:0:
417,210,71970,5,2,1:2:0:0:
324,146,72359,1,2,1:2:0:0:
218,184,72748,2,0,B|182:196|182:196|141:184,1,77.0000023498536,10|2,0:0|0:0,0:0:0:0:
36,214,73527,2,0,P|0:173|37:128,1,115.50000352478,2|0,0:0|1:2,0:0:0:0:
48,84,74306,2,0,L|106:95,1,38.5000011749268,8|0,0:0|1:2,0:0:0:0:
128,67,74695,1,0,1:2:0:0:
226,122,75084,6,0,L|310:137,1,77.0000023498536,6|0,1:2|0:0,0:0:0:0:
326,177,75668,1,0,1:2:0:0:
354,216,75863,2,0,P|382:195|429:196,1,77.0000023498536,8|2,0:0|0:0,0:0:0:0:
483,98,76642,2,0,P|443:101|412:73,1,77.0000023498536,2|0,1:2|1:2,0:0:0:0:
311,119,77421,2,0,B|273:107|273:107|234:122,1,77.0000023498536,10|0,0:0|0:0,0:0:0:0:
192,103,78005,1,2,0:0:0:0:
146,120,78199,6,0,L|104:120,1,38.5000011749268,2|2,1:2|0:0,0:0:0:0:
79,229,78783,1,2,0:0:0:0:
48,337,79173,2,0,P|82:323|128:328,1,77.0000023498536,2|8,0:0|0:0,0:0:0:0:
161,297,79757,1,2,1:2:0:0:
268,330,80146,1,2,0:0:0:0:
375,362,80535,1,10,0:0:0:0:
375,362,80730,2,0,P|390:325|371:294,1,77.0000023498536,2|10,0:0|0:0,0:0:0:0:
391,250,81314,6,0,B|328:274|278:235|278:235|230:196|173:220,1,231.000007049561,4|2,0:0|0:0,0:0:0:0:
98,138,82872,2,0,L|155:122,1,38.5000011749268,6|0,1:2|0:0,0:0:0:0:
154,82,83261,2,0,L|200:89,1,38.5000011749268,2|0,1:2|0:0,0:0:0:0:
229,56,83650,2,0,P|265:68|304:53,1,77.0000023498536,10|2,0:0|0:0,0:0:0:0:
399,110,84429,6,0,L|388:202,1,77.0000023498536,2|0,1:2|1:2,0:0:0:0:
436,289,85208,2,0,L|352:308,1,77.0000023498536,10|0,0:0|0:0,0:0:0:0:
280,384,85986,1,6,1:2:0:0:
231,282,86376,1,2,0:0:0:0:
125,242,86765,1,6,0:0:0:0:
13,259,87154,1,2,0:0:0:0:
25,140,87544,6,0,L|30:99,1,38.5000011749268,2|0,0:0|0:0,0:0:0:0:
26,56,87909,2,0,P|127:91|212:20,1,224,2|0,0:0|0:0,0:0:0:0:
427,135,90660,6,0,L|443:191,1,56,0|2,0:0|0:0,0:0:0:0:
358,234,91437,2,0,L|379:304,1,56,2|0,0:0|0:0,0:0:0:0:
278,285,92215,2,0,L|223:285,1,56,2|0,0:0|0:0,0:0:0:0:
137,328,92993,2,0,L|67:328,1,56,2|0,0:0|0:0,0:0:0:0:
27,249,93770,6,0,P|8:213|27:176,2,84,0|2|2,0:0|0:0|0:0,0:0:0:0:
21,257,95715,1,2,0:0:0:0:
115,250,96103,1,2,0:0:0:0:
210,244,96492,1,2,0:0:0:0:
302,266,96881,6,0,P|310:239|297:211,1,56,0|2,0:0|0:0,0:0:0:0:
210,244,97659,2,0,P|202:271|215:299,1,56,2|0,0:0|0:0,0:0:0:0:
282,360,98437,2,0,L|341:353,1,56,2|0,0:0|0:0,0:0:0:0:
432,360,99214,2,0,L|491:353,1,56,2|2,0:0|0:0,0:0:0:0:
456,263,99992,6,0,L|444:178,2,84,2|2|2,0:0|0:0|0:0,0:0:0:0:
462,271,101941,1,2,0:0:0:0:
380,309,102325,1,2,0:0:0:0:
287,285,102713,1,2,0:0:0:0:
254,195,103102,6,0,L|259:137,1,56,0|2,0:0|0:0,0:0:0:0:
171,99,103879,2,0,L|164:162,1,56,2|0,0:0|0:0,0:0:0:0:
102,226,104657,2,0,P|74:220|45:229,1,56,2|0,0:0|0:0,0:0:0:0:
50,322,105435,2,0,P|78:328|107:319,1,56,2|0,0:0|0:0,0:0:0:0:
187,275,106212,6,0,B|225:275|225:275|235:281|235:281|274:282,2,84,0|2|2,0:0|0:0|0:0,0:0:0:0:
178,281,108157,1,2,0:0:0:0:
199,188,108545,1,2,0:0:0:0:
221,95,108934,1,2,0:0:0:0:
128,116,109323,6,0,P|115:91|134:63,1,56,0|2,0:0|0:0,0:0:0:0:
221,95,110101,2,0,L|279:95,1,56,2|0,0:0|0:0,0:0:0:0:
366,60,110879,2,0,L|377:126,1,56,2|0,0:0|0:0,0:0:0:0:
354,208,111656,2,0,L|412:208,1,56,2|2,0:0|0:0,0:0:0:0:
458,293,112435,6,0,P|497:289|519:250,2,84,2|2|2,0:0|0:0|0:0,0:0:0:0:
385,361,114035,2,0,B|344:361|344:361|303:361|309:334|264:334|264:334|218:334,1,168,2|0,0:0|0:0,0:0:0:0:
130,377,115558,6,0,L|122:304,1,70,6|2,1:2|0:0,0:0:0:0:
91,271,116141,1,0,1:2:0:0:
91,271,116335,2,0,L|83:198,1,70,10|2,0:0|0:0,0:0:0:0:
189,217,117113,2,0,P|222:228|257:215,1,70,2|2,1:2|1:2,0:0:0:0:
298,234,117696,1,0,0:2:0:0:
342,248,117891,2,0,L|414:248,1,70,10|2,0:0|0:0,0:0:0:0:
487,171,118668,6,0,B|511:124|511:124|478:73,1,105,6|2,1:2|0:0,0:0:0:0:
499,36,119446,2,0,B|475:46|449:30|449:30|423:14|394:24,1,105,4|8,1:2|0:0,0:0:0:0:
356,2,120224,1,0,1:2:0:0:
346,108,120613,1,2,0:0:0:0:
336,214,121001,2,0,L|327:297,1,70,10|2,0:0|0:0,0:0:0:0:
223,277,121779,6,0,B|203:293|203:293|157:293,1,70,2|2,1:2|0:0,0:0:0:0:
130,331,122362,1,0,1:2:0:0:
130,331,122557,2,0,B|110:315|110:315|65:315,1,70,10|2,0:0|0:0,0:0:0:0:
10,224,123335,2,0,P|47:228|77:201,1,70,2|2,1:2|1:2,0:0:0:0:
118,221,123918,1,0,0:3:0:0:
164,210,124112,2,0,P|150:178|164:145,1,70,10|2,0:0|0:0,0:0:0:0:
267,169,124890,6,0,B|280:136|280:136|262:105,1,70,2|0,1:2|0:0,0:0:0:0:
275,60,125473,2,0,P|239:63|211:42,1,70,2|0,0:0|0:0,0:0:0:0:
168,62,126057,2,0,L|93:62,1,70,2|0,0:0|1:2,0:0:0:0:
34,146,126834,1,2,0:0:0:0:
114,213,127223,1,8,0:0:0:0:
34,281,127612,1,2,0:0:0:0:
91,369,128001,6,0,P|119:349|157:350,1,70,6|2,1:2|0:0,0:0:0:0:
185,313,128584,1,0,1:2:0:0:
185,313,128778,2,0,P|215:332|248:328,1,70,8|2,0:0|0:0,0:0:0:0:
317,248,129556,2,0,L|309:173,1,70,0|2,1:2|1:2,0:0:0:0:
275,144,130139,1,0,0:0:0:0:
242,109,130334,2,0,L|234:34,1,70,8|2,0:0|0:0,0:0:0:0:
338,61,131112,6,0,B|371:72|371:72|404:61,1,70,0|2,1:2|1:2,0:0:0:0:
445,38,131695,2,0,L|457:108,1,70,2|0,0:0|0:0,0:0:0:0:
490,140,132278,2,0,P|452:155|434:186,1,70,2|0,0:0|1:2,0:0:0:0:
347,234,133056,1,2,0:0:0:0:
242,240,133445,1,10,0:0:0:0:
161,172,133834,1,2,0:0:0:0:
139,69,134222,6,0,L|57:74,1,70,0|2,1:2|0:0,0:0:0:0:
23,60,134806,1,0,1:2:0:0:
23,60,135000,2,0,P|35:97|20:128,1,70,8|2,0:0|0:0,0:0:0:0:
97,200,135778,2,0,P|84:232|96:264,1,70,0|2,1:2|1:2,0:0:0:0:
143,256,136361,1,0,0:0:0:0:
190,249,136556,2,0,B|227:249|227:249|255:269,1,70,8|2,0:0|0:0,0:0:0:0:
349,223,137333,6,0,L|430:223,1,70,2|0,1:2|1:2,0:0:0:0:
464,235,137917,2,0,P|492:219|505:183,1,70,2|0,0:0|0:0,0:0:0:0:
489,140,138500,2,0,L|489:70,1,70,2|0,0:0|1:2,0:0:0:0:
390,34,139278,1,2,0:0:0:0:
352,131,139666,1,8,0:0:0:0:
451,167,140055,1,2,0:0:0:0:
422,270,140444,5,6,0:0:0:0:
422,270,140633,2,0,L|407:327,1,56,2|0,0:0|0:0,0:0:0:0:
414,365,141209,2,0,B|383:358|383:358|353:366,1,56,2|0,0:0|0:0,0:0:0:0:
312,348,141789,2,0,B|281:365|245:348|245:348|213:332|178:348,1,140,2|0,0:0|0:0,0:0:0:0:
102,292,143162,1,2,0:0:0:0:
28,240,143552,5,2,0:0:0:0:
28,240,143747,2,0,P|16:215|32:188,1,56,2|0,0:0|0:0,0:0:0:0:
15,151,144331,2,0,L|77:151,1,56,2|0,0:0|0:0,0:0:0:0:
185,181,145110,2,0,B|233:181|233:181|260:190|260:190|286:181|286:181|339:181,1,157.5,0|2,0:0|0:0,0:0:0:0:
472,284,146662,5,2,0:0:0:0:
472,284,146856,2,0,L|413:284,1,56,2|0,0:0|0:0,0:0:0:0:
379,305,147440,2,0,L|324:305,1,56,2|2,0:0|0:0,0:0:0:0:
288,329,148023,2,0,P|241:281|172:293,1,140,0|0,0:0|0:0,0:0:0:0:
192,196,149385,1,2,0:0:0:0:
211,106,149774,5,2,0:0:0:0:
211,106,149969,2,0,L|273:106,1,56,2|0,0:0|0:0,0:0:0:0:
305,123,150553,2,0,B|337:128|356:102,1,56,2|2,0:0|0:0,0:0:0:0:
398,104,151136,1,0,0:0:0:0:
411,203,151580,2,0,L|428:320,1,112,2|0,0:0|0:0,0:0:0:0:
333,367,152887,5,2,0:0:0:0:
333,367,153081,2,0,P|302:359|305:328,1,56,2|0,0:0|0:0,0:0:0:0:
273,304,153665,2,0,B|283:276|283:276|270:249,1,56,2|0,0:0|0:0,0:0:0:0:
295,218,154248,2,0,P|228:227|188:175,1,140,2|0,0:0|0:0,0:0:0:0:
105,224,155610,1,2,0:0:0:0:
125,318,155999,5,2,0:0:0:0:
125,318,156194,2,0,L|190:313,1,56,2|0,0:0|0:0,0:0:0:0:
215,336,156778,2,0,L|280:331,1,56,2|0,0:0|0:0,0:0:0:0:
362,364,157556,2,0,P|423:349|431:291,1,126,0|2,0:0|0:0,0:0:0:0:
481,136,159096,5,2,0:0:0:0:
481,136,159290,2,0,L|423:122,1,56,2|0,0:0|0:0,0:0:0:0:
404,87,159874,2,0,P|382:107|352:109,1,56,2|2,0:0|0:0,0:0:0:0:
335,145,160457,2,0,B|302:119|269:130|269:130|236:142|203:115,1,140,0|0,0:0|0:0,0:0:0:0:
139,186,161819,1,2,0:0:0:0:
53,143,162208,5,2,0:0:0:0:
53,143,162403,2,0,B|39:120|39:120|51:94,1,56,2|0,0:0|0:0,0:0:0:0:
42,52,162987,2,0,L|115:52,1,56,2|2,0:0|0:0,0:0:0:0:
106,11,163570,1,0,0:0:0:0:
205,36,164000,2,0,B|255:36|255:36|266:41|266:41|320:41,1,112,2|0,0:0|0:0,0:0:0:0:
416,117,165307,6,0,P|393:166|332:160,1,112,2|2,0:0|0:0,0:0:0:0:
352,261,166474,1,0,0:0:0:0:
277,320,166863,2,0,P|234:288|178:295,1,112,2|2,0:0|0:0,0:0:0:0:
94,249,168030,1,0,0:0:0:0:
10,202,168419,6,0,L|46:150,1,56,2|0,0:0|0:0,0:0:0:0:
74,66,169198,2,0,L|128:104,1,56,2|0,0:0|0:0,0:0:0:0:
203,53,169976,2,0,P|255:73|306:53,1,112,2|0,0:0|0:0,0:0:0:0:
454,171,171532,6,0,P|468:145|449:124,1,56,2|0,0:0|0:0,0:0:0:0:
361,148,172310,2,0,L|302:148,1,56,2|0,0:0|0:0,0:0:0:0:
213,122,173089,2,0,P|181:161|217:200,1,112,2|0,0:0|0:0,0:0:0:0:
153,379,174645,6,0,P|190:346|254:358,1,112,2|2,0:0|0:0,0:0:0:0:
340,331,175812,1,0,0:0:0:0:
434,307,176216,2,0,B|390:62|390:62|411:104|444:136,1,336,2|0,0:0|0:0,0:0:0:0:
194,121,179292,5,6,0:0:0:0:
194,121,180459,1,2,0:0:0:0:
111,185,180848,2,0,L|130:258,1,70,6|8,0:0|0:0,0:0:0:0:
121,299,181432,1,0,1:2:0:0:
110,344,181626,2,0,P|141:331|185:337,1,70,10|0,0:0|1:2,0:0:0:0:
220,350,182210,1,10,0:0:0:0:
264,334,182404,6,0,L|317:334,1,38.5000011749268,6|2,1:2|0:0,0:0:0:0:
410,368,182986,1,2,0:0:0:0:
492,292,183374,2,0,P|508:255|486:221,1,77.0000023498536,2|8,0:0|0:0,0:0:0:0:
504,179,183956,1,2,1:2:0:0:
394,202,184344,1,2,0:0:0:0:
284,227,184732,1,10,0:0:0:0:
284,227,184926,2,0,L|206:227,1,77.0000023498536,2|8,0:0|0:0,0:0:0:0:
162,243,185508,6,0,L|157:205,1,38.5000011749268,4|2,1:2|0:0,0:0:0:0:
113,186,185896,2,0,L|108:148,1,38.5000011749268,2|2,0:0|1:2,0:0:0:0:
73,114,186284,2,0,P|88:77|71:46,1,77.0000023498536,10|0,0:0|1:2,0:0:0:0:
178,17,187061,2,0,L|216:17,1,38.5000011749268,2|0,1:2|0:0,0:0:0:0:
261,1,187449,2,0,L|272:47,1,38.5000011749268,2|2,1:2|0:0,0:0:0:0:
281,84,187837,2,0,P|309:63|350:63,1,77.0000023498536,10|2,0:0|0:0,0:0:0:0:
459,39,188613,5,2,1:2:0:0:
457,151,189001,1,2,1:2:0:0:
454,262,189389,2,0,B|430:242|430:242|383:242,1,77.0000023498536,10|2,0:0|0:0,0:0:0:0:
281,288,190165,2,0,B|253:301|225:282|225:282|199:264|170:274,1,115.50000352478,2|0,1:2|0:0,0:0:0:0:
129,251,190942,2,0,B|108:257|108:257|86:250,1,38.5000011749268,0|0,0:0|1:2,0:0:0:0:
51,276,191330,1,0,0:0:0:0:
16,382,191718,6,0,L|96:382,1,77.0000023498536,6|0,1:2|0:0,0:0:0:0:
137,363,192300,1,0,1:2:0:0:
181,345,192494,2,0,P|217:356|254:342,1,77.0000023498536,8|2,0:0|0:0,0:0:0:0:
365,344,193270,2,0,P|341:318|364:292,1,77.0000023498536,2|0,1:2|1:2,0:0:0:0:
466,241,194046,2,0,B|487:206|487:206|462:177,1,77.0000023498536,10|0,0:0|0:0,0:0:0:0:
416,188,194629,1,2,0:0:0:0:
369,197,194823,6,0,L|321:197,1,38.5000011749268,2|2,1:2|0:0,0:0:0:0:
237,260,195405,1,2,0:0:0:0:
144,323,195793,2,0,P|115:298|75:297,1,77.0000023498536,2|10,0:0|0:0,0:0:0:0:
32,312,196375,1,2,1:2:0:0:
56,203,196763,1,2,0:0:0:0:
83,95,197151,1,10,0:0:0:0:
83,95,197345,2,0,L|164:95,1,77.0000023498536,2|10,0:0|0:0,0:0:0:0:
193,60,197927,6,0,L|226:83,1,38.5000011749268,4|2,1:2|0:0,0:0:0:0:
268,60,198316,2,0,L|301:83,1,38.5000011749268,2|2,0:0|1:2,0:0:0:0:
342,60,198704,2,0,P|376:71|416:58,1,77.0000023498536,10|0,0:0|1:2,0:0:0:0:
498,133,199480,2,0,B|507:151|507:151|498:172,1,38.5000011749268,6|0,1:2|0:0,0:0:0:0:
459,192,199868,2,0,L|411:192,1,38.5000011749268,2|2,1:2|0:0,0:0:0:0:
396,233,200256,2,0,P|366:210|326:209,1,77.0000023498536,10|2,0:0|0:0,0:0:0:0:
219,237,201032,6,0,L|229:145,1,77.0000023498536,2|0,1:2|1:2,0:0:0:0:
266,55,201808,2,0,P|229:69|193:54,1,77.0000023498536,10|0,0:0|0:0,0:0:0:0:
92,96,202585,6,0,L|34:96,1,56,6|0,0:0|0:0,0:0:0:0:
36,191,203361,2,0,L|101:191,1,56,2|2,0:0|0:0,0:0:0:0:
166,268,204137,6,0,P|203:233|263:234,1,112,2|2,0:0|0:0,0:0:0:0:
327,165,205301,1,0,0:0:0:0:
408,215,205689,2,0,L|472:209,1,56,2|0,0:0|0:0,0:0:0:0:
476,304,206466,2,0,L|412:310,1,56,2|2,0:0|0:0,0:0:0:0:
351,374,207242,6,0,P|304:343|245:348,1,112,2|2,0:0|0:0,0:0:0:0:
187,275,208423,1,0,0:0:0:0:
124,202,208828,2,0,L|134:133,1,56,2|0,0:0|0:0,0:0:0:0:
39,135,209696,2,0,L|30:202,1,56,2|2,0:0|0:0,0:0:0:0:
0,289,210664,6,0,P|7:300|26:304,1,28,2|0,0:0|0:0,0:0:0:0:
3,339,211122,2,0,B|62:304|127:354|127:354|193:403|264:370,1,280,2|0,0:0|0:0,0:0:0:0:
