osu file format v14

[General]
AudioFilename: audio.mp3
AudioLeadIn: 0
PreviewTime: 179194
Countdown: 0
SampleSet: Soft
StackLeniency: 0.4
Mode: 0
LetterboxInBreaks: 0
WidescreenStoryboard: 1

[Editor]
Bookmarks: 78783
DistanceSpacing: 0.9
BeatDivisor: 4
GridSize: 32
TimelineZoom: 1.5

[Metadata]
Title:Lucky Girl (Arranged Ver.)
TitleUnicode:Lucky Girl (Arranged Ver.)
Artist:tieff
ArtistUnicode:tieff
Creator:Niva
Version:hard
Source:
Tags:featured artist tieffsound qeeqqe ScissormanIsLove melodic beat Noffy
BeatmapID:2296927
BeatmapSetID:1080427

[Difficulty]
HPDrainRate:6
CircleSize:4.2
OverallDifficulty:6
ApproachRate:7.8
SliderMultiplier:1.4
SliderTickRate:1

[Events]
//Background and Video events
0,0,"2500935.jpg",0,0
//Break Periods
//Storyboard Layer 0 (Background)
//Storyboard Layer 1 (Fail)
//Storyboard Layer 2 (Pass)
//Storyboard Layer 3 (Foreground)
//Storyboard Layer 4 (Overlay)
//Storyboard Sound Samples

[TimingPoints]
192,722.89156626506,4,2,78,30,1,0
192,-125,4,2,78,30,0,0
1276,800,4,2,77,30,1,0
1676,779.220779220779,4,2,77,30,1,0
1676,-125,4,2,77,30,0,0
4208,793.388429752066,4,2,77,30,1,0
4208,-125,4,2,77,30,0,0
4803,759.493670886076,4,2,77,30,1,0
5562,779.220779220779,4,2,77,30,1,0
5756,800,4,2,77,30,1,0
5756,-125,4,2,77,30,0,0
6356,769.230769230769,4,2,77,30,1,0
6356,-125,4,2,77,30,0,0
7894,779.220779220779,4,2,77,30,1,0
7894,-125,4,2,77,30,0,0
11400,-76.9230769230769,4,2,77,50,0,0
12179,-76.9230769230769,4,2,77,55,0,0
12577,778.210116731518,4,2,77,60,1,0
12577,-76.9230769230769,4,2,77,60,0,0
14717,-76.9230769230769,4,2,78,60,0,0
14911,-76.9230769230769,4,2,77,60,0,0
16273,-76.9230769230769,4,2,78,60,0,0
16468,-76.9230769230769,4,2,77,60,0,0
17246,789.473684210526,4,2,77,60,1,0
17246,-76.9230769230769,4,2,77,60,0,0
18824,778.210116731518,4,2,77,60,1,0
18824,-76.9230769230769,4,2,77,60,0,0
23493,-100,4,2,77,50,0,0
25049,-76.9230769230769,4,2,77,60,0,0
29718,780.741704619388,4,2,77,60,1,0
29718,-76.9230769230769,4,2,77,60,0,0
31474,778.210116731518,4,2,77,60,1,0
31474,-76.9230769230769,4,2,77,60,0,0
33614,-76.9230769230769,4,2,78,60,0,0
33808,-76.9230769230769,4,2,77,60,0,0
35170,-76.9230769230769,4,2,78,60,0,0
35365,-76.9230769230769,4,2,77,60,0,0
36143,-76.9230769230769,4,2,77,50,0,0
37706,750,4,2,77,50,1,0
37706,-125,4,2,77,50,0,0
37799,-125,4,2,77,30,0,0
38081,790.774299835255,4,2,77,30,1,0
38504,722.89156626506,4,2,77,30,1,0
38504,-125,4,2,77,30,0,0
38865,779.220779220779,4,2,77,30,1,0
38865,-125,4,2,77,30,0,0
39644,869.565217391304,4,2,77,30,1,0
39644,-113.636363636364,4,2,77,30,0,0
40078,714.285714285714,4,2,77,30,1,0
40435,781.758957654723,4,2,77,30,1,0
40825,779.220779220779,4,2,77,30,1,0
40825,-125,4,2,77,30,0,0
49979,764.331210191083,4,2,77,60,1,0
50166,778.715120051914,4,2,77,60,1,0
50166,-76.9230769230769,4,2,77,60,0,0
56785,-76.9230769230769,4,2,77,60,0,0
56833,-76.9230769230769,4,2,77,5,0,0
56979,-76.9230769230769,4,2,77,60,0,0
57028,-76.9230769230769,4,2,77,5,0,0
57174,-76.9230769230769,4,2,77,60,0,0
57223,-76.9230769230769,4,2,77,5,0,0
57369,-76.9230769230769,4,2,77,60,0,0
57417,-76.9230769230769,4,2,77,5,0,0
57563,-76.9230769230769,4,2,77,60,0,0
57612,-76.9230769230769,4,2,77,5,0,0
57758,-76.9230769230769,4,2,77,60,0,0
57807,-76.9230769230769,4,2,77,5,0,0
57953,-76.9230769230769,4,2,77,60,0,0
58342,-76.9230769230769,4,2,77,60,0,0
58391,-76.9230769230769,4,2,77,5,0,0
58537,-76.9230769230769,4,2,77,60,0,0
58585,-76.9230769230769,4,2,77,5,0,0
58731,-76.9230769230769,4,2,77,60,0,0
58780,-76.9230769230769,4,2,77,5,0,0
58926,-76.9230769230769,4,2,77,60,0,0
58975,-76.9230769230769,4,2,77,5,0,0
59121,-76.9230769230769,4,2,77,60,0,0
59169,-76.9230769230769,4,2,77,5,0,0
59315,-76.9230769230769,4,2,77,60,0,0
59364,-76.9230769230769,4,2,77,5,0,0
59510,-76.9230769230769,4,2,77,60,0,0
60094,-76.9230769230769,4,2,78,60,0,0
60289,-76.9230769230769,4,2,77,60,0,0
61262,-76.9230769230769,4,2,77,60,0,0
61311,-76.9230769230769,4,2,77,5,0,0
61457,-76.9230769230769,4,2,77,60,0,0
61506,-76.9230769230769,4,2,77,5,0,0
61652,-76.9230769230769,4,2,77,60,0,0
61700,-76.9230769230769,4,2,77,5,0,0
61846,-76.9230769230769,4,2,77,60,0,0
62041,-76.9230769230769,4,2,77,60,0,0
62090,-76.9230769230769,4,2,77,5,0,0
62236,-76.9230769230769,4,2,77,60,0,0
62284,-76.9230769230769,4,2,77,5,0,0
62430,-76.9230769230769,4,2,77,60,0,0
62479,-76.9230769230769,4,2,77,5,0,0
62625,-68.9655172413793,4,2,77,70,0,1
73527,-100,4,2,77,70,0,1
73624,-100,4,2,77,60,0,1
75084,-68.9655172413793,4,2,77,70,0,1
81314,-100,4,2,77,50,0,1
81411,-100,4,2,77,30,0,1
82482,-100,4,2,77,50,0,1
82677,-100,4,2,77,60,0,1
82872,-68.9655172413793,4,2,77,70,0,1
85986,-68.9655172413793,4,2,77,60,0,1
87544,731.707317073171,4,2,77,60,1,0
87909,845.070422535211,4,2,77,60,1,0
87909,-125,4,2,77,60,0,0
88001,-125,4,2,78,30,0,0
89599,1061.94690265487,4,2,77,5,1,0
90660,777.705767984446,4,2,77,20,1,0
90660,-125,4,2,77,20,0,0
96881,-125,4,2,77,25,0,0
101547,789.473684210526,4,2,77,25,1,0
101547,-125,4,2,77,25,0,0
101941,768,4,2,77,25,1,0
102325,777.705767984446,4,2,77,25,1,0
102325,-125,4,2,77,25,0,0
103102,777.705767984446,4,2,77,30,1,0
103102,-125,4,2,77,30,0,0
112435,800,4,2,77,30,1,0
114035,761.904761904762,4,2,77,30,1,0
114035,-125,4,2,77,30,0,0
115558,777.705767984446,4,2,77,60,1,0
115558,-76.9230769230769,4,2,77,60,0,0
140444,759.493670886076,4,2,77,60,1,0
140444,-125,4,2,77,30,0,0
140633,769.230769230769,4,2,77,30,1,0
140633,-125,4,2,77,30,0,0
141789,821.917808219178,4,2,77,30,1,0
141994,779.220779220779,4,2,77,30,1,0
141994,-125,4,2,77,30,0,0
145110,789.473684210526,4,2,77,30,1,0
145998,759.493670886076,4,2,77,30,1,0
145998,-125,4,2,77,30,0,0
146564,-125,4,2,77,5,0,0
146662,778.210116731518,4,2,77,30,1,0
146662,-125,4,2,77,30,0,0
151136,923.076923076923,4,2,77,30,1,0
151331,-125,4,2,77,30,0,0
151366,857.142857142857,4,2,77,30,1,0
151580,869.565217391304,4,2,77,30,1,0
151580,-125,4,2,78,30,0,0
152449,-125,4,2,77,5,0,0
152887,778.210116731518,4,2,77,30,1,0
152887,-125,4,2,77,30,0,0
158432,759.493670886076,4,2,77,30,1,0
158432,-125,4,2,77,30,0,0
158998,-125,4,2,77,5,0,0
159096,778.210116731518,4,2,77,30,1,0
159096,-125,4,2,77,30,0,0
163783,869.565217391304,4,2,77,30,1,0
164000,805.369127516779,4,2,77,30,1,0
164000,-125,4,2,78,30,0,0
164805,-125,4,2,77,5,0,0
165307,778.210116731518,4,2,77,30,1,0
165307,-125,4,2,77,30,0,0
175812,808.080808080808,4,2,77,30,1,0
176216,769.230769230769,4,2,77,30,1,0
176216,-166.666666666667,4,2,78,30,0,0
179100,-166.666666666667,4,2,77,5,0,0
179292,778.210116731518,4,2,77,50,1,0
179292,-76.9230769230769,4,2,79,50,0,0
180459,-76.9230769230769,4,2,77,50,0,0
181237,-76.9230769230769,4,2,77,70,0,0
182404,776.196636481242,4,2,77,70,1,1
182404,-68.9655172413793,4,2,77,70,0,1
190165,-100,4,2,77,70,0,1
190262,-100,4,2,77,60,0,1
191718,-68.9655172413793,4,2,77,70,0,1
202585,-125,4,2,77,60,0,0
202682,-125,4,2,77,30,0,0
204137,-125,4,2,77,30,0,0
208018,810.810810810811,4,2,77,30,1,0
208018,-125,4,2,77,30,0,0
208828,842.105263157895,4,2,77,30,1,0
208828,-125,4,2,77,30,0,0
209249,895.522388059701,4,2,77,30,1,0
209696,928.433268858801,4,2,77,30,1,0
209696,-125,4,2,77,30,0,0
210160,1008.40336134454,4,2,77,30,1,0
210664,916.030534351145,4,2,77,30,1,0
210664,-125,4,2,77,30,0,0
211122,-125,4,2,78,30,0,0
213412,-125,4,2,77,5,0,0

[Colours]
Combo1 : 17,254,176
Combo2 : 173,255,95
Combo3 : 255,88,100
Combo4 : 255,94,55
SliderBorder : 255,241,184

[HitObjects]
379,348,192,6,0,P|447:358|487:306,1,140,2|0,0:0|0:0,0:0:0:0:
453,223,1276,1,2,0:0:0:0:
453,223,1676,6,0,L|460:287,1,56,2|0,0:0|0:0,0:0:0:0:
328,257,2455,2,0,L|262:257,1,56,2|0,0:0|0:0,0:0:0:0:
193,270,3039,2,0,L|198:232,1,28,2|2,0:0|0:0,0:0:0:0:
117,257,3429,2,0,L|55:257,1,56,2|0,0:0|0:0,0:0:0:0:
16,147,4208,2,0,B|5:122|5:122|17:94,1,56,2|0,0:0|0:0,0:0:0:0:
0,66,4803,5,2,0:0:0:0:
129,86,5182,1,0,0:0:0:0:
258,107,5562,1,2,0:0:0:0:
258,107,5756,2,0,L|322:104,1,56,2|2,0:0|0:0,0:0:0:0:
408,81,6356,6,0,L|412:122,1,28,2|0,0:0|0:0,0:0:0:0:
457,172,6740,2,0,L|461:209,1,28,2|2,0:0|0:0,0:0:0:0:
512,259,7125,2,0,P|523:284|511:308,1,56,2|2,0:0|0:0,0:0:0:0:
362,347,7894,6,0,L|404:335,1,28,2|0,0:0|0:0,0:0:0:0:
300,301,8283,2,0,L|316:275,1,28,2|2,0:0|0:0,0:0:0:0:
224,278,8673,2,0,L|229:214,1,56,2|2,0:0|0:0,0:0:0:0:
236,61,9452,5,2,0:0:0:0:
327,114,9842,1,2,0:0:0:0:
361,217,10231,1,2,0:0:0:0:
320,324,10621,1,2,0:0:0:0:
202,374,11010,1,2,0:0:0:0:
189,362,11400,6,0,L|284:358,1,90.9999958343508,0|8,1:2|0:0,0:0:0:0:
374,338,11984,1,8,0:0:0:0:
280,316,12179,2,0,B|271:339|271:339|281:361,1,45.4999979171754,0|8,1:2|0:0,0:0:0:0:
340,225,12569,5,6,1:2:0:0:
340,225,12771,2,0,P|295:234|257:211,1,90.9999958343508,2|2,0:0|1:2,0:0:0:0:
182,263,13355,2,0,P|221:241|266:243,1,90.9999958343508,10|2,0:0|0:0,0:0:0:0:
118,203,13938,1,10,0:0:0:0:
33,236,14133,6,0,L|-13:236,1,45.4999979171754,0|0,1:2|0:0,0:0:0:0:
118,203,14522,2,0,L|81:164,1,45.4999979171754,0|0,1:2|0:3,0:0:0:0:
201,175,14911,2,0,P|245:178|280:149,1,90.9999958343508,8|2,0:0|0:0,0:0:0:0:
319,318,15689,5,2,1:2:0:0:
319,318,15884,2,0,B|383:387,1,90.9999958343508,2|2,0:0|0:2,0:0:0:0:
467,354,16468,2,0,P|499:345|462:337,1,90.9999958343508,10|2,0:0|0:0,0:0:0:0:
375,345,17051,1,10,0:0:0:0:
269,362,17246,6,0,L|193:351,2,68.2499968757631,2|2|2,1:2|0:0|0:0,0:0:0:0:
121,338,18134,2,0,P|176:341|239:310,1,113.749994792938,2|0,0:0|0:0,0:0:0:0:
344,348,18824,5,6,1:2:0:0:
344,348,19018,2,0,B|383:348|383:348|396:355|396:355|441:355,1,90.9999958343508,2|2,0:0|1:2,0:0:0:0:
496,294,19602,2,0,P|511:276|506:255,1,45.4999979171754,10|0,0:0|0:0,0:0:0:0:
416,274,19991,2,0,P|412:252|426:235,1,45.4999979171754,2|10,1:2|0:0,0:0:0:0:
303,233,20380,6,0,L|256:226,1,45.4999979171754,0|0,1:2|0:0,0:0:0:0:
179,266,20769,2,0,L|133:259,1,45.4999979171754,0|0,1:2|0:0,0:0:0:0:
50,290,21158,2,0,P|8:285|-11:244,1,90.9999958343508,8|2,0:0|0:0,0:0:0:0:
87,49,21936,5,2,1:2:0:0:
87,49,22131,2,0,L|97:151,1,90.9999958343508,2|2,0:0|0:0,0:0:0:0:
81,221,22715,2,0,L|131:218,1,45.4999979171754,10|0,0:0|0:0,0:0:0:0:
89,299,23104,2,0,L|139:296,1,45.4999979171754,2|10,0:0|0:0,0:0:0:0:
230,250,23493,5,0,1:2:0:0:
230,250,23687,2,0,L|303:245,2,70,2|0|0,1:2|1:2|1:2,0:0:0:0:
148,255,24660,1,8,0:0:0:0:
333,366,25049,5,2,1:2:0:0:
333,366,25244,2,0,P|368:342|419:345,1,90.9999958343508,2|2,0:0|1:2,0:0:0:0:
441,257,25827,2,0,P|470:236|462:268,1,90.9999958343508,10|2,0:0|0:0,0:0:0:0:
415,343,26411,1,10,0:0:0:0:
337,248,26606,6,0,L|305:207,1,45.4999979171754,0|0,1:2|0:0,0:0:0:0:
335,129,26995,2,0,L|377:103,1,45.4999979171754,0|0,1:2|0:0,0:0:0:0:
245,125,27384,2,0,L|186:52,1,90.9999958343508,8|2,0:0|0:0,0:0:0:0:
0,155,28162,5,2,1:2:0:0:
0,155,28357,2,0,P|34:183|76:173,1,90.9999958343508,2|2,0:0|0:0,0:0:0:0:
175,198,28940,2,0,L|84:203,1,90.9999958343508,10|2,0:0|0:0,0:0:0:0:
123,108,29524,1,10,0:0:0:0:
234,127,29718,6,0,L|305:123,2,68.2499968757631,0|10|2,1:2|0:0|1:2,0:0:0:0:
135,55,30596,2,0,L|129:-14,2,68.2499968757631,10|8|0,2:2|2:2|1:2,0:0:0:0:
20,136,31474,5,6,0:0:0:0:
20,136,31668,2,0,P|0:177|23:215,1,90.9999958343508,2|2,0:0|1:2,0:0:0:0:
104,232,32252,2,0,B|113:209|113:209|99:184,1,45.4999979171754,10|0,0:0|0:0,0:0:0:0:
13,242,32641,2,0,B|4:265|4:265|18:290,1,45.4999979171754,2|10,0:0|0:0,0:0:0:0:
5,383,33030,6,0,L|56:378,1,45.4999979171754,0|0,1:2|0:0,0:0:0:0:
128,343,33419,2,0,L|146:384,1,45.4999979171754,0|0,1:2|0:0,0:0:0:0:
226,349,33808,2,0,P|268:364|313:347,1,90.9999958343508,8|2,0:0|0:0,0:0:0:0:
430,208,34586,5,2,1:2:0:0:
430,208,34781,2,0,P|432:244|405:221,1,90.9999958343508,2|2,0:0|0:0,0:0:0:0:
355,147,35365,2,0,L|395:126,1,45.4999979171754,10|0,0:0|0:0,0:0:0:0:
332,64,35754,2,0,L|307:15,1,45.4999979171754,2|10,0:0|0:0,0:0:0:0:
207,89,36143,5,0,1:2:0:0:
207,89,36337,2,0,B|188:81|163:78|163:78|187:76|207:65,1,90.9999958343508,2|0,1:2|1:2,0:0:0:0:
286,131,36921,2,0,P|320:75|284:22,1,136.499993751526,0|0,1:2|0:0,0:0:0:0:
223,78,37706,6,0,L|158:78,1,56,6|2,0:0|0:0,0:0:0:0:
43,52,38504,2,0,L|70:114,1,56,2|0,0:0|0:0,0:0:0:0:
116,214,39254,1,2,0:0:0:0:
116,214,39644,2,0,P|169:214|197:154,1,112,2|0,0:0|0:0,0:0:0:0:
328,245,40825,6,0,P|303:231|265:232,1,56,2|2,0:0|0:0,0:0:0:0:
303,333,41604,2,0,P|275:331|251:317,1,56,2|0,0:0|0:0,0:0:0:0:
251,317,42383,2,0,L|383:309,1,112,2|0,0:0|0:0,0:0:0:0:
492,94,43941,6,0,P|463:88|441:62,1,56,2|2,0:0|0:0,0:0:0:0:
343,118,44720,2,0,P|333:89|345:57,1,56,2|0,0:0|0:0,0:0:0:0:
163,77,45499,1,2,0:0:0:0:
163,77,45889,2,0,P|190:33|249:16,1,112,2|2,0:0|0:0,0:0:0:0:
30,51,47058,6,0,P|9:43|29:35,1,56,2|0,0:0|0:0,0:0:0:0:
106,46,47642,1,2,0:0:0:0:
181,51,47837,2,0,L|245:44,1,56,2|0,0:0|0:0,0:0:0:0:
169,161,48617,2,0,B|280:147|280:147|305:165|334:163,1,168,2|0,0:0|0:0,0:0:0:0:
329,78,49979,5,2,0:0:0:0:
321,191,50166,1,6,1:2:0:0:
321,191,51334,6,0,L|310:137,1,45.4999979171754,2|8,0:0|0:0,0:0:0:0:
405,177,51723,2,0,L|395:129,1,45.4999979171754,2|0,1:2|0:0,0:0:0:0:
488,166,52112,1,2,1:2:0:0:
488,166,52891,5,2,0:0:0:0:
321,145,53280,2,0,L|320:205,1,45.4999979171754,2|0,1:2|0:0,0:0:0:0:
405,157,53670,1,2,1:2:0:0:
205,169,54059,6,0,B|103:169,1,90.9999958343508,10|2,0:0|0:0,0:0:0:0:
46,240,54643,1,10,0:0:0:0:
46,240,54838,6,0,P|83:271|127:257,1,90.9999958343508,2|10,0:0|0:0,0:0:0:0:
216,310,55422,1,0,1:2:0:0:
112,340,55617,2,0,L|108:295,1,45.4999979171754,10|0,0:0|0:0,0:0:0:0:
220,355,56006,2,0,L|214:299,1,45.4999979171754,2|8,0:0|0:0,0:0:0:0:
332,369,56395,6,0,L|401:369,1,68.2499968757631,4|0,1:2|0:0,0:0:0:0:
418,384,56785,6,0,P|438:372|430:336,1,45.4999979171754,2|2,0:0|1:2,0:0:0:0:
470,263,57174,2,0,P|449:251|422:276,1,45.4999979171754,10|2,0:0|1:2,0:0:0:0:
340,279,57563,2,0,P|340:302|375:313,1,45.4999979171754,2|10,0:0|0:0,0:0:0:0:
430,259,57953,1,0,1:2:0:0:
234,277,58342,6,0,B|224:257|224:257|233:236,1,45.4999979171754,2|2,0:0|1:2,0:0:0:0:
145,277,58731,2,0,B|135:257|135:257|144:236,1,45.4999979171754,10|2,0:0|1:2,0:0:0:0:
56,277,59121,2,0,B|46:257|46:257|55:236,1,45.4999979171754,2|10,1:2|0:0,0:0:0:0:
3,172,59510,6,0,P|46:183|86:159,1,90.9999958343508,0|2,1:2|1:2,0:0:0:0:
171,172,60094,1,2,0:0:0:0:
264,181,60289,2,0,P|282:170|312:168,1,45.4999979171754,10|0,0:0|0:0,0:0:0:0:
388,118,60678,2,0,P|406:128|423:153,1,45.4999979171754,2|10,0:0|0:0,0:0:0:0:
477,240,61068,5,0,1:2:0:0:
477,240,61262,2,0,L|516:208,2,45.4999979171754,10|10|2,0:0|0:0|0:0,0:0:0:0:
390,312,61846,1,0,0:0:0:0:
390,312,62041,2,0,L|351:344,2,45.4999979171754,10|2|10,0:0|0:0|0:0,0:0:0:0:
432,384,62625,6,0,P|390:355|327:359,1,101.500003097534,6|0,1:2|0:0,0:0:0:0:
247,308,63209,1,0,1:2:0:0:
296,215,63404,2,0,L|357:203,1,50.7500015487671,8|0,0:0|0:0,0:0:0:0:
247,308,63793,2,0,L|182:321,1,50.7500015487671,2|8,0:0|0:0,0:0:0:0:
82,365,64182,6,0,P|58:324|80:280,1,101.500003097534,2|0,1:2|1:2,0:0:0:0:
174,297,64766,1,0,0:0:0:0:
268,310,64961,2,0,B|309:306|309:306|328:315|328:315|368:311,1,101.500003097534,10|0,0:0|0:0,0:0:0:0:
462,323,65545,1,2,0:0:0:0:
489,219,65740,5,2,1:2:0:0:
489,219,65934,2,0,P|503:200|475:181,1,50.7500015487671,2|0,0:0|1:2,0:0:0:0:
401,222,66324,2,0,B|390:199|390:199|401:176,1,50.7500015487671,2|8,0:0|0:0,0:0:0:0:
302,198,66713,2,0,B|271:198|271:198|254:203|254:203|236:198|236:198|201:198,1,101.500003097534,2|8,0:0|0:0,0:0:0:0:
127,267,67297,5,2,1:2:0:0:
0,142,67687,1,2,0:0:0:0:
142,17,68076,1,10,0:2:0:0:
142,17,68271,2,0,P|180:49|232:38,1,101.500003097534,2|10,0:0|0:0,0:0:0:0:
313,69,68855,6,0,L|263:66,1,50.7500015487671,4|2,1:2|0:0,0:0:0:0:
412,82,69244,2,0,P|430:76|412:63,1,50.7500015487671,2|2,1:2|0:0,0:0:0:0:
325,20,69633,2,0,L|331:135,1,101.500003097534,10|0,0:0|0:0,0:0:0:0:
334,209,70217,1,10,0:0:0:0:
321,315,70412,6,0,L|378:307,1,50.7500015487671,6|0,0:0|1:2,0:0:0:0:
227,305,70801,2,0,L|284:297,1,50.7500015487671,2|2,1:2|0:0,0:0:0:0:
157,357,71191,2,0,P|108:360|74:322,1,101.500003097534,10|2,0:0|0:0,0:0:0:0:
94,236,71775,1,2,0:0:0:0:
117,128,71970,6,0,L|67:133,1,50.7500015487671,2|0,1:2|0:0,0:0:0:0:
181,58,72359,2,0,L|176:8,1,50.7500015487671,2|0,1:2|0:0,0:0:0:0:
258,114,72748,2,0,L|308:109,1,50.7500015487671,10|0,0:0|0:0,0:0:0:0:
194,186,73137,2,0,L|199:236,1,50.7500015487671,2|8,0:0|0:0,0:0:0:0:
93,133,73527,5,2,0:0:0:0:
93,133,74111,1,0,1:2:0:0:
171,120,74306,2,0,L|175:161,1,35,8|0,0:0|1:2,0:0:0:0:
250,110,74695,2,0,L|254:156,1,35,0|8,1:2|0:0,0:0:0:0:
221,243,75084,6,0,P|266:263|306:231,1,101.500003097534,6|0,1:2|0:0,0:0:0:0:
378,293,75668,1,0,1:2:0:0:
427,193,75863,2,0,B|402:201|402:201|389:175,1,50.7500015487671,8|0,0:0|0:0,0:0:0:0:
477,267,76252,2,0,B|502:259|502:259|515:285,1,50.7500015487671,2|8,0:0|0:0,0:0:0:0:
512,384,76642,6,0,P|473:353|420:353,1,101.500003097534,2|0,1:2|1:2,0:0:0:0:
342,305,77226,1,0,0:0:0:0:
249,321,77421,2,0,P|212:311|255:299,1,101.500003097534,10|0,0:0|0:0,0:0:0:0:
342,305,78005,1,2,0:0:0:0:
452,326,78199,5,2,1:2:0:0:
452,326,78394,2,0,L|509:324,1,50.7500015487671,2|0,0:0|1:2,0:0:0:0:
446,243,78783,2,0,L|501:240,1,50.7500015487671,2|8,0:0|0:0,0:0:0:0:
366,288,79173,2,0,B|258:290,1,101.500003097534,2|8,0:0|0:0,0:0:0:0:
180,237,79757,5,2,1:2:0:0:
379,159,80146,1,2,0:0:0:0:
184,240,80535,1,10,0:0:0:0:
184,240,80730,2,0,B|151:240|151:240|134:245|134:245|118:240|118:240|84:240,1,101.500003097534,2|10,0:0|0:0,0:0:0:0:
136,334,81314,6,0,B|167:285|134:236|134:236|101:186|133:138,1,210,4|2,0:0|0:0,0:0:0:0:
133,137,82677,1,10,0:0:0:0:
234,63,82872,6,0,B|224:88|224:88|235:112,1,50.7500015487671,6|0,1:2|0:0,0:0:0:0:
320,86,83261,2,0,L|374:86,1,50.7500015487671,2|0,1:2|0:0,0:0:0:0:
440,144,83650,2,0,P|412:184|359:175,1,101.500003097534,10|2,0:0|0:0,0:0:0:0:
354,266,84234,1,2,0:0:0:0:
341,372,84429,6,0,B|312:354|312:354|276:354|276:354|250:337,1,101.500003097534,2|0,1:2|1:2,0:0:0:0:
155,315,85013,1,0,0:0:0:0:
155,315,85208,2,0,P|170:300|150:280,1,50.7500015487671,10|0,0:0|0:0,0:0:0:0:
67,336,85597,2,0,L|4:336,1,50.7500015487671,0|8,0:0|0:0,0:0:0:0:
0,242,85986,5,6,1:2:0:0:
154,354,86376,1,2,0:0:0:0:
0,242,86765,6,0,B|-20:226|-20:226|0:210,1,50.7500015487671,6|0,0:0|1:2,0:0:0:0:
67,290,87154,1,2,0:0:0:0:
52,117,87544,6,0,L|50:93,3,17.5,2|0|0|0,0:0|0:0|0:0|0:0,0:0:0:0:
36,143,87909,2,0,B|90:118|139:162|139:162|188:203|245:177,1,224,2|0,0:0|0:0,0:0:0:0:
418,45,90660,6,0,P|438:56|414:69,1,56,0|2,0:0|0:0,0:0:0:0:
325,59,91437,2,0,L|266:59,1,56,2|0,0:0|0:0,0:0:0:0:
144,18,92215,6,0,P|150:43|177:26,1,56,2|0,0:0|0:0,0:0:0:0:
157,135,92993,2,0,L|157:202,1,56,2|0,0:0|0:0,0:0:0:0:
67,175,93770,5,0,0:0:0:0:
260,144,94354,1,2,0:0:0:0:
67,175,94937,1,2,0:0:0:0:
156,136,95326,6,0,L|164:193,1,56,0|2,0:0|0:0,0:0:0:0:
128,276,96103,2,0,L|182:291,1,56,2|2,0:0|0:0,0:0:0:0:
273,350,96881,6,0,P|292:333|321:327,1,56,0|2,0:0|0:0,0:0:0:0:
177,344,97659,2,0,P|171:319|181:290,1,56,2|0,0:0|0:0,0:0:0:0:
44,353,98437,6,0,P|62:374|89:384,1,56,2|0,0:0|0:0,0:0:0:0:
181,290,99214,2,0,P|171:316|177:344,1,56,2|2,0:0|0:0,0:0:0:0:
321,326,99992,5,2,0:0:0:0:
91,319,100575,1,2,0:0:0:0:
321,326,101159,1,2,0:0:0:0:
437,354,101547,6,0,B|447:327|447:327|434:297,1,56,0|2,0:0|0:0,0:0:0:0:
345,330,102325,2,0,L|277:330,1,56,2|2,0:0|0:0,0:0:0:0:
167,369,103102,6,0,L|112:369,1,56,0|2,0:0|0:0,0:0:0:0:
111,288,103879,2,0,L|167:288,1,56,2|0,0:0|0:0,0:0:0:0:
284,313,104657,6,0,P|274:287|286:259,1,56,2|0,0:0|0:0,0:0:0:0:
375,291,105435,2,0,P|385:317|373:345,1,56,2|0,0:0|0:0,0:0:0:0:
256,321,106212,5,0,0:0:0:0:
256,124,106796,1,2,0:0:0:0:
256,321,107379,1,2,0:0:0:0:
221,232,107768,6,0,L|278:228,1,56,0|2,0:0|0:0,0:0:0:0:
380,248,108545,2,0,L|318:253,1,56,2|2,0:0|0:0,0:0:0:0:
482,256,109323,6,0,P|502:248|479:237,1,56,0|2,0:0|0:0,0:0:0:0:
380,248,110101,2,0,L|324:248,1,56,2|0,0:0|0:0,0:0:0:0:
214,220,110879,2,0,L|225:280,1,56,2|0,0:0|0:0,0:0:0:0:
116,248,111656,2,0,L|60:248,1,56,2|2,0:0|0:0,0:0:0:0:
83,347,112435,5,2,0:0:0:0:
103,102,113035,1,2,0:0:0:0:
83,347,113635,1,2,0:0:0:0:
31,248,114035,6,0,B|95:239|95:239|152:265|152:265|222:253,1,196,2|0,0:0|0:0,0:0:0:0:
247,270,115558,6,0,P|276:234|256:187,1,90.9999958343508,6|2,1:2|0:0,0:0:0:0:
173,165,116141,1,0,1:2:0:0:
173,165,116335,2,0,L|177:226,1,45.4999979171754,10|0,0:0|0:0,0:0:0:0:
89,170,116724,2,0,L|93:231,1,45.4999979171754,2|8,0:0|0:2,0:0:0:0:
52,314,117113,6,0,L|144:308,1,90.9999958343508,2|2,1:2|1:2,0:0:0:0:
224,340,117696,1,0,0:2:0:0:
306,372,117891,2,0,P|340:345|388:350,1,90.9999958343508,10|2,0:0|0:0,0:0:0:0:
442,162,118668,6,0,B|453:247|453:247|503:242,1,136.499993751526,6|2,1:2|0:0,0:0:0:0:
488,330,119446,2,0,P|441:283|376:289,1,136.499993751526,4|8,1:2|0:0,0:0:0:0:
282,263,120224,6,0,L|332:259,1,45.4999979171754,0|0,1:2|0:0,0:0:0:0:
223,198,120613,2,0,L|254:151,1,45.4999979171754,2|0,0:0|1:2,0:0:0:0:
137,169,121001,2,0,L|147:66,1,90.9999958343508,10|2,0:0|0:0,0:0:0:0:
104,332,121779,6,0,P|143:308|188:316,1,90.9999958343508,2|2,1:2|0:0,0:0:0:0:
268,274,122362,1,0,1:2:0:0:
268,274,122557,2,0,L|217:274,1,45.4999979171754,10|0,0:0|0:0,0:0:0:0:
355,252,122946,2,0,P|365:274|350:297,1,45.4999979171754,2|8,0:0|0:0,0:0:0:0:
474,288,123335,6,0,B|491:278|516:272|516:272|490:269|472:257,1,90.9999958343508,2|2,1:2|1:2,0:0:0:0:
387,274,123918,1,0,0:3:0:0:
300,274,124112,2,0,L|198:274,1,90.9999958343508,10|2,0:0|0:0,0:0:0:0:
123,100,124890,6,0,P|170:104|202:74,1,90.9999958343508,2|0,1:2|0:0,0:0:0:0:
267,145,125473,2,0,P|232:120|186:119,1,90.9999958343508,2|0,0:0|0:0,0:0:0:0:
338,94,126057,2,0,L|392:95,1,45.4999979171754,2|8,0:0|0:0,0:0:0:0:
498,46,126445,6,0,L|509:148,1,90.9999958343508,0|2,1:2|0:0,0:0:0:0:
414,153,127029,1,2,1:2:0:0:
414,153,127223,2,0,P|400:149|416:129,1,45.4999979171754,8|2,0:0|0:0,0:0:0:0:
507,136,127612,2,0,L|515:195,1,45.4999979171754,2|10,0:0|0:0,0:0:0:0:
512,294,128001,6,0,P|475:266|432:266,1,90.9999958343508,6|2,1:2|0:0,0:0:0:0:
349,237,128584,1,0,1:2:0:0:
266,206,128778,2,0,B|237:206|237:206|220:212|220:212|203:206|203:206|177:206,1,90.9999958343508,8|2,0:0|0:0,0:0:0:0:
55,347,129556,6,0,P|88:376|142:362,1,90.9999958343508,0|2,1:2|1:2,0:0:0:0:
192,306,130139,1,0,0:0:0:0:
122,252,130334,2,0,L|114:156,1,90.9999958343508,8|2,0:0|0:0,0:0:0:0:
321,201,131112,6,0,L|265:204,2,45.4999979171754,0|2|2,1:2|0:0|1:2,0:0:0:0:
405,164,131695,2,0,P|429:201|402:238,1,90.9999958343508,2|0,0:0|0:0,0:0:0:0:
321,201,132278,2,0,B|287:214|256:190|256:190|227:168|192:180,1,136.499993751526,2|0,0:0|0:0,0:0:0:0:
89,169,133056,6,0,L|104:211,1,45.4999979171754,2|0,0:0|1:2,0:0:0:0:
148,307,133445,2,0,L|177:272,1,45.4999979171754,10|0,0:0|0:0,0:0:0:0:
237,187,133834,2,0,L|192:178,1,45.4999979171754,2|8,0:0|0:0,0:0:0:0:
323,253,134222,6,0,L|423:270,1,90.9999958343508,0|2,1:2|0:0,0:0:0:0:
477,204,134806,1,0,1:2:0:0:
477,204,135000,2,0,P|491:186|466:181,1,45.4999979171754,8|0,0:0|0:0,0:0:0:0:
383,168,135389,2,0,B|376:191|376:191|384:213,1,45.4999979171754,2|8,0:0|0:0,0:0:0:0:
266,192,135778,6,0,L|165:193,1,90.9999958343508,0|2,1:2|1:2,0:0:0:0:
134,268,136361,1,0,0:0:0:0:
93,344,136556,2,0,P|46:353|18:317,1,90.9999958343508,8|2,0:0|0:0,0:0:0:0:
230,369,137333,6,0,B|264:367|264:367|286:378|286:378|320:376,1,90.9999958343508,2|0,1:2|1:2,0:0:0:0:
408,344,137917,2,0,P|422:377|435:343,1,90.9999958343508,2|0,0:0|0:0,0:0:0:0:
496,275,138500,2,0,B|507:258|507:258|494:237,1,45.4999979171754,2|8,0:0|0:0,0:0:0:0:
512,146,138889,6,0,P|487:184|439:182,1,90.9999958343508,0|2,1:2|0:0,0:0:0:0:
363,221,139472,1,2,1:2:0:0:
363,221,139666,2,0,L|310:204,1,45.4999979171754,8|2,0:0|0:0,0:0:0:0:
357,127,140055,2,0,L|277:106,1,45.4999979171754,2|10,0:0|0:0,0:0:0:0:
211,128,140444,5,6,0:0:0:0:
211,128,140633,2,0,P|224:106|208:80,1,56,2|0,0:0|0:0,0:0:0:0:
131,105,141209,2,0,L|72:105,1,56,2|0,0:0|0:0,0:0:0:0:
108,186,141789,1,2,0:0:0:0:
108,186,141994,5,0,0:0:0:0:
230,161,142383,1,0,0:0:0:0:
363,133,142773,2,0,L|424:119,1,56,0|2,0:0|0:0,0:0:0:0:
501,241,143552,5,2,0:0:0:0:
501,241,143747,2,0,P|479:226|450:226,1,56,2|0,0:0|0:0,0:0:0:0:
374,195,144331,2,0,B|348:204|348:204|321:195,1,56,2|0,0:0|0:0,0:0:0:0:
248,225,144916,1,2,0:0:0:0:
248,225,145110,6,0,L|188:225,2,52.5,0|2|0,0:0|0:0|0:0,0:0:0:0:
267,325,145998,2,0,P|303:303|353:310,1,84,2|0,0:0|0:0,0:0:0:0:
376,275,146662,5,2,0:0:0:0:
376,275,146856,2,0,P|345:281|321:274,1,56,2|0,0:0|0:0,0:0:0:0:
349,197,147440,2,0,L|349:138,1,56,2|2,0:0|0:0,0:0:0:0:
352,64,148023,1,0,0:0:0:0:
352,64,148218,5,0,0:0:0:0:
223,58,148607,1,0,0:0:0:0:
75,52,148996,2,0,L|131:44,1,56,0|2,0:0|0:0,0:0:0:0:
62,178,149774,5,2,0:0:0:0:
62,178,149969,2,0,L|124:165,1,56,2|0,0:0|0:0,0:0:0:0:
190,135,150553,2,0,L|199:171,1,28,2|0,0:0|0:0,0:0:0:0:
266,117,150942,2,0,L|275:153,1,28,2|0,0:0|0:0,0:0:0:0:
298,234,151366,5,0,0:0:0:0:
298,234,151580,2,0,B|347:234|347:234|359:229|359:229|409:229,1,112,2|0,0:0|0:0,0:0:0:0:
512,349,152887,5,2,0:0:0:0:
512,349,153081,2,0,P|492:367|461:368,1,56,2|0,0:0|0:0,0:0:0:0:
384,384,153665,2,0,P|358:375|342:349,1,56,2|0,0:0|0:0,0:0:0:0:
268,319,154248,1,2,0:0:0:0:
268,319,154443,5,0,0:0:0:0:
414,282,154832,1,0,0:0:0:0:
315,171,155221,2,0,P|296:179|320:191,1,56,0|2,0:0|0:0,0:0:0:0:
383,55,155999,5,2,0:0:0:0:
383,55,156194,2,0,B|392:29|392:29|381:1,1,56,2|0,0:0|0:0,0:0:0:0:
308,32,156778,2,0,P|282:39|254:31,1,56,2|0,0:0|0:0,0:0:0:0:
185,76,157361,1,2,0:0:0:0:
185,76,157556,6,0,L|139:72,2,42,0|2|0,0:0|0:0|0:0,0:0:0:0:
198,188,158432,2,0,L|110:179,1,84,2|0,0:0|0:0,0:0:0:0:
88,212,159096,5,2,0:0:0:0:
88,212,159290,2,0,P|111:203|141:205,1,56,2|0,0:0|0:0,0:0:0:0:
206,154,159874,2,0,P|230:164|261:160,1,56,2|2,0:0|0:0,0:0:0:0:
337,198,160457,1,0,0:0:0:0:
337,198,160652,5,0,0:0:0:0:
448,105,161041,1,0,0:0:0:0:
310,47,161430,2,0,L|255:24,1,56,0|2,0:0|0:0,0:0:0:0:
155,154,162208,5,2,0:0:0:0:
155,154,162403,2,0,P|176:142|209:143,1,56,2|0,0:0|0:0,0:0:0:0:
280,108,162987,2,0,L|259:78,1,28,2|0,0:0|0:0,0:0:0:0:
277,187,163376,2,0,L|300:217,1,28,2|0,0:0|0:0,0:0:0:0:
388,163,163783,5,0,0:0:0:0:
388,163,164000,2,0,B|416:152|441:167|441:167|468:183|497:170,1,112,2|0,0:0|0:0,0:0:0:0:
455,371,165307,6,0,B|427:364|411:347|411:347|348:347,1,112,2|2,0:0|0:0,0:0:0:0:
216,363,166474,1,0,0:0:0:0:
83,377,166863,2,0,P|29:369|6:320,1,112,2|2,0:0|0:0,0:0:0:0:
166,336,168030,1,0,0:0:0:0:
324,349,168419,6,0,L|385:340,1,56,2|0,0:0|0:0,0:0:0:0:
303,231,169198,2,0,L|359:222,1,56,2|0,0:0|0:0,0:0:0:0:
387,89,169976,2,0,P|332:97|287:68,1,112,2|0,0:0|0:0,0:0:0:0:
222,177,171143,1,0,0:0:0:0:
101,91,171532,6,0,L|160:94,1,56,2|0,0:0|0:0,0:0:0:0:
293,113,172310,2,0,P|309:100|283:79,1,56,2|0,0:0|0:0,0:0:0:0:
156,40,173089,2,0,L|167:162,1,112,2|0,0:0|0:0,0:0:0:0:
177,279,174256,1,0,0:0:0:0:
352,318,174645,6,0,P|382:279|348:236,1,112,2|2,0:0|0:0,0:0:0:0:
212,272,175812,1,0,0:0:0:0:
73,308,176216,6,0,B|24:301|7:253|37:204|86:214|86:214|133:225|168:183|159:134|108:122,1,314.999990386963,2|0,0:0|0:0,0:0:0:0:
95,14,179292,5,6,0:0:0:0:
95,14,180459,1,2,0:0:0:0:
67,148,180848,2,0,L|145:144,1,68.2499968757631,6|0,0:0|0:0,0:0:0:0:
174,154,181237,6,0,L|171:120,3,22.7499989585877,8|8|0|0,0:0|0:0|1:2|1:2,0:0:0:0:
251,175,181626,2,0,L|248:141,3,22.7499989585877,10|8|0|0,0:0|0:0|1:2|1:2,0:0:0:0:
330,190,182015,2,0,L|327:156,2,22.7499989585877,0|0|10,1:2|1:2|0:0,0:0:0:0:
326,339,182404,5,6,1:2:0:0:
326,339,182598,2,0,P|345:326|382:322,1,50.7500015487671,2|0,0:0|1:2,0:0:0:0:
239,302,182986,2,0,P|237:279|252:245,1,50.7500015487671,2|8,0:0|0:0,0:0:0:0:
147,321,183374,2,0,P|106:289|97:238,1,101.500003097534,2|8,0:0|0:0,0:0:0:0:
33,155,183956,5,2,1:2:0:0:
216,173,184344,1,2,0:0:0:0:
399,194,184732,1,10,0:0:0:0:
399,194,184926,2,0,L|412:84,1,101.500003097534,2|8,0:0|0:0,0:0:0:0:
311,78,185508,6,0,P|307:104|333:120,1,50.7500015487671,4|2,1:2|0:0,0:0:0:0:
453,103,185896,2,0,P|432:86|405:101,1,50.7500015487671,2|2,0:0|1:2,0:0:0:0:
357,17,186284,2,0,P|311:35|263:17,1,101.500003097534,10|0,0:0|1:2,0:0:0:0:
180,48,186867,1,10,0:0:0:0:
74,88,187061,6,0,L|24:84,1,50.7500015487671,2|0,1:2|0:0,0:0:0:0:
137,159,187449,2,0,L|133:209,1,50.7500015487671,2|2,1:2|0:0,0:0:0:0:
212,99,187837,2,0,L|314:107,1,101.500003097534,10|2,0:0|0:0,0:0:0:0:
390,59,188419,1,2,0:0:0:0:
462,146,188613,6,0,P|460:168|436:158,1,50.7500015487671,2|0,1:2|0:0,0:0:0:0:
353,231,189001,2,0,B|365:208|365:208|376:231,1,50.7500015487671,2|0,1:2|0:0,0:0:0:0:
274,190,189389,2,0,L|223:190,1,50.7500015487671,10|0,0:0|0:0,0:0:0:0:
136,212,189777,2,0,P|127:190|136:166,1,50.7500015487671,2|8,0:0|0:0,0:0:0:0:
65,266,190165,6,0,P|106:241|160:250,1,105,2|0,1:2|0:0,0:0:0:0:
233,210,190942,2,0,L|218:176,1,35,0|0,0:0|1:2,0:0:0:0:
327,221,191330,2,0,L|310:180,1,35,0|8,0:0|0:0,0:0:0:0:
428,236,191718,6,0,P|478:229|498:186,1,101.500003097534,6|0,1:2|0:0,0:0:0:0:
460,96,192300,1,0,1:2:0:0:
423,4,192494,2,0,L|481:-1,1,50.7500015487671,8|0,0:0|0:0,0:0:0:0:
460,96,192882,2,0,L|469:155,1,50.7500015487671,2|8,0:0|0:0,0:0:0:0:
343,128,193270,6,0,B|299:128|299:128|287:122|287:122|243:122,1,101.500003097534,2|0,1:2|1:2,0:0:0:0:
194,200,193852,1,0,0:0:0:0:
143,278,194046,2,0,P|179:318|221:311,1,101.500003097534,10|0,0:0|0:0,0:0:0:0:
284,382,194629,1,2,0:0:0:0:
403,346,194823,5,2,1:2:0:0:
403,346,195017,2,0,B|426:336|426:336|402:323,1,50.7500015487671,2|0,0:0|1:2,0:0:0:0:
338,252,195405,2,0,P|326:229|343:206,1,50.7500015487671,2|8,0:0|0:0,0:0:0:0:
403,135,195793,2,0,L|403:32,1,101.500003097534,2|10,0:0|0:0,0:0:0:0:
500,81,196375,5,2,1:2:0:0:
306,64,196763,1,2,0:0:0:0:
115,50,197151,1,10,0:0:0:0:
115,50,197345,2,0,P|78:64|115:84,1,101.500003097534,2|10,0:0|0:0,0:0:0:0:
219,14,197927,6,0,L|215:67,1,50.7500015487671,4|2,1:2|0:0,0:0:0:0:
307,84,198316,2,0,L|303:137,1,50.7500015487671,2|2,0:0|1:2,0:0:0:0:
400,64,198704,2,0,P|435:97|488:97,1,101.500003097534,10|0,0:0|1:2,0:0:0:0:
470,18,199286,1,10,0:0:0:0:
411,136,199480,6,0,L|422:197,1,50.7500015487671,6|0,1:2|0:0,0:0:0:0:
412,274,199868,2,0,L|467:266,1,50.7500015487671,2|2,1:2|0:0,0:0:0:0:
335,221,200256,2,0,B|312:232|285:221|285:221|260:211|236:220,1,101.500003097534,10|2,0:0|0:0,0:0:0:0:
144,242,200838,1,2,0:0:0:0:
35,266,201032,6,0,B|13:251|-11:244|-11:244|12:238|35:217,1,101.500003097534,2|0,1:2|1:2,0:0:0:0:
125,241,201614,1,0,0:0:0:0:
125,241,201808,2,0,L|189:241,1,50.7500015487671,10|0,0:0|0:0,0:0:0:0:
269,241,202197,2,0,L|333:241,1,50.7500015487671,0|8,0:0|0:0,0:0:0:0:
429,259,202585,6,0,P|411:238|434:221,1,56,6|0,0:0|0:0,0:0:0:0:
326,334,203361,2,0,P|343:352|324:374,1,56,2|2,0:0|0:0,0:0:0:0:
209,239,204137,6,0,P|173:276|119:264,1,112,2|2,0:0|0:0,0:0:0:0:
140,150,205301,1,0,0:0:0:0:
159,32,205689,2,0,L|216:77,1,56,2|0,0:0|0:0,0:0:0:0:
140,150,206466,2,0,L|84:108,1,56,2|2,0:0|0:0,0:0:0:0:
169,276,207242,6,0,P|209:241|266:244,1,112,2|2,0:0|0:0,0:0:0:0:
358,177,208423,1,0,0:0:0:0:
235,99,208828,2,0,L|239:159,1,56,2|0,0:0|0:0,0:0:0:0:
361,232,209696,2,0,L|357:173,1,56,2|2,0:0|0:0,0:0:0:0:
219,317,210664,6,0,L|217:293,3,14,2|0|0|0,0:0|0:0|0:0|0:0,0:0:0:0:
198,340,211122,2,0,B|262:338|262:338|334:337|333:381|399:379|399:379|469:379,1,280,2|0,0:0|0:0,0:0:0:0:
