osu file format v14

[General]
AudioFilename: audio.mp3
AudioLeadIn: 0
PreviewTime: 33685
Countdown: 1
SampleSet: None
StackLeniency: 0.6
Mode: 0
LetterboxInBreaks: 0
WidescreenStoryboard: 0

[Editor]
Bookmarks: 52887,72087
DistanceSpacing: 1
BeatDivisor: 4
GridSize: 32
TimelineZoom: 2.200006

[Metadata]
Title:zen zen zense (Airuei Redo)
TitleUnicode:zen zen zense (Airuei Redo)
Artist:things happen.
ArtistUnicode:things happen.
Creator:TKILELE
Version:lollol
Source:Zen Zen Zense Radwimp WRAD Wrong Address
Tags:
BeatmapID:1838781
BeatmapSetID:879258

[Difficulty]
HPDrainRate:4
CircleSize:4
OverallDifficulty:8.6
ApproachRate:9.7
SliderMultiplier:2
SliderTickRate:1

[Events]
//Background and Video events
0,0,"Your Name (308).jpg",0,0
//Break Periods
//Storyboard Layer 0 (Background)
//Storyboard Layer 1 (Fail)
//Storyboard Layer 2 (Pass)
//Storyboard Layer 3 (Foreground)
//Storyboard Sound Samples

[TimingPoints]
85,300,4,3,0,50,1,0
9085,-200,4,3,0,50,0,0
13885,-133.333333333333,4,3,0,50,0,0
17185,-133.333333333333,4,3,0,40,0,0
19285,-200,4,3,0,50,0,0
23710,-200,4,3,0,5,0,0
23785,-200,4,3,0,50,0,0
24010,-200,4,3,0,5,0,0
24085,-200,4,3,0,50,0,0
28510,-200,4,3,0,5,0,0
28585,-200,4,3,0,50,0,0
28810,-200,4,3,0,5,0,0
28885,-200,4,2,0,50,0,0
31285,-200,4,3,0,50,0,0
33685,-100,4,3,1,45,0,0
33760,-100,4,3,1,5,0,0
33835,-100,4,3,1,45,0,0
33910,-100,4,3,1,5,0,0
33985,-100,4,3,1,45,0,0
34060,-100,4,3,1,5,0,0
34135,-100,4,3,1,45,0,0
34210,-100,4,3,1,5,0,0
34285,-100,4,3,1,45,0,0
34360,-100,4,3,1,5,0,0
34435,-100,4,3,1,45,0,0
34510,-100,4,3,1,5,0,0
34585,-100,4,3,1,45,0,0
34660,-100,4,3,1,5,0,0
34735,-100,4,3,1,45,0,0
34810,-100,4,3,1,5,0,0
34885,-100,4,3,1,45,0,0
34960,-100,4,3,1,5,0,0
35035,-100,4,3,1,45,0,0
35260,-100,4,3,1,5,0,0
35335,-100,4,3,1,45,0,0
35410,-100,4,3,1,5,0,0
35485,-100,4,3,1,45,0,0
35560,-100,4,3,1,5,0,0
35635,-100,4,3,1,45,0,0
35710,-100,4,3,1,5,0,0
35785,-100,4,3,1,45,0,0
35860,-100,4,3,1,5,0,0
35935,-100,4,3,1,45,0,0
36010,-100,4,3,1,5,0,0
36085,-100,4,3,1,45,0,0
36160,-100,4,3,1,5,0,0
36235,-100,4,3,1,45,0,0
36460,-100,4,3,1,5,0,0
36535,-100,4,3,1,45,0,0
36685,-100,4,3,1,45,0,0
36760,-100,4,3,1,5,0,0
36835,-100,4,3,1,45,0,0
36910,-100,4,3,1,5,0,0
36985,-100,4,3,1,45,0,0
37060,-100,4,3,1,5,0,0
37135,-100,4,3,1,45,0,0
37210,-100,4,3,1,5,0,0
37285,-100,4,3,1,45,0,0
37360,-100,4,3,1,5,0,0
37435,-100,4,3,1,45,0,0
37510,-100,4,3,1,5,0,0
37585,-100,4,3,1,45,0,0
37810,-100,4,3,1,5,0,0
37885,-100,4,3,1,45,0,0
37960,-100,4,3,1,5,0,0
38035,-100,4,3,1,45,0,0
38110,-100,4,3,1,5,0,0
38185,-100,4,3,1,45,0,0
38260,-100,4,3,1,5,0,0
38335,-100,4,3,1,45,0,0
38410,-100,4,3,1,5,0,0
38485,-100,4,3,1,45,0,0
38560,-100,4,3,1,5,0,0
38635,-100,4,3,1,45,0,0
38710,-100,4,3,1,5,0,0
38785,-100,4,3,1,45,0,0
38860,-100,4,3,1,5,0,0
38935,-100,4,3,1,45,0,0
39010,-100,4,3,1,5,0,0
39085,-100,4,3,1,45,0,0
39160,-100,4,3,1,5,0,0
39235,-100,4,3,1,45,0,0
39310,-100,4,3,1,5,0,0
39385,-100,4,3,1,45,0,0
39460,-100,4,3,1,5,0,0
39535,-100,4,3,1,45,0,0
39610,-100,4,3,1,5,0,0
39685,-100,4,3,1,45,0,0
39760,-100,4,3,1,5,0,0
39835,-100,4,3,1,45,0,0
40210,-100,4,3,1,5,0,0
40285,-100,4,3,1,45,0,0
40360,-100,4,3,1,5,0,0
40435,-100,4,3,1,45,0,0
40510,-100,4,3,1,5,0,0
40585,-100,4,3,1,45,0,0
40660,-100,4,3,1,5,0,0
40735,-100,4,3,1,45,0,0
40810,-100,4,3,1,5,0,0
40885,-100,4,3,1,45,0,0
41560,-100,4,3,1,5,0,0
41635,-100,4,3,1,45,0,0
41710,-100,4,3,1,5,0,0
41785,-100,4,3,1,45,0,0
41860,-100,4,3,1,5,0,0
41935,-100,4,3,1,45,0,0
42010,-100,4,3,1,5,0,0
42085,-100,4,3,1,45,0,0
42160,-100,4,3,1,5,0,0
42235,-100,4,3,1,45,0,0
42310,-100,4,3,1,5,0,0
42385,-100,4,3,1,45,0,0
42685,-100,4,3,1,45,0,0
42760,-100,4,3,1,5,0,0
42835,-100,4,3,1,45,0,0
42910,-100,4,3,1,5,0,0
42985,-100,4,3,1,45,0,0
43060,-100,4,3,1,5,0,0
43135,-100,4,3,1,45,0,0
43210,-100,4,3,1,5,0,0
43285,-100,4,3,1,45,0,0
43360,-100,4,3,1,5,0,0
43435,-100,4,3,1,45,0,0
43660,-100,4,3,1,5,0,0
43735,-100,4,3,1,45,0,0
43810,-100,4,3,1,5,0,0
43885,-100,4,3,1,45,0,0
44260,-100,4,3,1,5,0,0
44335,-100,4,3,1,45,0,0
44410,-100,4,3,1,5,0,0
44485,-100,4,3,1,45,0,0
44560,-100,4,3,1,5,0,0
44635,-100,4,3,1,45,0,0
45010,-100,4,3,1,5,0,0
45085,-100,4,3,1,45,0,0
45160,-100,4,3,1,5,0,0
45235,-100,4,3,1,45,0,0
45310,-100,4,3,1,5,0,0
45385,-100,4,3,1,45,0,0
45460,-100,4,3,1,5,0,0
45535,-100,4,3,1,45,0,0
45610,-100,4,3,1,5,0,0
45685,-100,4,3,1,45,0,0
46360,-100,4,3,1,5,0,0
46435,-100,4,3,1,45,0,0
46510,-100,4,3,1,5,0,0
46585,-100,4,3,1,45,0,0
46660,-100,4,3,1,5,0,0
46735,-100,4,3,1,45,0,0
46810,-100,4,3,1,5,0,0
46885,-100,4,3,1,45,0,0
46960,-100,4,3,1,5,0,0
47035,-100,4,3,1,45,0,0
47110,-100,4,3,1,5,0,0
47185,-100,4,3,1,45,0,0
47560,-100,4,3,1,5,0,0
47635,-100,4,3,1,45,0,0
47710,-100,4,3,1,5,0,0
47785,-100,4,3,1,45,0,0
47860,-100,4,3,1,5,0,0
47935,-100,4,3,1,45,0,0
48010,-100,4,3,1,5,0,0
48085,-100,4,3,1,45,0,0
48460,-100,4,3,1,5,0,0
48535,-100,4,3,1,45,0,0
48610,-100,4,3,1,5,0,0
48685,-100,4,3,1,45,0,0
48760,-100,4,3,1,5,0,0
48835,-100,4,3,1,45,0,0
48910,-100,4,3,1,5,0,0
48985,-100,4,3,1,45,0,0
49060,-100,4,3,1,5,0,0
49135,-100,4,3,1,45,0,0
49210,-100,4,3,1,5,0,0
49285,-100,4,3,1,45,0,0
49360,-100,4,3,1,5,0,0
49435,-100,4,3,1,45,0,0
49810,-100,4,3,1,5,0,0
49885,-100,4,3,1,45,0,0
49960,-100,4,3,1,5,0,0
50035,-100,4,3,1,45,0,0
50110,-100,4,3,1,5,0,0
50185,-100,4,3,1,45,0,0
50260,-100,4,3,1,5,0,0
50335,-100,4,3,1,45,0,0
50410,-100,4,3,1,5,0,0
50485,-100,4,3,1,45,0,0
51160,-100,4,3,1,5,0,0
51235,-100,4,3,1,45,0,0
51310,-100,4,3,1,5,0,0
51385,-100,4,3,1,45,0,0
51460,-100,4,3,1,5,0,0
51535,-100,4,3,1,45,0,0
51610,-100,4,3,1,5,0,0
51685,-100,4,3,1,45,0,0
52285,-100,4,3,1,45,0,0
52885,-133.333333333333,4,3,1,45,0,0
53110,-133.333333333333,4,3,1,5,0,0
53185,-133.333333333333,4,3,1,45,0,0
53260,-133.333333333333,4,3,1,5,0,0
53335,-133.333333333333,4,3,1,45,0,0
53410,-133.333333333333,4,3,1,5,0,0
53485,-133.333333333333,4,3,1,45,0,0
53560,-133.333333333333,4,3,1,5,0,0
53635,-133.333333333333,4,3,1,45,0,0
53710,-133.333333333333,4,3,1,5,0,0
53785,-133.333333333333,4,3,1,45,0,0
54010,-133.333333333333,4,3,1,5,0,0
54085,-133.333333333333,4,3,1,45,0,0
54160,-133.333333333333,4,3,1,5,0,0
54235,-133.333333333333,4,3,1,45,0,0
54610,-133.333333333333,4,3,1,5,0,0
54685,-200,4,3,1,45,0,0
54910,-200,4,3,1,5,0,0
54985,-200,4,3,1,45,0,0
55135,-200,4,3,1,5,0,0
55210,-200,4,3,1,45,0,0
55285,-100,4,3,1,45,0,0
55360,-100,4,3,1,5,0,0
55435,-100,4,3,1,45,0,0
55510,-100,4,3,1,5,0,0
55585,-100,4,3,1,45,0,0
55810,-100,4,3,1,5,0,0
55885,-100,4,3,1,45,0,0
55960,-100,4,3,1,5,0,0
56035,-100,4,3,1,45,0,0
56110,-100,4,3,1,5,0,0
56185,-100,4,3,1,45,0,0
56260,-100,4,3,1,5,0,0
56335,-100,4,3,1,45,0,0
56410,-100,4,3,1,5,0,0
56485,-100,4,3,1,45,0,0
56560,-100,4,3,1,5,0,0
56635,-100,4,3,1,45,0,0
56710,-100,4,3,1,5,0,0
56785,-100,4,3,1,45,0,0
56860,-100,4,3,1,5,0,0
56935,-100,4,3,1,45,0,0
57010,-100,4,3,1,5,0,0
57085,-100,4,3,1,45,0,0
57160,-100,4,3,1,5,0,0
57235,-100,4,3,1,45,0,0
57310,-100,4,3,1,5,0,0
57385,-100,4,3,1,45,0,0
57460,-100,4,3,1,5,0,0
57535,-100,4,3,1,45,0,0
57610,-100,4,3,1,5,0,0
57685,-100,4,3,1,45,0,0
58060,-100,4,3,1,5,0,0
58135,-100,4,3,1,45,0,0
58210,-100,4,3,1,5,0,0
58285,-100,4,3,1,45,0,0
58360,-100,4,3,1,5,0,0
58435,-100,4,3,1,45,0,0
58510,-100,4,3,1,5,0,0
58585,-100,4,3,1,45,0,0
58810,-100,4,3,1,5,0,0
58885,-100,4,3,1,45,0,0
59035,-100,4,3,1,45,0,0
59410,-100,4,3,1,5,0,0
59485,-100,4,3,1,45,0,0
59560,-100,4,3,1,5,0,0
59635,-100,4,3,1,45,0,0
59710,-100,4,3,1,5,0,0
59785,-100,4,3,1,45,0,0
59860,-100,4,3,1,5,0,0
59935,-100,4,3,1,45,0,0
60010,-100,4,3,1,5,0,0
60085,-100,4,3,1,45,0,0
60760,-100,4,3,1,5,0,0
60835,-100,4,3,1,45,0,0
60910,-100,4,3,1,5,0,0
60985,-100,4,3,1,45,0,0
61060,-100,4,3,1,5,0,0
61135,-100,4,3,1,45,0,0
61210,-100,4,3,1,5,0,0
61285,-100,4,3,1,45,0,0
61360,-100,4,3,1,5,0,0
61435,-100,4,3,1,45,0,0
61510,-100,4,3,1,5,0,0
61585,-100,4,3,1,45,0,0
61960,-100,4,3,1,5,0,0
62035,-100,4,3,1,45,0,0
62110,-100,4,3,1,5,0,0
62185,-100,4,3,1,45,0,0
62260,-100,4,3,1,5,0,0
62335,-100,4,3,1,45,0,0
62410,-100,4,3,1,5,0,0
62485,-100,4,3,1,45,0,0
62710,-100,4,3,1,5,0,0
62785,-100,4,3,1,45,0,0
62860,-100,4,3,1,5,0,0
62935,-100,4,3,1,45,0,0
63010,-100,4,3,1,5,0,0
63085,-100,4,3,1,45,0,0
63160,-100,4,3,1,5,0,0
63235,-100,4,3,1,45,0,0
63310,-100,4,3,1,5,0,0
63385,-100,4,3,1,45,0,0
63760,-100,4,3,1,5,0,0
63835,-100,4,3,1,45,0,0
64210,-100,4,3,1,5,0,0
64285,-100,4,3,1,45,0,0
64360,-100,4,3,1,5,0,0
64435,-100,4,3,1,45,0,0
64510,-100,4,3,1,5,0,0
64585,-100,4,3,1,45,0,0
64660,-100,4,3,1,5,0,0
64735,-100,4,3,1,45,0,0
64810,-100,4,3,1,5,0,0
64885,-100,4,3,1,45,0,0
65110,-100,4,3,1,5,0,0
65185,-100,4,3,1,45,0,0
65410,-100,4,3,1,5,0,0
65485,-100,4,3,1,45,0,0
65560,-100,4,3,1,5,0,0
65635,-100,4,3,1,45,0,0
65710,-100,4,3,1,5,0,0
65785,-100,4,3,1,45,0,0
65860,-100,4,3,1,5,0,0
65935,-100,4,3,1,45,0,0
66010,-100,4,3,1,5,0,0
66085,-100,4,3,1,45,0,0
66160,-100,4,3,1,5,0,0
66235,-100,4,3,1,45,0,0
66310,-100,4,3,1,5,0,0
66385,-100,4,3,1,45,0,0
66910,-100,4,3,1,5,0,0
66985,-100,4,3,1,45,0,0
67060,-100,4,3,1,5,0,0
67135,-100,4,3,1,45,0,0
67210,-100,4,3,1,5,0,0
67285,-100,4,3,1,45,0,0
67660,-100,4,3,1,5,0,0
67735,-100,4,3,1,45,0,0
67810,-100,4,3,1,5,0,0
67885,-100,4,3,1,45,0,0
68110,-100,4,3,1,5,0,0
68185,-100,4,3,1,45,0,0
69010,-100,4,3,1,5,0,0
69085,-100,4,3,1,45,0,0
69160,-100,4,3,1,5,0,0
69235,-100,4,3,1,45,0,0
69310,-100,4,3,1,5,0,0
69385,-100,4,3,1,45,0,0
69460,-100,4,3,1,5,0,0
69535,-100,4,3,1,45,0,0
69610,-100,4,3,1,5,0,0
69685,-100,4,3,1,45,0,0
70360,-100,4,3,1,5,0,0
70435,-100,4,3,1,45,0,0
70510,-100,4,3,1,5,0,0
70585,-100,4,3,1,45,0,0
70660,-100,4,3,1,5,0,0
70735,-100,4,3,1,45,0,0
70810,-100,4,3,1,5,0,0
70885,-100,4,3,1,45,0,0
70960,-100,4,3,1,5,0,0
71035,-100,4,3,1,45,0,0
71110,-100,4,3,1,5,0,0
71185,-100,4,3,1,45,0,0

[Colours]
Combo1 : 128,0,128
Combo2 : 255,0,0
Combo3 : 0,128,255
Combo4 : 0,255,0
Combo5 : 255,0,128
Combo6 : 0,255,255

[HitObjects]
111,85,85,5,0,0:0:0:0:
122,180,235,1,0,0:0:0:0:
287,160,385,2,0,P|247:130|198:123,1,100,0|0,0:0|0:0,0:0:0:0:
298,255,685,2,0,P|343:236|374:197,1,100,0|0,0:0|0:0,0:0:0:0:
198,122,985,2,0,P|191:172|208:218,1,100
368,102,1285,6,0,L|286:160,1,100,0|0,0:0|0:0,0:0:0:0:
116,63,1585,2,0,L|197:121,1,100
307,257,1885,6,0,L|286:159,1,100,0|0,0:0|0:0,0:0:0:0:
218,24,2185,2,0,L|197:121,1,100,0|0,0:0|0:0,0:0:0:0:
286,159,2485,5,0,0:0:0:0:
116,63,2635,1,0,0:0:0:0:
306,65,2785,2,0,P|350:89|376:131,1,100,0|0,0:0|0:0,0:0:0:0:
263,251,3085,2,0,P|261:202|285:159,1,100,0|0,0:0|0:0,0:0:0:0:
332,318,3385,2,0,P|290:344|241:345,1,100,0|0,0:0|0:0,0:0:0:0:
186,171,3685,6,0,L|285:158,1,100,0|0,0:0|0:0,0:0:0:0:
425,44,3985,2,0,L|375:130,1,100,0|0,0:0|0:0,0:0:0:0:
285,157,4285,6,0,L|334:243,1,100,0|0,0:0|0:0,0:0:0:0:
425,270,4585,1,0,0:0:0:0:
375,356,4735,1,0,0:0:0:0:
217,274,4885,6,0,L|260:299,2,50,0|0|0,0:0|0:0|0:0,0:0:0:0:
104,208,5185,2,0,L|112:108,1,100,0|0,0:0|0:0,0:0:0:0:
217,274,5485,2,0,L|126:315,1,100,0|0,0:0|0:0,0:0:0:0:
104,208,5785,2,0,L|194:165,1,100,0|0,0:0|0:0,0:0:0:0:
334,243,6085,5,0,0:0:0:0:
219,95,6235,1,0,0:0:0:0:
421,176,6385,2,0,L|351:103,1,100,0|0,0:0|0:0,0:0:0:0:
163,178,6685,6,0,L|219:95,1,100,0|0,0:0|0:0,0:0:0:0:
408,21,6985,2,0,L|351:103,1,100,0|0,0:0|0:0,0:0:0:0:
259,275,7285,5,0,0:0:0:0:
288,194,7360,1,0,0:0:0:0:
327,207,7435,1,0,0:0:0:0:
168,295,7585,5,0,0:0:0:0:
351,103,7735,1,0,0:0:0:0:
357,298,7885,6,0,L|259:275,1,100,0|0,0:0|0:0,0:0:0:0:
327,207,8185,2,0,L|424:184,1,100,0|0,0:0|0:0,0:0:0:0:
237,178,8485,2,0,L|259:275,1,100,0|0,0:0|0:0,0:0:0:0:
327,207,8785,1,4,1:0:0:0:
327,207,9085,5,0,0:0:0:0:
196,87,9235,1,8,3:0:0:0:
173,142,9310,1,8,3:0:0:0:
197,196,9385,1,8,3:0:0:0:
204,255,9460,1,8,3:0:0:0:
158,293,9535,1,8,3:0:0:0:
102,271,9610,1,8,3:0:0:0:
105,210,9685,6,0,P|99:162|64:127,1,100
25,197,10135,1,0,0:0:0:0:
24,37,10285,2,0,P|71:25|117:42,1,100
181,96,10885,5,4,0:0:0:0:
263,92,11185,1,4,0:0:0:0:
412,44,11335,5,0,0:0:0:0:
412,44,11485,2,0,L|336:109,1,100
315,191,11935,1,0,0:0:0:0:
337,110,12085,2,0,L|137:97,1,200
61,121,12985,5,4,0:0:0:0:
27,193,13285,1,4,0:0:0:0:
59,265,13585,1,4,0:0:0:0:
231,215,13885,6,0,L|156:208,1,75.0000028610231
238,314,14185,2,0,L|293:263,1,75.0000028610231
311,169,14485,5,2,0:0:0:0:
345,331,14635,1,2,0:0:0:0:
420,189,14785,1,2,0:0:0:0:
281,292,14935,1,2,0:0:0:0:
469,301,15085,1,2,0:0:0:0:
269,226,15235,1,2,0:0:0:0:
460,227,15385,1,2,0:0:0:0:
345,331,15535,1,2,0:0:0:0:
338,111,15685,5,2,0:0:0:0:
188,191,15835,1,2,0:0:0:0:
426,177,15985,5,2,0:0:0:0:
275,105,16135,1,2,0:0:0:0:
268,226,16285,6,0,P|243:252|208:266,1,75.0000028610231
324,285,16585,1,0,0:0:0:0:
324,285,16735,2,0,P|349:217|308:153,1,150.000005722046
245,120,17185,5,4,0:0:0:0:
218,91,17335,1,0,0:0:0:0:
367,82,17485,5,4,0:0:0:0:
388,48,17635,1,0,0:0:0:0:
245,1,17785,5,4,0:0:0:0:
250,41,17935,1,0,0:0:0:0:
323,171,18085,5,4,0:0:0:0:
318,131,18235,1,0,0:0:0:0:
169,109,18385,5,4,0:0:0:0:
201,134,18535,1,0,0:0:0:0:
325,33,18685,5,4,0:0:0:0:
175,35,18835,1,0,0:0:0:0:
260,158,18985,1,4,0:0:0:0:
257,120,19135,1,0,0:0:0:0:
165,126,19285,6,0,L|259:157,1,100,0|4,0:0|0:0,0:0:0:0:
182,214,19735,1,0,0:0:0:0:
256,307,19885,2,0,L|256:207,1,100,0|4,0:0|0:0,0:0:0:0:
255,182,20335,1,0,0:0:0:0:
189,84,20485,5,4,0:0:0:0:
216,105,20635,1,0,0:0:0:0:
161,241,20785,5,4,0:0:0:0:
182,214,20935,1,0,0:0:0:0:
354,170,21085,6,0,L|254:182,1,100,4|4,0:0|0:0,0:0:0:0:
267,99,21535,1,0,0:0:0:0:
182,214,21685,2,0,L|192:64,1,150,4|0,0:0|0:0,0:0:0:0:
103,101,22285,5,4,0:0:0:0:
82,128,22435,1,0,0:0:0:0:
196,193,22585,5,4,0:0:0:0:
184,161,22735,1,0,0:0:0:0:
275,120,22885,5,4,0:0:0:0:
309,126,23035,1,0,0:0:0:0:
206,44,23185,5,4,0:0:0:0:
172,37,23335,1,0,0:0:0:0:
146,234,23485,6,0,L|220:226,1,75,4|0,0:0|0:0,0:0:0:0:
275,120,23785,2,0,L|200:125,1,75,4|0,0:0|0:0,0:0:0:0:
50,138,24085,5,8,1:0:0:0:
50,138,24385,1,0,0:0:0:0:
421,195,24685,5,8,1:0:0:0:
421,195,24985,1,0,0:0:0:0:
189,27,25285,5,8,1:0:0:0:
189,27,25585,1,0,0:0:0:0:
316,298,25885,5,8,1:0:0:0:
316,298,26185,1,0,0:0:0:0:
364,130,26485,5,12,1:0:0:0:
364,130,26785,1,0,0:0:0:0:
110,259,27085,5,8,1:0:0:0:
110,259,27385,1,0,0:0:0:0:
386,259,27685,5,8,1:0:0:0:
386,259,27985,1,0,0:0:0:0:
102,120,28285,6,0,L|169:153,1,75,8|0,1:0|0:0,0:0:0:0:
321,121,28585,2,0,L|254:86,1,75
138,38,28885,5,8,0:0:0:0:
299,343,29185,1,8,0:0:0:0:
315,47,29485,1,8,0:0:0:0:
148,239,29785,1,8,0:0:0:0:
411,161,30085,1,8,0:0:0:0:
143,117,30385,1,8,0:0:0:0:
372,290,30685,1,8,0:0:0:0:
196,117,30985,1,8,0:0:0:0:
429,189,31285,5,8,1:0:0:0:
196,117,31435,1,8,1:0:0:0:
372,290,31585,1,8,1:0:0:0:
338,42,31735,1,8,1:0:0:0:
124,215,31885,1,8,1:0:0:0:
429,189,32035,1,8,1:0:0:0:
196,117,32185,1,8,1:0:0:0:
393,179,32335,1,8,1:0:0:0:
169,106,32485,5,12,0:3:0:0:
119,212,33685,6,0,L|167:202,1,50,4|0,2:3|0:0,0:0:0:0:
376,214,33835,2,0,L|327:223,1,50
253,89,33985,6,0,L|233:135,1,50
242,337,34135,2,0,L|261:290,1,50
386,96,34285,6,0,L|374:144,1,50,8|0,0:0|0:0,0:0:0:0:
418,187,34435,2,0,L|375:213,1,50
376,274,34585,2,0,L|327:262,1,50
284,236,34735,6,0,L|326:262,1,50
460,213,34885,2,0,L|417:186,1,50
266,85,35035,1,4,0:0:0:0:
375,213,35185,2,0,L|342:175,1,50,4|0,0:0|0:0,0:0:0:0:
260,35,35335,2,0,L|265:84,1,50
332,311,35485,6,0,L|326:261,1,50,8|0,0:0|0:0,0:0:0:0:
375,213,35635,2,0,L|342:175,1,50
358,106,35785,2,0,L|309:92,1,50
281,28,35935,2,0,L|233:44,1,50
91,224,36085,6,0,L|113:179,1,50,4|0,0:0|0:0,0:0:0:0:
158,105,36235,1,0,0:0:0:0:
46,64,36385,6,0,L|73:105,1,50,4|0,0:0|0:0,0:0:0:0:
112,179,36535,1,0,0:0:0:0:
208,104,36685,6,0,L|158:106,1,50,8|0,0:0|0:0,0:0:0:0:
62,182,36835,2,0,L|111:179,1,50
130,64,36985,6,0,L|157:105,1,50
139,219,37135,2,0,L|111:177,1,50
385,85,37285,6,0,L|341:175,1,100
76,355,37585,2,0,L|140:219,1,150,4|0,0:0|0:0,0:0:0:0:
341,175,37885,6,8,L|295:153,1,50,8|0,0:0|0:0,0:0:0:0:
112,178,38035,2,0,L|157:199,1,50
386,154,38185,6,0,L|340:175,1,50
67,199,38335,2,0,L|112:177,1,50
347,0,38485,2,0,L|341:99,1,100,4|0,0:3|0:0,0:0:0:0:
155,249,38785,6,0,L|157:199,1,50
111,177,38935,2,0,L|141:137,1,50
117,93,39085,1,8,0:0:0:0:
111,177,39235,6,0,L|141:137,1,50
154,249,39385,2,0,L|156:199,1,50
230,283,39535,2,0,L|203:240,1,50
111,177,39685,2,0,L|141:137,1,50
208,66,39835,5,4,0:0:0:0:
203,240,39985,1,4,0:0:0:0:
412,147,40135,2,0,L|367:124,1,50
347,251,40285,6,0,L|370:201,1,50,8|0,0:0|0:0,0:0:0:0:
331,183,40435,2,0,L|382:164,1,50
367,124,40585,2,0,L|416:147,1,50
434,107,40735,2,0,L|452:158,1,50
195,142,40885,6,0,L|300:121,1,100,4|0,0:0|0:0,0:0:0:0:
445,231,41185,2,0,L|340:252,1,100,4|0,0:0|0:0,0:0:0:0:
262,83,41485,6,0,L|302:134,1,50,8|0,0:0|0:0,0:0:0:0:
377,289,41635,2,0,L|337:238,1,50
126,208,41785,6,0,L|181:190,1,50
131,274,41935,2,0,L|157:222,1,50
181,317,42085,2,0,L|163:262,1,50
157,144,42235,6,0,L|172:191,1,50
275,284,42385,2,0,L|176:317,1,100,4|4,0:3|0:0,0:0:0:0:
244,189,42610,1,0,0:0:0:0:
244,189,42685,2,0,L|258:236,1,50,8|0,0:0|0:0,0:0:0:0:
289,331,42835,6,0,L|274:283,1,50
296,154,42985,6,0,L|273:198,1,50
354,171,43135,2,0,L|306:186,1,50
227,298,43285,2,0,L|275:283,1,50,4|0,0:0|0:0,0:0:0:0:
382,250,43435,1,0,0:0:0:0:
167,170,43585,6,0,L|200:222,1,50
322,111,43735,2,0,L|289:163,1,50
382,250,43885,5,8,0:0:0:0:
167,170,44035,1,0,0:0:0:0:
322,111,44185,2,0,L|262:204,1,100,4|0,0:0|0:0,0:0:0:0:
472,291,44485,2,0,L|372:245,1,100,0|4,0:0|0:0,0:0:0:0:
268,194,44785,1,4,0:0:0:0:
307,384,44935,6,0,L|267:352,1,50
102,306,45085,2,0,L|142:274,1,50,8|0,0:0|0:0,0:0:0:0:
307,225,45235,2,0,L|267:193,1,50
102,144,45385,2,0,L|142:112,1,50
307,63,45535,2,0,L|267:31,1,50
24,206,45685,6,0,L|102:143,1,100,4|0,0:0|0:0,0:0:0:0:
385,125,45985,2,0,L|306:62,1,100,4|0,0:0|0:0,0:0:0:0:
108,192,46285,2,0,L|101:142,1,50,8|0,0:0|0:0,0:0:0:0:
167,195,46435,2,0,L|127:164,1,50
210,155,46585,2,0,L|160:161,1,50
213,96,46735,2,0,L|182:135,1,50
173,53,46885,6,0,L|179:102,1,50
108,192,47035,2,0,L|101:142,1,50
309,142,47185,2,0,L|209:154,1,100,4|0,0:0|0:0,0:0:0:0:
52,131,47485,6,0,L|105:143,1,50,8|0,0:0|0:0,0:0:0:0:
357,153,47635,2,0,L|304:141,1,50
184,4,47785,6,0,L|172:57,1,50
96,240,47935,2,0,L|108:187,1,50
271,68,48085,2,0,L|172:52,1,100,4|0,0:0|0:0,0:0:0:0:
388,192,48385,6,0,L|353:148,1,50
348,242,48535,2,0,L|354:186,1,50
284,249,48685,1,8,0:0:0:0:
362,103,48835,6,0,L|356:158,1,50
278,298,48985,2,0,L|283:248,1,50
194,103,49135,2,0,L|188:158,1,50
110,298,49285,2,0,L|115:248,1,50
362,103,49435,5,4,0:0:0:0:
278,298,49585,1,4,0:0:0:0:
194,103,49735,2,0,L|188:158,1,50
110,298,49885,6,0,L|115:248,1,50,8|0,0:0|0:0,0:0:0:0:
70,241,50035,2,0,L|108:209,1,50
82,172,50185,2,0,L|131:177,1,50
139,131,50335,2,0,L|170:169,1,50
432,32,50485,6,0,L|361:102,1,100,4|0,0:0|0:0,0:0:0:0:
123,32,50785,2,0,L|193:102,1,100,4|0,0:0|0:0,0:0:0:0:
410,112,51085,6,0,L|360:102,1,50,8|0,0:0|0:0,0:0:0:0:
144,112,51235,2,0,L|193:102,1,50
343,178,51385,6,0,L|315:136,1,50
211,178,51535,2,0,L|238:136,1,50
410,112,51685,5,0,0:0:0:0:
144,112,51835,1,0,0:0:0:0:
343,178,51985,5,4,0:0:0:0:
211,178,52135,1,4,0:0:0:0:
311,250,52285,5,4,2:3:0:0:
244,250,52485,1,4,2:3:0:0:
327,250,52685,5,4,2:3:0:0:
227,250,52885,1,4,0:0:0:0:
343,178,53035,6,0,L|379:184,1,37.5000014305115
211,178,53185,2,0,L|174:184,1,37.5000014305115
327,250,53335,6,0,L|290:243,1,37.5000014305115
227,250,53485,2,0,L|263:243,1,37.5000014305115,8|0,0:0|0:0,0:0:0:0:
278,103,53635,6,0,L|278:150,1,37.5000014305115
279,89,53785,1,4,0:0:0:0:
227,287,53935,6,0,L|227:249,1,37.5000014305115
327,212,54085,6,0,L|327:249,1,37.5000014305115
140,165,54235,1,4,0:0:0:0:
400,186,54385,1,4,0:0:0:0:
278,103,54535,2,0,L|278:140,1,37.5000014305115
216,60,54685,6,0,L|280:104,1,75,8|0,0:0|1:0,0:0:0:0:
400,186,54985,1,6,2:0:0:0:
278,140,55060,2,0,L|278:115,1,25,6|0,2:0|0:0,0:0:0:0:
384,233,55285,6,0,L|399:185,1,50,4|0,0:0|0:0,0:0:0:0:
278,140,55435,2,0,L|262:187,1,50
398,185,55585,5,4,0:0:0:0:
398,185,55735,2,0,L|413:137,1,50
278,140,55885,6,0,L|262:187,1,50,8|0,0:2|0:0,0:0:0:0:
383,232,56035,2,0,L|398:184,1,50
272,302,56185,2,0,L|316:279,1,50
140,285,56335,2,0,L|187:300,1,50
272,302,56485,6,0,L|316:279,1,50
383,232,56635,2,0,L|398:184,1,50
371,306,56785,6,0,L|271:301,1,100,4|0,0:0|0:0,0:0:0:0:
249,178,57085,2,0,L|298:180,1,50,8|0,0:0|0:0,0:0:0:0:
396,179,57235,2,0,L|346:181,1,50
272,133,57385,6,0,L|249:177,1,50
249,346,57535,2,0,L|271:301,1,50
248,177,57685,2,0,L|347:181,1,100,4|0,0:0|0:0,0:0:0:0:
176,169,57985,6,0,L|200:125,1,50
342,315,58135,2,0,L|317:358,1,50
132,145,58285,6,0,L|176:169,1,50,8|0,0:0|0:0,0:0:0:0:
386,339,58435,2,0,L|342:315,1,50
271,310,58585,6,0,L|346:180,1,150
226,82,58885,2,0,L|175:168,1,100,0|4,0:0|0:0,0:0:0:0:
346,180,59185,1,4,0:0:0:0:
125,164,59335,2,0,L|174:167,1,50
371,289,59485,6,0,L|307:275,1,50,8|0,0:0|0:0,0:0:0:0:
136,257,59635,2,0,L|200:243,1,50
371,225,59785,2,0,L|307:211,1,50
136,193,59935,2,0,L|200:179,1,50
359,121,60085,6,0,L|314:233,1,100,4|0,0:0|0:0,0:0:0:0:
147,339,60385,2,0,L|184:246,1,100,4|0,0:0|0:0,0:0:0:0:
204,46,60685,6,0,L|203:101,1,50,8|0,0:0|0:0,0:0:0:0:
128,121,60835,2,0,L|150:174,1,50
321,213,60985,6,0,L|266:214,1,50
246,289,61135,2,0,L|193:267,1,50
81,140,61285,6,0,L|134:118,1,50
154,45,61435,2,0,L|209:45,1,50
420,214,61585,2,0,L|310:212,1,100,4|4,0:0|0:0,0:0:0:0:
118,188,61885,6,0,L|187:161,1,50,8|0,0:0|0:0,0:0:0:0:
156,287,62035,2,0,L|197:225,1,50
232,3,62185,6,0,L|190:64,1,50
292,253,62335,2,0,L|333:191,1,50
214,124,62485,5,4,0:0:0:0:
412,103,62635,2,0,L|365:120,1,50
175,92,62785,2,0,L|213:123,1,50
283,302,62935,2,0,L|291:252,1,50
156,287,63085,6,0,L|196:257,1,50,8|0,0:0|0:0,0:0:0:0:
112,241,63235,2,0,L|161:249,1,50
124,178,63385,2,0,L|174:91,1,100,4|0,0:0|0:0,0:0:0:0:
210,128,63685,6,0,L|222:176,1,50
365,120,63835,1,4,0:0:0:0:
161,249,63985,1,4,0:0:0:0:
327,136,64135,2,0,L|280:166,1,50
99,221,64285,6,0,L|133:159,1,50,8|0,0:0|0:0,0:0:0:0:
234,84,64435,2,0,L|200:146,1,50
192,273,64585,2,0,L|215:228,1,50
327,136,64735,2,0,L|293:198,1,50
99,221,64885,5,4,0:0:0:0:
234,84,65035,2,0,L|200:146,1,50
192,273,65185,5,4,0:0:0:0:
327,136,65335,2,0,L|293:198,1,50
85,125,65485,6,0,L|135:151,1,50,8|0,0:0|0:0,0:0:0:0:
99,221,65635,2,0,L|155:218,1,50
363,170,65785,6,0,L|319:129,1,50
424,100,65935,2,0,L|365:86,1,50
221,35,66085,6,0,L|233:83,1,50
287,351,66235,2,0,L|274:302,1,50
326,135,66385,2,0,L|237:181,1,100,4|0,0:0|0:0,0:0:0:0:
274,302,66685,1,8,0:0:0:0:
233,83,66835,6,0,L|245:131,1,50
339,86,66985,2,0,L|325:134,1,50
429,141,67135,2,0,L|393:176,1,50
185,255,67285,2,0,L|273:301,1,100,4|0,0:0|0:0,0:0:0:0:
476,338,67585,6,0,L|427:324,1,50
479,233,67735,2,0,L|430:245,1,50
185,255,67885,1,8,0:0:0:0:
339,86,68035,2,0,L|325:134,1,50
103,9,68185,6,0,L|150:112,1,100
226,164,68485,2,0,L|184:254,1,100,0|4,0:0|0:0,0:0:0:0:
144,99,68785,1,4,0:0:0:0:
196,303,68935,2,0,L|183:250,1,50
38,102,69085,6,0,L|87:149,1,50,8|0,0:0|0:0,0:0:0:0:
226,164,69235,2,0,L|177:211,1,50
32,206,69385,2,0,L|81:253,1,50
232,268,69535,2,0,L|183:315,1,50
321,134,69685,6,0,L|217:166,1,100,4|0,0:0|0:0,0:0:0:0:
136,297,69985,2,0,L|231:267,1,100,4|0,0:0|0:0,0:0:0:0:
178,144,70285,6,0,L|231:165,1,50,8|0,0:0|0:0,0:0:0:0:
278,286,70435,2,0,L|225:265,1,50
176,94,70585,6,0,L|178:151,1,50
265,73,70735,2,0,L|238:123,1,50
65,209,70885,6,0,L|115:235,1,50
86,298,71035,2,0,L|143:296,1,50
400,264,71185,5,4,0:3:0:0:
177,143,71335,1,4,0:3:0:0:
288,192,71485,5,4,2:3:0:0:
237,226,71685,1,4,2:3:0:0:
186,261,71885,1,4,2:3:0:0:
135,296,72085,1,4,2:3:0:0:
