osu file format v14

[General]
AudioFilename: mr bomb ytpmv [ALV8CbrqmQc].mp3
AudioLeadIn: 0
PreviewTime: 381
Countdown: 0
SampleSet: Normal
StackLeniency: 0.7
Mode: 1
LetterboxInBreaks: 0
WidescreenStoryboard: 1

[Editor]
DistanceSpacing: 0.8
BeatDivisor: 4
GridSize: 32
TimelineZoom: 1.399999

[Metadata]
Title:mr bomb ytpmv
TitleUnicode:mr bomb ytpmv
Artist:thepowerofdiarrhea
ArtistUnicode:thepowerofdiarrhea
Creator:meiqth
Version:oni
Source:
Tags:TriforceOfDiarrhea Squid Game vs. MrBeast Rap Battle! ft. feat. Cam Steady & and Mike Choe electronic Artificial Intelligence Bomb NARUTO Chiptune youtube poop music video freshy kanal novelty chiptune english instrumental ai el bombito 8-bit 8bit naruto2413
BeatmapID:4356558
BeatmapSetID:1901056

[Difficulty]
HPDrainRate:7.5
CircleSize:2
OverallDifficulty:6
ApproachRate:10
SliderMultiplier:1.7
SliderTickRate:1

[Events]
//Background and Video events
0,0,"oldretroBG.jpg",0,0
//Break Periods
//Storyboard Layer 0 (Background)
//Storyboard Layer 1 (Fail)
//Storyboard Layer 2 (Pass)
//Storyboard Layer 3 (Foreground)
//Storyboard Layer 4 (Overlay)
//Storyboard Sound Samples

[TimingPoints]
398,399.334442595674,4,1,0,45,1,0
398,-111.111111111111,4,1,0,45,0,0
3598,-111.111111111111,4,1,0,48,0,0
6654,-92.9368029739777,4,1,0,48,0,0
6787,-92.9368029739777,4,1,0,55,0,1
13158,-83.8926174496644,4,1,0,55,0,1
16371,-83.8926174496644,4,1,0,55,0,0
19566,-92.936806,4,1,0,55,0,1
25908,-83.8926174496644,4,1,0,55,0,1
29150,-83.8926174496644,4,1,0,55,0,0
30747,-84.0336134453781,4,1,0,55,0,0
30947,-76.9230769230769,4,1,0,55,0,1
31546,-76.9230769230769,4,1,0,55,0,0

[HitObjects]
256,192,398,5,0,0:0:0:0:
256,192,597,1,8,0:0:0:0:
256,192,697,1,8,0:0:0:0:
256,192,897,1,8,0:0:0:0:
256,192,1096,1,0,0:0:0:0:
256,192,1396,1,0,0:0:0:0:
256,192,1596,1,0,0:0:0:0:
256,192,1795,1,8,0:0:0:0:
256,192,1995,1,0,0:0:0:0:
256,192,2195,1,8,0:0:0:0:
256,192,2294,1,0,0:0:0:0:
256,192,2494,1,8,0:0:0:0:
256,192,2694,1,0,0:0:0:0:
256,192,2993,1,0,0:0:0:0:
256,192,3193,1,0,0:0:0:0:
256,192,3393,1,0,0:0:0:0:
256,192,3592,1,8,0:0:0:0:
256,192,3792,1,8,0:0:0:0:
256,192,3892,1,0,0:0:0:0:
256,192,3992,1,0,0:0:0:0:
256,192,4091,1,8,0:0:0:0:
256,192,4291,1,8,0:0:0:0:
256,192,4591,1,0,0:0:0:0:
256,192,4790,1,8,0:0:0:0:
256,192,4890,1,8,0:0:0:0:
256,192,4990,1,8,0:0:0:0:
256,192,5190,1,0,0:0:0:0:
256,192,5389,1,8,0:0:0:0:
256,192,5489,1,0,0:0:0:0:
256,192,5689,1,8,0:0:0:0:
256,192,5888,1,8,0:0:0:0:
256,192,6388,1,4,0:0:0:0:
256,192,6787,1,8,0:0:0:0:
256,192,6987,1,8,0:0:0:0:
256,192,7086,1,0,0:0:0:0:
256,192,7286,1,8,0:0:0:0:
256,192,7386,1,8,0:0:0:0:
256,192,7586,1,0,0:0:0:0:
256,192,7685,1,0,0:0:0:0:
256,192,7785,1,8,0:0:0:0:
256,192,7885,1,8,0:0:0:0:
256,192,7985,1,0,0:0:0:0:
256,192,8085,1,8,0:0:0:0:
256,192,8284,1,8,0:0:0:0:
256,192,8384,1,0,0:0:0:0:
256,192,8584,1,8,0:0:0:0:
256,192,8684,1,8,0:0:0:0:
256,192,8784,1,8,0:0:0:0:
256,192,8983,1,0,0:0:0:0:
256,192,9183,1,8,0:0:0:0:
256,192,9383,1,8,0:0:0:0:
256,192,9482,1,8,0:0:0:0:
256,192,9682,1,0,0:0:0:0:
256,192,9782,1,8,0:0:0:0:
256,192,9882,1,8,0:0:0:0:
256,192,9982,1,0,0:0:0:0:
256,192,10181,1,0,0:0:0:0:
256,192,10281,1,8,0:0:0:0:
256,192,10481,1,0,0:0:0:0:
256,192,10581,1,0,0:0:0:0:
256,192,10680,1,0,0:0:0:0:
256,192,10780,1,8,0:0:0:0:
256,192,10980,1,0,0:0:0:0:
256,192,11180,1,8,0:0:0:0:
256,192,11579,1,12,0:0:0:0:
256,192,11779,1,0,0:0:0:0:
256,192,11878,1,8,0:0:0:0:
256,192,12078,1,0,0:0:0:0:
256,192,12178,1,8,0:0:0:0:
256,192,12378,1,12,0:0:0:0:
256,192,12577,1,0,0:0:0:0:
256,192,12677,1,8,0:0:0:0:
256,192,12877,1,0,0:0:0:0:
256,192,12977,1,8,0:0:0:0:
256,192,13176,1,8,0:0:0:0:
256,192,13376,1,0,0:0:0:0:
256,192,13476,1,8,0:0:0:0:
256,192,13576,1,8,0:0:0:0:
256,192,13675,1,8,0:0:0:0:
256,192,13775,1,0,0:0:0:0:
256,192,13975,1,8,0:0:0:0:
256,192,14175,1,8,0:0:0:0:
256,192,14274,1,0,0:0:0:0:
256,192,14374,1,0,0:0:0:0:
256,192,14474,1,0,0:0:0:0:
256,192,14574,1,8,0:0:0:0:
256,192,14774,1,0,0:0:0:0:
256,192,14973,1,8,0:0:0:0:
256,192,15073,1,0,0:0:0:0:
256,192,15173,1,8,0:0:0:0:
256,192,15273,1,0,0:0:0:0:
256,192,15472,1,8,0:0:0:0:
256,192,15672,1,0,0:0:0:0:
256,192,15772,1,0,0:0:0:0:
256,192,15972,1,8,0:0:0:0:
256,192,16171,1,0,0:0:0:0:
256,192,16271,1,0,0:0:0:0:
256,192,16371,1,8,0:0:0:0:
256,192,16571,1,8,0:0:0:0:
256,192,16670,1,8,0:0:0:0:
256,192,16770,1,0,0:0:0:0:
256,192,16870,1,8,0:0:0:0:
256,192,16970,1,0,0:0:0:0:
256,192,17170,1,8,0:0:0:0:
256,192,17369,1,0,0:0:0:0:
256,192,17469,1,0,0:0:0:0:
256,192,17569,1,8,0:0:0:0:
256,192,17769,1,8,0:0:0:0:
256,192,17968,1,0,0:0:0:0:
256,192,18168,1,8,0:0:0:0:
256,192,18268,1,0,0:0:0:0:
256,192,18368,1,8,0:0:0:0:
256,192,18467,1,8,0:0:0:0:
256,192,18667,1,8,0:0:0:0:
256,192,18767,1,0,0:0:0:0:
256,192,18867,1,8,0:0:0:0:
256,192,19066,1,0,0:0:0:0:
256,192,19566,1,8,0:0:0:0:
256,192,19765,1,0,0:0:0:0:
256,192,19865,1,8,0:0:0:0:
256,192,20065,1,0,0:0:0:0:
256,192,20165,1,0,0:0:0:0:
256,192,20364,1,8,0:0:0:0:
256,192,20464,1,0,0:0:0:0:
256,192,20564,1,8,0:0:0:0:
256,192,20664,1,0,0:0:0:0:
256,192,20764,1,8,0:0:0:0:
256,192,20863,1,8,0:0:0:0:
256,192,21063,1,0,0:0:0:0:
256,192,21163,1,0,0:0:0:0:
256,192,21363,1,8,0:0:0:0:
256,192,21462,1,0,0:0:0:0:
256,192,21562,1,8,0:0:0:0:
256,192,21762,1,0,0:0:0:0:
256,192,21962,1,8,0:0:0:0:
256,192,22161,1,8,0:0:0:0:
256,192,22261,1,0,0:0:0:0:
256,192,22461,1,8,0:0:0:0:
256,192,22561,1,0,0:0:0:0:
256,192,22660,1,0,0:0:0:0:
256,192,22760,1,8,0:0:0:0:
256,192,22960,1,0,0:0:0:0:
256,192,23060,1,0,0:0:0:0:
256,192,23259,1,8,0:0:0:0:
256,192,23359,1,0,0:0:0:0:
256,192,23459,1,0,0:0:0:0:
256,192,23559,1,8,0:0:0:0:
256,192,23759,1,0,0:0:0:0:
256,192,23958,1,8,0:0:0:0:
256,192,24358,1,12,0:0:0:0:
256,192,24557,1,0,0:0:0:0:
256,192,24657,1,8,0:0:0:0:
256,192,24857,1,0,0:0:0:0:
256,192,24957,1,8,0:0:0:0:
256,192,25156,1,12,0:0:0:0:
256,192,25356,1,0,0:0:0:0:
256,192,25456,1,8,0:0:0:0:
256,192,25655,1,0,0:0:0:0:
256,192,25755,1,8,0:0:0:0:
256,192,25955,1,8,0:0:0:0:
256,192,26155,1,0,0:0:0:0:
256,192,26254,1,8,0:0:0:0:
256,192,26354,1,0,0:0:0:0:
256,192,26454,1,0,0:0:0:0:
256,192,26554,1,8,0:0:0:0:
256,192,26754,1,0,0:0:0:0:
256,192,26953,1,8,0:0:0:0:
256,192,27053,1,0,0:0:0:0:
256,192,27153,1,8,0:0:0:0:
256,192,27253,1,8,0:0:0:0:
256,192,27353,1,0,0:0:0:0:
256,192,27552,1,8,0:0:0:0:
256,192,27752,1,0,0:0:0:0:
256,192,27852,1,8,0:0:0:0:
256,192,27952,1,0,0:0:0:0:
256,192,28051,1,8,0:0:0:0:
256,192,28251,1,8,0:0:0:0:
256,192,28351,1,0,0:0:0:0:
256,192,28451,1,0,0:0:0:0:
256,192,28551,1,0,0:0:0:0:
256,192,28650,1,0,0:0:0:0:
256,192,28750,1,8,0:0:0:0:
256,192,28950,1,0,0:0:0:0:
256,192,29150,1,8,0:0:0:0:
256,192,29249,1,8,0:0:0:0:
256,192,29349,1,8,0:0:0:0:
256,192,29449,1,8,0:0:0:0:
256,192,29549,1,0,0:0:0:0:
256,192,29749,1,8,0:0:0:0:
256,192,29948,1,0,0:0:0:0:
256,192,30048,1,0,0:0:0:0:
256,192,30148,1,0,0:0:0:0:
256,192,30248,1,0,0:0:0:0:
256,192,30348,1,8,0:0:0:0:
256,192,30547,1,0,0:0:0:0:
256,192,30947,5,12,0:0:0:0:
256,192,31246,1,12,0:0:0:0:
256,192,31546,1,12,0:0:0:0:
256,192,31945,1,4,0:0:0:0:
