osu file format v14

[General]
AudioFilename: audio.mp3
AudioLeadIn: 0
PreviewTime: 80409
Countdown: 0
SampleSet: Soft
StackLeniency: 0.7
Mode: 0
LetterboxInBreaks: 0
WidescreenStoryboard: 0

[Editor]
DistanceSpacing: 0.5
BeatDivisor: 4
GridSize: 16
TimelineZoom: 2.5

[Metadata]
Title:Catastrophic Dance
TitleUnicode:Catastrophic Dance
Artist:the wandering bard feat. Akiko Shikata
ArtistUnicode:the wandering bard feat. 志方あきこ
Creator:-Light-
Version:Special
Source:REFLEC BEAT 悠久のリフレシア
Tags:TOMOSUKE DJ TOTTO Reflesia of Eternity
BeatmapID:1744996
BeatmapSetID:833029

[Difficulty]
HPDrainRate:6
CircleSize:4.2
OverallDifficulty:9
ApproachRate:9.5
SliderMultiplier:2.2
SliderTickRate:1

[Events]
//Background and Video events
0,0,"Konachan.com - 269606 blush futoshi_ame long_hair original purple_eyes white_hair.jpg",0,0
//Break Periods
2,27644,30229
2,100471,101815
//Storyboard Layer 0 (Background)
//Storyboard Layer 1 (Fail)
//Storyboard Layer 2 (Pass)
//Storyboard Layer 3 (Foreground)
//Storyboard Sound Samples

[TimingPoints]
1024,413.793103448276,4,2,0,60,1,0
7582,413.793103448276,4,2,0,60,1,0
7582,-133.333333333333,4,2,0,60,0,0
10064,-100,4,2,0,60,0,0
10892,-133.333333333333,4,2,0,60,0,0
12547,-100,4,2,0,60,0,0
17513,-66.6666666666667,4,2,0,60,0,0
17926,-100,4,2,0,60,0,0
27444,-133.333333333333,4,2,0,60,0,0
34064,-83.3333333333333,4,2,0,60,0,0
43995,-76.9230769230769,4,2,0,60,0,0
47306,-83.3333333333333,4,2,0,60,0,0
66754,-50,4,2,0,60,0,0
68202,-100,4,2,0,60,0,0
78754,-80,4,2,0,60,0,0
80409,-66.6666666666667,4,2,0,60,0,1
92409,-50,4,2,0,60,0,1
92823,-66.6666666666667,4,2,0,60,0,1
98616,-40,4,2,0,60,0,1
99547,-50,4,2,0,60,0,1
99858,-66.6666666666667,4,2,0,60,0,1
100271,-100,4,2,0,60,0,0
106892,-66.6666666666667,4,2,0,60,0,1
110202,-33.3333333333333,4,2,0,60,0,1
111857,-66.6666666666667,4,2,0,60,0,0

[Colours]
Combo1 : 228,120,213
Combo2 : 103,100,230
Combo3 : 99,228,216
Combo4 : 94,69,192

[HitObjects]
256,192,5989,12,0,7437,0:0:0:0:
473,336,7582,6,0,P|435:324|379:336,1,82.5000031471254
345,240,7995,2,0,P|315:266|298:321,1,82.5000031471254
179,359,8409,6,0,P|204:326|213:286,1,82.5000031471254
112,289,8823,2,0,P|96:251|66:223,1,82.5000031471254
46,114,9237,6,0,P|78:139|118:148,1,82.5000031471254
185,14,9650,2,0,P|147:29|119:59,1,82.5000031471254
338,131,10064,6,0,P|296:104|229:112,1,110
293,266,10375,1,0,0:0:0:0:
301,282,10478,2,0,P|303:232|262:178,1,110
247,349,10892,6,0,P|287:370|334:362,1,82.5000031471254
354,225,11306,2,0,P|315:249|299:293,1,82.5000031471254
386,304,11719,6,0,P|424:279|440:235,1,82.5000031471254
331,150,12133,2,0,P|332:195|363:231,1,82.5000031471254
486,73,12547,6,0,P|445:88|372:69,1,110
202,37,12961,2,0,P|243:22|316:41,1,110
200,200,13375,6,0,P|207:156|260:103,1,110
322,272,13685,1,0,0:0:0:0:
344,277,13788,2,0,P|310:248|290:176,1,110
224,372,14202,6,0,L|297:353,1,55
112,324,14409,2,0,L|39:305,1,55
184,294,14616,5,0,0:0:0:0:
210,263,14719,1,0,0:0:0:0:
217,222,14822,1,0,0:0:0:0:
204,184,14926,1,0,0:0:0:0:
177,143,15030,5,0,0:0:0:0:
148,97,15133,1,0,0:0:0:0:
157,43,15236,1,0,0:0:0:0:
197,8,15340,1,0,0:0:0:0:
253,21,15444,2,0,P|259:49|257:75,3,55
342,102,15857,5,0,0:0:0:0:
375,78,15960,1,0,0:0:0:0:
416,76,16063,1,0,0:0:0:0:
451,96,16167,1,0,0:0:0:0:
471,131,16271,5,0,0:0:0:0:
422,153,16374,1,0,0:0:0:0:
398,201,16477,1,0,0:0:0:0:
410,253,16581,1,0,0:0:0:0:
469,292,16685,6,0,P|479:264|475:236,3,55
338,321,17099,2,0,P|335:348|345:373,3,55
286,205,17513,6,0,B|294:162|294:162|288:116,1,82.5000031471254
149,282,17719,2,0,B|143:320|143:320|151:363,1,82.5000031471254
221,156,17926,5,0,0:0:0:0:
183,140,18029,1,0,0:0:0:0:
142,146,18132,1,0,0:0:0:0:
110,172,18236,1,0,0:0:0:0:
95,209,18340,5,0,0:0:0:0:
138,242,18443,1,0,0:0:0:0:
191,253,18546,1,0,0:0:0:0:
244,239,18650,1,0,0:0:0:0:
285,204,18754,2,0,P|295:174|298:137,3,55
408,110,19168,5,0,0:0:0:0:
382,141,19271,1,0,0:0:0:0:
372,181,19374,1,0,0:0:0:0:
379,221,19478,1,0,0:0:0:0:
402,255,19581,5,0,0:0:0:0:
418,306,19685,1,0,0:0:0:0:
393,354,19788,1,0,0:0:0:0:
342,370,19892,1,0,0:0:0:0:
283,330,19995,6,0,P|312:306|335:300,3,55
195,371,20409,1,0,0:0:0:0:
141,379,20512,1,0,0:0:0:0:
93,354,20615,1,0,0:0:0:0:
68,306,20719,1,0,0:0:0:0:
75,253,20823,6,0,B|87:192|87:192|77:155|77:155|94:79,1,165
161,36,21237,1,0,0:0:0:0:
194,192,21444,1,0,0:0:0:0:
300,46,21650,5,0,0:0:0:0:
280,96,21753,1,0,0:0:0:0:
293,149,21856,1,0,0:0:0:0:
306,201,21961,1,0,0:0:0:0:
286,252,22064,2,0,L|219:269,1,55
376,285,22271,2,0,L|357:351,1,55
456,226,22478,6,0,B|434:101|486:147|468:46,1,165
406,1,22892,2,0,P|388:28|388:65,1,55
293,149,23099,2,0,P|307:178|339:196,1,55
276,51,23306,6,0,P|237:28|157:68,1,110
115,104,23616,1,0,0:0:0:0:
123,119,23719,2,0,P|153:132|194:124,1,55
67,202,23926,2,0,P|60:218|58:257,1,55
120,325,24133,5,0,0:0:0:0:
116,348,24237,1,0,0:0:0:0:
230,260,24444,1,0,0:0:0:0:
226,237,24548,1,0,0:0:0:0:
296,353,24754,1,0,0:0:0:0:
373,250,24961,5,0,0:0:0:0:
371,208,25064,1,0,0:0:0:0:
369,167,25167,1,0,0:0:0:0:
367,126,25271,1,0,0:0:0:0:
365,85,25375,2,0,L|370:27,1,55
262,167,25582,2,0,L|257:109,1,55
152,21,25788,5,0,0:0:0:0:
102,42,25891,1,0,0:0:0:0:
77,89,25994,1,0,0:0:0:0:
89,142,26098,1,0,0:0:0:0:
132,175,26202,5,0,0:0:0:0:
174,207,26306,1,0,0:0:0:0:
186,260,26410,1,0,0:0:0:0:
162,308,26513,1,0,0:0:0:0:
109,326,26616,5,0,0:0:0:0:
137,281,26719,1,0,0:0:0:0:
186,260,26822,1,0,0:0:0:0:
239,273,26926,1,0,0:0:0:0:
274,314,27029,5,0,0:0:0:0:
314,361,27134,1,0,0:0:0:0:
376,377,27237,1,0,0:0:0:0:
434,352,27341,1,0,0:0:0:0:
466,299,27444,5,0,0:0:0:0:
256,192,30754,12,0,33650,0:0:0:0:
342,343,34064,6,0,B|283:362|283:362|207:335,1,131.99999597168
360,156,34478,2,0,B|419:137|419:137|495:164,1,131.99999597168
281,278,34892,1,0,0:0:0:0:
271,246,34995,1,0,0:0:0:0:
273,213,35098,1,0,0:0:0:0:
426,32,35306,1,0,0:0:0:0:
449,54,35409,1,0,0:0:0:0:
461,85,35512,1,0,0:0:0:0:
459,117,35616,1,0,0:0:0:0:
444,146,35719,6,0,P|382:160|303:122,1,131.99999597168
261,81,36030,1,0,0:0:0:0:
245,67,36133,2,0,P|183:53|104:91,1,131.99999597168
186,273,36547,2,0,B|208:213|208:213|194:138,1,131.99999597168
114,336,36961,1,0,0:0:0:0:
139,356,37064,1,0,0:0:0:0:
170,366,37167,1,0,0:0:0:0:
203,364,37271,1,0,0:0:0:0:
233,350,37375,6,0,B|286:331|286:331|380:351,1,131.99999597168
511,208,37788,2,0,B|458:227|458:227|364:207,1,131.99999597168
112,159,38202,2,0,B|164:139|164:139|258:159,1,131.99999597168
389,16,38615,2,0,B|336:35|336:35|242:15,1,131.99999597168
179,9,38926,1,0,0:0:0:0:
168,26,39030,6,0,L|181:162,1,131.99999597168
269,223,39340,1,0,0:0:0:0:
291,232,39444,2,0,P|320:170|298:101,1,131.99999597168
319,338,39857,2,0,L|461:322,1,131.99999597168
204,187,40271,1,0,0:0:0:0:
160,165,40374,1,0,0:0:0:0:
111,166,40477,1,0,0:0:0:0:
68,191,40581,1,0,0:0:0:0:
42,232,40685,6,0,B|24:300|24:300|43:368,1,131.99999597168
282,250,41099,2,0,B|300:182|300:182|281:114,1,131.99999597168
176,369,41513,2,0,L|329:350,1,131.99999597168
475,147,41926,1,0,0:0:0:0:
425,144,42029,1,0,0:0:0:0:
385,173,42132,1,0,0:0:0:0:
370,219,42236,1,0,0:0:0:0:
385,266,42340,6,0,P|330:286|245:257,1,131.99999597168
199,199,42650,1,0,0:0:0:0:
190,182,42754,2,0,P|168:129|197:49,1,131.99999597168
368,23,43168,1,0,0:0:0:0:
244,122,43375,1,0,0:0:0:0:
475,147,43582,2,0,L|401:130,1,65.9999979858399
385,266,43788,2,0,L|459:249,1,65.9999979858399
329,342,43995,6,0,B|275:329|275:329|235:337|235:337|169:320,1,142.99999345398
48,211,44409,2,0,L|56:288,1,71.4999967269899
156,128,44616,2,0,L|163:56,1,71.4999967269899
210,224,44823,1,0,0:0:0:0:
315,93,45030,1,0,0:0:0:0:
278,108,45133,1,0,0:0:0:0:
353,235,45340,1,0,0:0:0:0:
401,264,45443,1,0,0:0:0:0:
457,263,45546,1,0,0:0:0:0:
505,233,45650,6,0,L|513:156,1,71.4999967269899
341,383,45857,2,0,L|333:306,1,71.4999967269899
381,145,46064,6,0,L|389:68,1,71.4999967269899
217,295,46271,2,0,L|209:218,1,71.4999967269899
229,47,46478,5,0,0:0:0:0:
166,16,46581,1,0,0:0:0:0:
101,40,46684,1,0,0:0:0:0:
75,104,46788,1,0,0:0:0:0:
103,168,46892,6,0,L|181:154,1,71.4999967269899
258,124,47099,2,0,L|296:133,2,35.749998363495
371,88,47306,6,0,B|384:150|384:150|368:227,1,131.99999597168
190,369,47719,1,0,0:0:0:0:
175,339,47822,1,0,0:0:0:0:
172,306,47925,1,0,0:0:0:0:
180,275,48029,1,0,0:0:0:0:
200,248,48133,2,0,L|273:265,1,65.9999979858399
370,217,48340,2,0,L|434:202,1,65.9999979858399
292,132,48547,5,0,0:0:0:0:
254,101,48650,1,0,0:0:0:0:
205,100,48753,1,0,0:0:0:0:
166,129,48857,1,0,0:0:0:0:
154,176,48961,6,0,B|100:198|100:198|20:176,1,131.99999597168
6,109,49271,1,0,0:0:0:0:
13,97,49375,1,0,0:0:0:0:
48,262,49582,1,0,0:0:0:0:
138,98,49788,2,0,L|134:23,1,65.9999979858399
226,240,49995,2,0,L|230:165,1,65.9999979858399
362,41,50202,5,0,0:0:0:0:
401,69,50305,1,0,0:0:0:0:
414,115,50408,1,0,0:0:0:0:
394,160,50512,1,0,0:0:0:0:
351,182,50616,6,0,P|322:238|367:307,1,131.99999597168
425,302,50926,1,0,0:0:0:0:
441,295,51030,1,0,0:0:0:0:
308,363,51237,1,0,0:0:0:0:
261,217,51444,1,0,0:0:0:0:
259,184,51547,1,0,0:0:0:0:
257,151,51650,1,0,0:0:0:0:
255,118,51754,1,0,0:0:0:0:
253,85,51857,5,0,0:0:0:0:
211,44,51960,1,0,0:0:0:0:
154,46,52063,1,0,0:0:0:0:
114,88,52167,1,0,0:0:0:0:
116,146,52271,6,0,L|159:155,2,32.99999899292
63,244,52478,2,0,L|20:252,2,32.99999899292
155,310,52685,5,0,0:0:0:0:
190,276,52788,1,0,0:0:0:0:
238,267,52891,1,0,0:0:0:0:
283,287,52995,1,0,0:0:0:0:
309,328,53098,5,0,0:0:0:0:
369,349,53202,1,0,0:0:0:0:
427,321,53306,2,0,L|434:279,2,32.99999899292
358,204,53513,2,0,L|351:161,2,32.99999899292
441,86,53719,2,0,L|447:43,2,32.99999899292
343,47,53926,6,0,B|296:20|296:20|211:41,1,131.99999597168
125,35,54237,1,0,0:0:0:0:
112,54,54340,2,0,L|128:131,1,65.9999979858399
200,189,54547,2,0,L|184:266,1,65.9999979858399
94,365,54754,6,0,L|231:344,1,131.99999597168
428,184,55168,1,0,0:0:0:0:
387,157,55271,1,0,0:0:0:0:
338,159,55374,1,0,0:0:0:0:
299,189,55478,1,0,0:0:0:0:
285,235,55582,6,0,L|296:307,1,65.9999979858399
406,377,55788,2,0,L|415:311,1,65.9999979858399
496,224,55995,1,0,0:0:0:0:
335,84,56202,1,0,0:0:0:0:
211,213,56409,5,0,0:0:0:0:
163,222,56512,1,0,0:0:0:0:
118,202,56615,1,0,0:0:0:0:
188,27,56823,1,0,0:0:0:0:
230,3,56926,1,0,0:0:0:0:
279,7,57029,1,0,0:0:0:0:
318,37,57133,1,0,0:0:0:0:
335,84,57237,6,0,L|322:153,1,65.9999979858399
382,235,57444,2,0,L|395:304,1,65.9999979858399
311,372,57650,1,0,0:0:0:0:
113,296,57857,1,0,0:0:0:0:
278,207,58064,5,0,0:0:0:0:
291,236,58167,1,0,0:0:0:0:
288,269,58270,1,0,0:0:0:0:
80,187,58478,1,0,0:0:0:0:
54,145,58581,1,0,0:0:0:0:
56,96,58684,1,0,0:0:0:0:
84,57,58788,1,0,0:0:0:0:
130,39,58892,6,0,L|291:64,1,131.99999597168
337,99,59202,1,0,0:0:0:0:
356,111,59306,2,0,L|419:95,1,65.9999979858399
425,225,59513,2,0,L|488:241,1,65.9999979858399
390,336,59719,5,0,0:0:0:0:
352,367,59822,1,0,0:0:0:0:
303,373,59925,1,0,0:0:0:0:
259,352,60029,1,0,0:0:0:0:
233,311,60132,5,0,0:0:0:0:
184,268,60236,1,0,0:0:0:0:
120,260,60339,1,0,0:0:0:0:
61,289,60443,1,0,0:0:0:0:
29,345,60547,6,0,L|23:196,1,131.99999597168
244,68,60961,2,0,B|264:129|264:129|241:202,1,131.99999597168
32,110,61375,1,0,0:0:0:0:
62,97,61478,1,0,0:0:0:0:
93,105,61581,1,0,0:0:0:0:
242,184,61788,1,0,0:0:0:0:
285,207,61891,1,0,0:0:0:0:
334,210,61994,1,0,0:0:0:0:
379,192,62098,1,0,0:0:0:0:
412,156,62202,6,0,L|402:87,1,65.9999979858399
487,278,62409,2,0,L|496:209,1,65.9999979858399
418,336,62616,5,0,0:0:0:0:
388,296,62719,1,0,0:0:0:0:
342,281,62822,1,0,0:0:0:0:
295,295,62926,1,0,0:0:0:0:
265,333,63030,5,0,0:0:0:0:
234,370,63133,1,0,0:0:0:0:
188,384,63237,1,0,0:0:0:0:
140,369,63340,1,0,0:0:0:0:
112,330,63443,5,0,0:0:0:0:
154,280,63547,1,0,0:0:0:0:
165,216,63650,1,0,0:0:0:0:
143,154,63754,1,0,0:0:0:0:
93,113,63857,6,0,L|90:183,1,65.9999979858399
251,213,64064,2,0,L|254:282,1,65.9999979858399
201,24,64271,2,0,L|197:93,1,65.9999979858399
358,123,64478,2,0,L|361:192,1,65.9999979858399
329,368,64685,6,0,L|325:298,1,65.9999979858399
486,269,64892,2,0,L|489:199,1,65.9999979858399
417,56,65099,1,0,0:0:0:0:
376,29,65202,1,0,0:0:0:0:
327,28,65305,1,0,0:0:0:0:
285,53,65409,1,0,0:0:0:0:
263,97,65513,5,0,0:0:0:0:
223,167,65616,1,0,0:0:0:0:
147,194,65719,1,0,0:0:0:0:
72,165,65823,1,0,0:0:0:0:
33,94,65926,5,0,0:0:0:0:
107,64,66029,1,0,0:0:0:0:
180,97,66132,1,0,0:0:0:0:
223,167,66236,1,0,0:0:0:0:
265,251,66340,5,0,0:0:0:0:
335,289,66444,1,0,0:0:0:0:
415,281,66547,2,0,L|447:274,2,32.99999899292
374,90,66754,6,0,B|351:144|351:144|361:199,1,110
159,345,66961,2,0,B|182:291|182:291|172:236,1,110
23,106,67168,6,0,B|94:84|94:84|252:107,1,220
290,207,67478,6,0,P|354:133|303:4,1,220
58,211,68306,6,0,L|65:279,1,55
216,275,68926,6,0,L|209:343,1,55
312,227,69133,2,0,L|319:295,1,55
428,335,69340,5,0,0:0:0:0:
415,300,69443,1,0,0:0:0:0:
420,263,69546,1,0,0:0:0:0:
438,233,69650,1,0,0:0:0:0:
469,132,69857,1,0,0:0:0:0:
433,151,69960,1,0,0:0:0:0:
392,157,70064,6,0,P|383:134|383:99,1,55
207,23,70478,6,0,L|213:81,1,55
188,165,70685,1,0,0:0:0:0:
199,179,70788,1,0,0:0:0:0:
207,195,70891,1,0,0:0:0:0:
211,213,70995,1,0,0:0:0:0:
211,231,71098,1,0,0:0:0:0:
206,249,71202,1,0,0:0:0:0:
197,265,71306,6,0,L|205:331,1,55
292,319,71513,1,0,0:0:0:0:
307,309,71616,1,0,0:0:0:0:
325,304,71719,1,0,0:0:0:0:
343,303,71823,1,0,0:0:0:0:
361,306,71926,1,0,0:0:0:0:
377,314,72030,1,0,0:0:0:0:
391,326,72133,6,0,L|396:260,1,55
466,197,72340,1,0,0:0:0:0:
464,169,72443,1,0,0:0:0:0:
462,142,72546,5,0,0:0:0:0:
440,107,72650,1,0,0:0:0:0:
402,94,72753,1,0,0:0:0:0:
363,106,72857,1,0,0:0:0:0:
340,139,72961,6,0,L|277:131,1,55
205,80,73168,1,0,0:0:0:0:
186,81,73271,1,0,0:0:0:0:
168,83,73374,1,0,0:0:0:0:
150,85,73478,1,0,0:0:0:0:
132,87,73581,1,0,0:0:0:0:
113,88,73685,1,0,0:0:0:0:
95,90,73788,5,0,0:0:0:0:
39,183,73995,5,0,0:0:0:0:
46,206,74099,1,0,0:0:0:0:
40,234,74202,2,0,L|168:222,1,110
239,188,74513,1,0,0:0:0:0:
254,211,74616,6,0,B|234:257|234:257|241:319,1,110
330,336,74926,1,0,0:0:0:0:
399,367,75030,2,0,P|409:338|403:303,1,55
361,228,75237,2,0,P|351:199|357:164,1,55
342,37,75444,6,0,P|287:20|229:46,1,110
201,116,75754,1,0,0:0:0:0:
271,153,75857,2,0,P|284:122|285:93,1,55
198,198,76064,1,0,0:0:0:0:
200,211,76167,1,0,0:0:0:0:
202,225,76270,1,0,0:0:0:0:
286,328,76478,5,0,0:0:0:0:
301,305,76581,1,0,0:0:0:0:
304,278,76684,1,0,0:0:0:0:
294,252,76788,1,0,0:0:0:0:
128,331,76995,1,0,0:0:0:0:
194,370,77099,6,0,L|322:359,1,110
373,302,77409,1,0,0:0:0:0:
448,341,77513,2,0,P|456:309|455:284,1,55
397,200,77719,2,0,P|389:168|390:143,1,55
448,47,77926,6,0,B|419:33|419:33|327:39,1,110
253,120,78237,2,0,P|278:132|312:131,1,55
202,31,78444,2,0,B|204:24|177:19|143:20,1,55
84,94,78650,1,0,0:0:0:0:
63,126,78754,6,0,L|72:203,1,68.75
57,294,78961,1,0,0:0:0:0:
80,260,79064,1,0,0:0:0:0:
116,242,79167,1,0,0:0:0:0:
158,243,79271,1,0,0:0:0:0:
193,263,79374,1,0,0:0:0:0:
215,297,79478,1,0,0:0:0:0:
222,335,79582,5,0,0:0:0:0:
161,365,79685,1,0,0:0:0:0:
96,349,79788,1,0,0:0:0:0:
57,294,79892,1,0,0:0:0:0:
63,227,79995,2,0,L|73:179,6,34.375
54,78,80409,5,0,0:0:0:0:
119,32,80512,1,0,0:0:0:0:
195,54,80615,1,0,0:0:0:0:
226,128,80719,1,0,0:0:0:0:
183,210,80822,5,0,0:0:0:0:
143,278,80926,1,0,0:0:0:0:
173,352,81030,1,0,0:0:0:0:
250,374,81133,1,0,0:0:0:0:
322,312,81237,5,0,0:0:0:0:
318,284,81340,1,0,0:0:0:0:
373,224,81444,5,0,0:0:0:0:
376,196,81547,1,0,0:0:0:0:
330,118,81651,5,0,0:0:0:0:
391,69,81754,1,0,0:0:0:0:
465,97,81858,2,0,P|478:142|468:182,1,82.5000031471254
415,320,82065,5,0,0:0:0:0:
356,374,82168,1,0,0:0:0:0:
277,364,82271,1,0,0:0:0:0:
235,296,82375,1,0,0:0:0:0:
268,202,82478,5,0,0:0:0:0:
293,126,82581,1,0,0:0:0:0:
251,58,82685,1,0,0:0:0:0:
172,48,82788,1,0,0:0:0:0:
90,107,82892,5,0,0:0:0:0:
69,103,82995,1,0,0:0:0:0:
141,188,83099,5,0,0:0:0:0:
161,184,83202,1,0,0:0:0:0:
115,275,83306,5,0,0:0:0:0:
94,270,83409,1,0,0:0:0:0:
74,265,83513,2,0,L|86:358,1,82.5000031471254
242,348,83720,5,0,0:0:0:0:
294,377,83823,1,0,0:0:0:0:
354,366,83926,1,0,0:0:0:0:
393,320,84030,1,0,0:0:0:0:
423,229,84133,6,0,P|396:222|345:238,1,82.5000031471254
279,137,84340,2,0,P|255:150|231:198,1,82.5000031471254
25,104,84547,6,0,P|51:97|102:113,1,82.5000031471254
169,12,84754,2,0,P|192:25|216:73,1,82.5000031471254
231,198,84961,5,0,0:0:0:0:
227,239,85064,1,0,0:0:0:0:
224,280,85167,1,0,0:0:0:0:
221,321,85271,1,0,0:0:0:0:
218,362,85375,6,0,B|183:369|183:369|136:355,1,82.5000031471254
27,208,85582,2,0,B|71:194|71:194|106:201,1,82.5000031471254
317,268,85789,6,0,B|352:275|352:275|399:261,1,82.5000031471254
508,114,85996,2,0,B|463:100|463:100|428:107,1,82.5000031471254
269,33,86202,5,0,0:0:0:0:
214,7,86305,1,0,0:0:0:0:
156,25,86408,1,0,0:0:0:0:
125,77,86512,1,0,0:0:0:0:
149,151,86616,5,0,0:0:0:0:
146,171,86719,1,0,0:0:0:0:
178,245,86823,5,0,0:0:0:0:
175,265,86926,1,0,0:0:0:0:
223,346,87030,5,0,0:0:0:0:
300,363,87133,1,0,0:0:0:0:
361,311,87236,1,0,0:0:0:0:
356,232,87340,1,0,0:0:0:0:
280,183,87443,5,0,0:0:0:0:
212,137,87548,1,0,0:0:0:0:
208,58,87651,1,0,0:0:0:0:
268,7,87755,1,0,0:0:0:0:
347,41,87858,5,0,0:0:0:0:
349,62,87961,1,0,0:0:0:0:
419,128,88065,5,0,0:0:0:0:
417,148,88168,1,0,0:0:0:0:
356,232,88271,5,0,0:0:0:0:
323,305,88374,1,0,0:0:0:0:
353,380,88478,2,0,L|451:366,1,82.5000031471254
356,232,88685,5,0,0:0:0:0:
311,166,88788,1,0,0:0:0:0:
231,161,88891,1,0,0:0:0:0:
179,222,88995,1,0,0:0:0:0:
193,312,89099,5,0,0:0:0:0:
148,377,89203,1,0,0:0:0:0:
68,382,89306,1,0,0:0:0:0:
16,321,89410,1,0,0:0:0:0:
31,232,89513,5,0,0:0:0:0:
47,243,89616,1,0,0:0:0:0:
98,172,89720,5,0,0:0:0:0:
82,161,89823,1,0,0:0:0:0:
44,84,89927,5,0,0:0:0:0:
117,52,90030,1,0,0:0:0:0:
191,84,90133,1,0,0:0:0:0:
264,115,90237,1,0,0:0:0:0:
338,84,90340,6,0,L|435:70,1,82.5000031471254
412,276,90547,2,0,L|493:287,1,82.5000031471254
194,163,90754,6,0,L|97:149,1,82.5000031471254
120,355,90961,2,0,L|38:366,1,82.5000031471254
317,198,91168,6,0,B|328:241|328:241|315:291,1,82.5000031471254
120,355,91375,2,0,B|109:312|109:312|122:262,1,82.5000031471254
191,84,91582,5,0,0:0:0:0:
253,34,91685,1,0,0:0:0:0:
332,48,91788,1,0,0:0:0:0:
372,117,91892,1,0,0:0:0:0:
317,198,91996,5,0,0:0:0:0:
236,180,92099,1,0,0:0:0:0:
145,207,92202,5,0,0:0:0:0:
64,190,92305,1,0,0:0:0:0:
8,77,92409,6,0,P|63:69|116:101,1,110
312,281,92616,2,0,P|258:289|210:264,1,110
332,48,92823,5,0,0:0:0:0:
434,33,92926,1,0,0:0:0:0:
487,122,93029,1,0,0:0:0:0:
427,207,93133,1,0,0:0:0:0:
270,179,93237,5,0,0:0:0:0:
210,264,93341,1,0,0:0:0:0:
263,353,93444,1,0,0:0:0:0:
365,338,93547,1,0,0:0:0:0:
427,207,93651,6,0,L|324:187,1,82.5000031471254
187,96,93858,2,0,L|106:111,1,82.5000031471254
23,292,94065,5,0,0:0:0:0:
55,364,94168,1,0,0:0:0:0:
132,383,94271,1,0,0:0:0:0:
194,333,94375,1,0,0:0:0:0:
222,203,94478,6,0,L|130:187,1,82.5000031471254
294,277,94685,2,0,L|386:261,1,82.5000031471254
429,134,94892,5,0,0:0:0:0:
392,63,94995,1,0,0:0:0:0:
313,56,95098,1,0,0:0:0:0:
263,117,95202,1,0,0:0:0:0:
222,203,95306,5,0,0:0:0:0:
172,264,95410,1,0,0:0:0:0:
93,257,95513,1,0,0:0:0:0:
56,186,95616,1,0,0:0:0:0:
112,86,95720,6,0,P|141:124|146:172,1,82.5000031471254
255,286,95927,2,0,P|236:330|197:358,1,82.5000031471254
429,134,96133,6,0,P|381:127|337:147,1,82.5000031471254
182,86,96340,2,0,P|153:123|148:172,1,82.5000031471254
210,352,96547,5,0,0:0:0:0:
288,367,96650,1,0,0:0:0:0:
354,321,96753,1,0,0:0:0:0:
366,241,96857,1,0,0:0:0:0:
279,121,96961,6,0,L|274:216,1,82.5000031471254
456,269,97168,2,0,L|460:351,1,82.5000031471254
365,51,97375,6,0,L|370:146,1,82.5000031471254
188,199,97582,2,0,L|183:281,1,82.5000031471254
20,61,97789,5,0,0:0:0:0:
109,4,97892,1,0,0:0:0:0:
209,39,97995,1,0,0:0:0:0:
243,140,98099,1,0,0:0:0:0:
266,246,98202,5,0,0:0:0:0:
299,346,98306,1,0,0:0:0:0:
399,382,98409,1,0,0:0:0:0:
489,325,98512,1,0,0:0:0:0:
421,252,98616,6,0,B|330:240|330:240|267:272|267:272|148:253,1,275
89,72,98927,6,0,B|180:84|180:84|243:52|243:52|362:71,1,275
472,177,99237,5,0,0:0:0:0:
508,247,99340,1,0,0:0:0:0:
489,325,99443,1,0,0:0:0:0:
399,382,99547,6,0,L|402:316,4,55
308,298,99858,5,0,0:0:0:0:
234,265,99961,1,0,0:0:0:0:
148,297,100065,1,0,0:0:0:0:
58,255,100168,1,0,0:0:0:0:
324,282,100271,5,0,0:0:0:0:
256,192,102340,12,0,106375,0:0:0:0:
256,192,106478,5,0,0:0:0:0:
64,99,106892,5,0,0:0:0:0:
118,40,106995,1,0,0:0:0:0:
198,42,107098,1,0,0:0:0:0:
250,103,107202,1,0,0:0:0:0:
256,192,107306,5,0,0:0:0:0:
244,270,107410,1,0,0:0:0:0:
296,331,107513,1,0,0:0:0:0:
376,333,107617,1,0,0:0:0:0:
464,281,107720,5,0,0:0:0:0:
505,213,107823,1,0,0:0:0:0:
471,141,107926,1,0,0:0:0:0:
393,129,108030,1,0,0:0:0:0:
328,204,108134,5,0,0:0:0:0:
274,262,108237,1,0,0:0:0:0:
196,250,108341,1,0,0:0:0:0:
162,178,108444,1,0,0:0:0:0:
262,79,108547,5,0,0:0:0:0:
351,35,108650,1,0,0:0:0:0:
440,81,108753,1,0,0:0:0:0:
457,179,108857,1,0,0:0:0:0:
433,289,108961,5,0,0:0:0:0:
343,332,109064,1,0,0:0:0:0:
254,286,109167,1,0,0:0:0:0:
237,188,109271,1,0,0:0:0:0:
201,73,109375,5,0,0:0:0:0:
116,22,109478,1,0,0:0:0:0:
26,64,109581,1,0,0:0:0:0:
12,162,109685,1,0,0:0:0:0:
96,333,109789,5,0,0:0:0:0:
182,284,109892,1,0,0:0:0:0:
190,186,109995,1,0,0:0:0:0:
112,125,110099,1,0,0:0:0:0:
4,284,110202,6,0,L|15:366,6,82.5000031471254
112,125,110616,2,0,L|101:207,6,82.5000031471254
392,205,111030,6,0,L|381:123,6,82.5000031471254
284,364,111444,2,0,L|295:282,6,82.5000031471254
268,166,111858,5,0,0:0:0:0:
247,170,111961,1,0,0:0:0:0:
229,178,112064,1,0,0:0:0:0:
213,192,112168,1,0,0:0:0:0:
138,152,112271,5,0,0:0:0:0:
131,171,112374,1,0,0:0:0:0:
129,192,112477,1,0,0:0:0:0:
133,212,112581,1,0,0:0:0:0:
60,257,112686,5,0,0:0:0:0:
73,273,112789,1,0,0:0:0:0:
91,285,112893,1,0,0:0:0:0:
110,291,112996,1,0,0:0:0:0:
111,377,113099,5,0,0:0:0:0:
132,373,113202,1,0,0:0:0:0:
151,364,113306,1,0,0:0:0:0:
166,350,113409,1,0,0:0:0:0:
