osu file format v14

[General]
AudioFilename: audio.mp3
AudioLeadIn: 0
PreviewTime: -1
Countdown: 1
SampleSet: None
StackLeniency: 0.7
Mode: 0
LetterboxInBreaks: 0
WidescreenStoryboard: 0

[Editor]
DistanceSpacing: 1.5
BeatDivisor: 8
GridSize: 8
TimelineZoom: 0.4999999

[Metadata]
Title:uh
TitleUnicode:uh
Artist:the unfinished pickle
ArtistUnicode:the unfinished pickle
Creator:TNTLover2000
Version:AAAAAAAAAAAAAAAAAAAAAAAAAAAAAAAAAAAAAAAAAAAAAAAH
Source:
Tags:soundclown joke slider
BeatmapID:1112598
BeatmapSetID:524179

[Difficulty]
HPDrainRate:7
CircleSize:5.2
OverallDifficulty:8
ApproachRate:9.5
SliderMultiplier:3.59999990463257
SliderTickRate:1

[Events]
//Background and Video events
//Break Periods
//Storyboard Layer 0 (Background)
//Storyboard Layer 1 (Fail)
//Storyboard Layer 2 (Pass)
//Storyboard Layer 3 (Foreground)
//Storyboard Sound Samples

[TimingPoints]
102.756987577641,857.142857142857,4,1,0,100,1,0
6102,-90.0900900900901,4,1,0,100,0,1
11888,-100,4,1,0,100,0,0
14459,-90.0900900900901,4,1,0,100,0,1
19924,-100,4,1,0,100,0,0
22495,-50,4,1,0,100,0,1
28174,-100,4,1,0,100,0,0
30745,-50,4,1,0,100,0,1

[HitObjects]
155,283,102,5,0,0:0:0:0:
248,29,317,1,0,0:0:0:0:
300,194,531,1,0,0:0:0:0:
35,140,745,1,0,0:0:0:0:
388,128,959,5,0,0:0:0:0:
44,224,1174,1,0,0:0:0:0:
412,333,1388,5,0,0:0:0:0:
51,49,1602,1,0,0:0:0:0:
115,313,1817,6,0,P|177:338|238:337,1,89.9999976158142
221,338,2138,1,0,0:0:0:0:
242,330,2245,1,0,0:0:0:0:
37,261,2459,1,0,0:0:0:0:
161,206,2674,5,0,0:0:0:0:
430,203,2888,1,0,0:0:0:0:
85,77,3102,1,0,0:0:0:0:
238,299,3531,5,0,0:0:0:0:
205,53,3745,1,0,0:0:0:0:
61,292,3959,1,0,0:0:0:0:
314,155,4174,1,0,0:0:0:0:
39,151,4388,5,0,0:0:0:0:
409,306,4602,1,0,0:0:0:0:
305,47,4817,1,0,0:0:0:0:
114,353,5031,1,0,0:0:0:0:
137,163,5245,5,0,0:0:0:0:
346,265,5459,1,0,0:0:0:0:
301,122,5674,1,0,0:0:0:0:
166,306,5888,1,0,0:0:0:0:
346,265,6102,6,2,B|268:262|138:164|138:164|237:238|287:342|287:342|184:407|7:335|7:335|26:218|92:220|92:220|27:124|168:80|168:80|159:37|232:94|232:94|254:47|344:42|344:42|410:113|447:314|447:314|515:195|426:-35|426:-35|328:-45|220:-13|220:-13|112:-41|-82:8|-82:8|-84:120|6:189,1,2697.299994398
321,146,12102,5,0,0:0:0:0:
359,362,12317,1,0,0:0:0:0:
301,240,12531,1,0,0:0:0:0:
5,209,12745,5,0,0:0:0:0:
443,109,12959,1,0,0:0:0:0:
185,297,13174,1,0,0:0:0:0:
48,104,13388,1,0,0:0:0:0:
344,224,13602,2,0,P|354:257|303:367,1,157.499995827675
340,51,14031,6,0,L|448:44,1,89.9999976158142
265,205,14459,6,2,B|148:239|235:127|235:127|336:131|339:219|339:219|316:293|170:298|170:298|61:186|192:42|192:42|100:15|15:66|15:66|8:269|102:370|102:370|238:395|410:321|410:321|453:262|430:123|430:123|508:186|508:186|497:126|497:126|569:86|594:182|594:182|565:274|506:289|506:289|577:349|577:349|656:299|678:181,1,2547.44999470922
325,48,20138,1,0,0:0:0:0:
26,345,20352,1,0,0:0:0:0:
457,122,20567,1,0,0:0:0:0:
100,180,20781,5,0,0:0:0:0:
457,226,20995,1,0,0:0:0:0:
242,179,21209,1,0,0:0:0:0:
371,149,21424,5,0,0:0:0:0:
311,318,21638,1,0,0:0:0:0:
315,32,21852,1,0,0:0:0:0:
89,236,22067,5,0,1:0:0:0:
457,58,22281,1,0,1:0:0:0:
452,151,22495,6,2,B|352:190|141:86|27:98|27:98|-69:300|150:358|150:358|254:254|396:343|505:312|505:312|601:258|567:46|567:46|627:221|586:333|586:333|470:398|328:377|328:377|428:226|231:50|231:50|168:142|232:257|231:257|231:257|287:235|465:228|465:228|521:190|509:114|509:114|490:39|479:-16|574:-86|665:-38|642:109|642:110|642:110|525:252|430:268|430:268|396:72|376:34|376:34|356:106|356:106|168:197|83:166|83:167|83:167|132:86|120:20|120:20|43:16|-38:-4|-130:135|-19:379,1,4769.99987363815
314,31,28388,1,0,0:0:0:0:
111,278,28602,1,0,0:0:0:0:
354,242,28817,1,0,0:0:0:0:
117,88,29031,5,0,0:0:0:0:
421,337,29245,1,0,0:0:0:0:
30,181,29459,1,0,0:0:0:0:
460,111,29674,1,0,0:0:0:0:
50,329,29888,5,0,0:0:0:0:
481,218,30102,1,0,0:0:0:0:
52,39,30317,1,0,0:0:0:0:
462,349,30531,1,0,0:0:0:0:
271,326,30745,6,2,B|213:215|366:49|366:49|242:5|168:158|168:158|263:131|385:242|385:242|483:150|505:38|505:38|419:-40|197:-31|197:-31|68:19|21:217|22:216|22:216|145:210|178:240|178:240|152:318|235:407|235:407|312:406|370:362|370:362|457:328|521:249|521:249|581:157|604:27|604:27|636:207|627:283|627:283|546:189|383:129|383:129|340:184|321:317|321:317|492:317|574:377|574:377|674:358|696:298|696:298|675:393|675:393|576:318|448:256|448:256|426:340|461:407|461:407|336:386|106:386|106:385|106:385|96:320|57:282|57:282|-46:273|-93:288|-93:288|-81:186|12:9|12:9|-60:44|-119:189|-119:189|6:149|6:149|42:62|157:47|157:47|61:143|122:301|122:301|64:356|-29:387|-129:395,1,6299.999833107
