osu file format v14

[General]
AudioFilename: audio.mp3
AudioLeadIn: 0
PreviewTime: 167247
Countdown: 0
SampleSet: Soft
StackLeniency: 0.7
Mode: 0
LetterboxInBreaks: 0
WidescreenStoryboard: 0

[Editor]
DistanceSpacing: 1
BeatDivisor: 4
GridSize: 8
TimelineZoom: 1.8

[Metadata]
Title:Neverland
TitleUnicode:ネバーランド
Artist:the peggies
ArtistUnicode:the peggies
Creator:Seto Kousuke
Version:reicavera's Hard
Source:
Tags:rock jrock j-rock japanese super boy ! super girl !! bird birds shirahane suou kouhane reicavera wisoven
BeatmapID:3913377
BeatmapSetID:1898721

[Difficulty]
HPDrainRate:4
CircleSize:3.5
OverallDifficulty:6
ApproachRate:7.5
SliderMultiplier:1.4
SliderTickRate:1

[Events]
//Background and Video events
0,0,"cute rock girl.jpg",0,0
//Break Periods
//Storyboard Layer 0 (Background)
//Storyboard Layer 1 (Fail)
//Storyboard Layer 2 (Pass)
//Storyboard Layer 3 (Foreground)
//Storyboard Layer 4 (Overlay)
//Storyboard Sound Samples

[TimingPoints]
373,326.086956521739,4,2,1,70,1,0
2981,-125,4,2,1,70,0,0
10807,-166.666666666667,4,2,1,70,0,0
13416,-100,4,2,1,70,0,0
23841,326.086956521739,4,2,1,60,1,0
23841,-166.666666666667,4,2,1,60,0,0
27754,-125,4,2,1,60,0,0
29058,-166.666666666667,4,2,1,60,0,0
32971,-111.111111111111,4,2,1,60,0,0
34286,326.086956521739,4,2,1,70,1,0
34286,-111.111111111111,4,2,1,70,0,0
44720,-125,4,2,1,70,0,0
52546,-166.666666666667,4,2,1,60,0,0
55155,-111.111111111111,4,2,1,75,0,0
57764,-100,4,2,1,80,0,1
77329,-166.666666666667,4,2,1,80,0,0
78633,-100,4,2,1,70,0,0
98036,-125,4,2,1,70,0,0
99503,-111.111111111111,4,2,1,75,0,0
107329,-166.666666666667,4,2,1,60,0,0
109938,-111.111111111111,4,2,1,75,0,0
112546,-100,4,2,1,80,0,1
132112,-166.666666666667,4,2,1,80,0,0
133416,-166.666666666667,4,2,1,75,0,0
133742,-111.111111111111,4,2,1,75,0,0
143851,-125,4,2,1,70,0,0
162112,-111.111111111111,4,2,1,75,0,0
164802,-111.111111111111,4,2,1,5,0,0
164965,-111.111111111111,4,2,1,75,0,0
165046,-111.111111111111,4,2,1,5,0,0
165209,-111.111111111111,4,2,1,75,0,0
165780,-111.111111111111,4,2,1,5,0,0
165943,-111.111111111111,4,2,1,75,0,0
166025,-111.111111111111,4,2,1,5,0,0
166188,-111.111111111111,4,2,1,75,0,0
167329,-142.857142857143,4,2,1,60,0,0
169286,-142.857142857143,4,2,1,75,0,0
169775,-100,4,2,1,85,0,1
186894,-166.666666666667,4,2,1,85,0,0
188199,-111.111111111111,4,2,1,80,0,0
197329,-166.666666666667,4,2,1,80,0,0
198633,-100,4,2,1,70,0,0
210372,-100,4,2,1,60,0,0
211679,-100,4,2,1,50,0,0
212981,-100,4,2,1,40,0,0
213470,-100,4,2,1,30,0,0
213959,-100,4,2,1,20,0,0
214204,-100,4,2,1,5,0,0

[Colours]
Combo1 : 154,114,127
Combo2 : 111,84,112
Combo3 : 140,80,96
Combo4 : 193,141,135

[HitObjects]
363,271,2981,6,0,P|414:275|497:271,2,112
297,311,3796,1,0,0:0:0:0:
207,240,4122,2,0,P|216:181|222:115,1,112
164,23,4775,2,0,P|96:2|50:26,1,112
6,70,5264,1,0,0:0:0:0:
54,181,5590,6,0,P|111:175|184:172,1,112
249,86,6242,1,0,0:0:0:0:
249,86,6405,2,0,P|306:92|379:95,1,112
470,40,7057,2,0,P|461:95|455:151,1,112
344,196,7709,1,0,0:0:0:0:
344,196,7872,1,0,0:0:0:0:
270,104,8199,6,0,P|246:105|213:108,1,56
138,85,8525,2,0,P|133:140|127:196,1,112
85,266,9014,1,0,0:0:0:0:
85,266,9177,1,0,0:0:0:0:
136,330,9340,2,0,P|188:332|260:340,1,112
326,316,9829,1,0,0:0:0:0:
326,316,9992,2,0,P|342:236|329:203,1,112
270,148,10481,1,0,0:0:0:0:
162,187,10807,6,0,B|79:160|88:54|128:-15|242:-23|286:58|362:108|457:76,1,503.999984619141
500,0,12927,1,8,0:0:0:0:
503,4,13090,1,8,0:0:0:0:
430,94,13416,6,0,B|406:143|406:143|444:212,1,105,4|0,0:0|0:0,0:0:0:0:
444,205,13742,2,0,B|470:253|470:253|438:324,1,105,4|0,0:0|0:0,0:0:0:0:
414,295,14068,2,0,L|317:285,2,70,8|8|8,3:3|3:3|3:3,0:0:0:0:
452,377,14557,2,0,L|325:363,1,105,4|0,0:0|0:0,0:0:0:0:
330,378,14883,2,0,L|203:364,1,105,0|0,3:0|0:0,0:0:0:0:
195,365,15209,1,0,3:0:0:0:
105,358,15372,1,8,0:0:0:0:
105,358,16025,6,0,B|81:309|81:309|119:240,1,105,4|0,0:0|0:0,0:0:0:0:
137,267,16351,2,0,L|241:278,1,105,4|0,0:0|0:0,0:0:0:0:
271,298,16677,1,8,3:3:0:0:
325,225,16840,1,8,3:3:0:0:
325,225,17003,1,8,3:3:0:0:
244,185,17166,2,0,B|268:140|268:140|244:91,1,105,4|0,0:0|0:0,0:0:0:0:
206,98,17492,2,0,L|101:86,1,105,0|0,3:0|0:0,0:0:0:0:
68,101,17818,1,0,3:0:0:0:
33,3,17981,2,0,L|102:8,1,70,8|0,0:0|3:0,0:0:0:0:
193,10,18307,1,8,0:0:0:0:
268,132,18633,6,0,L|163:120,1,105,4|0,0:0|0:0,0:0:0:0:
128,118,18959,2,0,B|152:163|152:163|128:212,1,105,4|0,0:0|0:0,0:0:0:0:
106,248,19286,2,0,L|37:241,2,70,8|8|8,3:2|3:2|3:2,0:0:0:0:
156,327,19775,2,0,L|260:338,1,105,4|0,0:0|0:0,0:0:0:0:
309,342,20101,2,0,B|333:293|333:293|309:248,1,105,0|0,3:0|0:0,0:0:0:0:
285,221,20427,1,0,3:0:0:0:
313,134,20590,1,8,0:0:0:0:
313,134,21242,6,0,B|289:85|289:85|327:16,1,105,4|0,0:0|0:0,0:0:0:0:
340,8,21568,2,0,L|444:19,1,105,4|0,0:0|0:0,0:0:0:0:
478,24,21894,1,8,3:2:0:0:
512,112,22057,1,8,3:2:0:0:
512,112,22220,1,8,3:2:0:0:
438,163,22383,2,0,L|311:149,1,105,4|0,0:0|0:0,0:0:0:0:
305,175,22709,2,0,L|178:161,1,105,0|0,3:0|0:0,0:0:0:0:
186,137,23036,1,0,3:0:0:0:
121,209,23199,2,0,L|52:202,1,70,8|0,0:0|3:0,0:0:0:0:
17,112,23525,2,0,L|86:119,1,70,8|0,0:0|0:0,0:0:0:0:
167,47,23841,6,0,P|246:66|270:144,1,167.999994873047,4|0,0:0|0:0,0:0:0:0:
271,142,25145,2,0,P|299:217|379:226,1,167.999994873047,4|0,0:0|0:0,0:0:0:0:
378,226,26450,2,0,L|397:53,1,167.999994873047,4|0,0:0|0:0,0:0:0:0:
396,59,27754,5,0,3:0:0:0:
328,104,27917,2,0,P|282:96|252:92,1,56,8|0,0:0|0:0,0:0:0:0:
217,38,28243,2,0,P|157:47|97:51,1,112,8|0,0:0|3:0,0:0:0:0:
41,96,28732,1,8,0:0:0:0:
162,154,29058,6,0,P|113:192|163:281,1,167.999994873047,4|0,0:0|0:0,0:0:0:0:
149,278,30363,2,0,B|237:248|219:333|304:305,1,167.999994873047,4|0,0:0|0:0,0:0:0:0:
304,304,31667,2,0,P|381:337|339:386,1,167.999994873047,4|2,0:0|0:0,0:0:0:0:
345,384,32971,6,0,P|350:346|353:300,1,62.9999980773926,0|0,3:0|0:0,0:0:0:0:
433,288,33298,2,0,P|428:256|425:225,1,62.9999980773926,8|0,0:0|1:0,0:0:0:0:
423,193,33542,1,0,1:0:0:0:
423,193,33624,1,0,1:0:0:0:
345,139,33787,2,0,P|269:126|233:209,1,157.499995193482,2|0,0:0|0:0,0:0:0:0:
221,216,34286,6,0,P|215:138|201:82,1,125.999996154785,4|8,0:0|0:0,0:0:0:0:
285,2,34938,1,0,3:0:0:0:
285,2,35101,2,0,P|318:2|358:-1,1,62.9999980773926,2|0,3:2|0:0,0:0:0:0:
429,32,35427,2,0,P|459:74|440:145,1,125.999996154785,2|0,3:2|3:0,0:0:0:0:
375,94,35916,1,8,0:0:0:0:
299,132,36079,1,0,3:0:0:0:
299,132,36161,1,0,3:0:0:0:
299,132,36242,2,0,P|295:174|299:204,1,62.9999980773926,0|0,3:0|3:0,0:0:0:0:
372,237,36568,2,0,P|376:279|372:309,1,62.9999980773926,8|0,0:0|0:0,0:0:0:0:
312,360,36894,6,0,B|249:376|252:319|192:340,1,125.999996154785,0|8,3:0|0:0,0:0:0:0:
73,377,37546,1,0,3:0:0:0:
111,302,37709,2,0,P|105:270|101:226,1,62.9999980773926,2|0,3:2|0:0,0:0:0:0:
30,192,38036,2,0,P|26:138|90:102,1,125.999996154785,2|0,3:2|3:0,0:0:0:0:
156,143,38525,2,0,P|190:148|238:151,1,62.9999980773926,8|0,0:0|3:0,0:0:0:0:
247,143,38769,1,0,3:0:0:0:
247,143,38851,2,0,P|278:145|309:150,1,62.9999980773926,0|0,3:0|3:0,0:0:0:0:
343,235,39177,2,0,P|377:230|425:227,1,62.9999980773926,8|0,0:0|0:0,0:0:0:0:
486,263,39503,6,0,P|491:197|500:136,1,125.999996154785,4|8,0:0|0:0,0:0:0:0:
465,59,39992,2,0,P|433:62|399:66,1,62.9999980773926,0|0,0:0|3:0,0:0:0:0:
340,125,40318,2,0,P|308:122|274:118,1,62.9999980773926,2|0,3:2|0:0,0:0:0:0:
222,54,40644,2,0,P|157:44|117:102,1,125.999996154785,2|0,3:2|3:0,0:0:0:0:
170,155,41133,1,8,0:0:0:0:
113,219,41296,1,0,3:0:0:0:
113,219,41378,1,0,3:0:0:0:
113,219,41459,2,0,P|110:257|110:290,1,62.9999980773926,0|0,3:0|3:0,0:0:0:0:
197,319,41786,2,0,P|194:281|194:248,1,62.9999980773926,8|0,0:0|0:0,0:0:0:0:
267,200,42112,6,0,B|331:195|314:249|387:242,1,125.999996154785,4|8,3:2|0:0,0:0:0:0:
457,206,42601,2,0,P|459:174|462:143,1,62.9999980773926,0|0,0:0|3:0,0:0:0:0:
409,76,42927,1,2,3:2:0:0:
409,76,43090,1,8,0:0:0:0:
327,103,43253,2,0,P|258:93|194:93,1,125.999996154785,4|0,3:2|3:0,0:0:0:0:
137,32,43742,1,8,0:0:0:0:
56,73,43905,1,0,1:0:0:0:
56,73,43987,1,0,1:0:0:0:
56,73,44068,2,0,P|53:108|50:139,1,62.9999980773926,0|0,1:0|1:0,0:0:0:0:
79,219,44394,2,0,P|128:211|161:211,1,62.9999980773926,12|12,3:0|3:0,0:0:0:0:
226,188,44720,6,0,P|225:141|218:56,2,112,4|0|8,3:2|3:0|0:0,0:0:0:0:
340,243,45699,1,0,0:0:0:0:
340,243,45862,1,0,0:0:0:0:
384,173,46025,2,0,P|413:177|444:178,1,56,0|8,3:0|0:0,0:0:0:0:
497,239,46351,2,0,P|511:285|472:336,1,112,0|8,3:0|0:0,0:0:0:0:
364,305,47003,1,0,0:0:0:0:
253,275,47329,6,0,P|223:280|181:282,1,56,0|8,3:0|0:0,0:0:0:0:
167,359,47655,2,0,P|137:354|95:352,1,56,0|0,3:0|0:0,0:0:0:0:
28,370,47981,2,0,P|-2:323|28:260,1,112,8|0,0:0|0:0,0:0:0:0:
89,245,48470,1,8,0:0:0:0:
89,245,48633,2,0,P|91:212|96:166,1,56,0|8,3:0|0:0,0:0:0:0:
21,153,48959,2,0,P|19:120|14:74,1,56,0|0,1:0|1:0,0:0:0:0:
42,79,49204,1,0,1:0:0:0:
42,79,49286,2,0,P|44:46|49:0,1,56,0|0,1:0|1:0,0:0:0:0:
120,2,49612,2,0,P|150:-2|191:-9,1,56,12|12,3:0|3:0,0:0:0:0:
230,62,49938,6,0,P|295:68|363:77,2,112,4|0|8,3:2|3:0|0:0,0:0:0:0:
181,167,50916,1,0,0:0:0:0:
181,167,51079,1,0,0:0:0:0:
241,225,51242,2,0,P|237:260|235:286,1,56,0|8,3:0|0:0,0:0:0:0:
169,328,51568,2,0,P|99:316|42:312,1,112,0|8,3:0|0:0,0:0:0:0:
13,205,52220,1,0,0:0:0:0:
45,87,52546,6,0,B|381:0|136:389|510:304,1,587.999982055665,6|2,3:2|0:0,0:0:0:0:
497,191,55155,6,0,P|498:163|505:106,2,62.9999980773926,8|0|0,1:2|3:0|3:0,0:0:0:0:
406,210,55644,2,0,P|409:241|410:272,2,62.9999980773926,8|0|0,1:2|3:0|3:0,0:0:0:0:
351,139,56133,1,8,1:2:0:0:
351,139,56296,2,0,P|319:142|288:143,1,62.9999980773926,0|0,3:0|3:0,0:0:0:0:
245,222,56622,1,8,1:2:0:0:
245,222,56785,2,0,P|213:223|182:225,1,62.9999980773926,0|0,0:0|3:0,0:0:0:0:
113,172,57112,2,0,P|51:184|31:250,1,125.999996154785,8|0,1:2|1:2,0:0:0:0:
71,323,57601,1,0,1:2:0:0:
71,323,57682,1,0,1:2:0:0:
71,323,57764,6,0,P|115:324|153:329,1,70,6|0,3:2|0:0,0:0:0:0:
212,258,58090,2,0,P|246:261|281:261,1,70,10|0,0:0|0:0,0:0:0:0:
351,336,58416,1,0,3:0:0:0:
351,336,58579,1,0,3:0:0:0:
441,304,58742,2,0,P|446:262|448:220,1,70,10|2,0:0|3:2,0:0:0:0:
400,153,59068,2,0,B|325:119|326:191|242:151,1,140,2|10,0:0|0:0,0:0:0:0:
181,191,59557,1,0,0:0:0:0:
181,191,59639,1,0,3:0:0:0:
181,191,59720,2,0,P|175:144|170:110,1,70,2|2,3:2|3:2,0:0:0:0:
125,42,60046,1,8,0:0:0:0:
216,0,60209,6,0,P|282:14|282:98,1,140,6|0,3:2|3:0,0:0:0:0:
268,172,60699,2,0,P|214:164|172:154,1,70,8|0,0:0|0:0,0:0:0:0:
107,203,61025,1,2,3:2:0:0:
107,203,61188,1,0,3:0:0:0:
117,300,61351,2,0,P|151:293|186:288,1,70,10|0,0:2|0:0,0:0:0:0:
277,329,61677,2,0,P|281:266|288:230,1,70,2|2,3:2|3:2,0:0:0:0:
360,206,62003,1,10,0:2:0:0:
451,239,62166,1,0,3:0:0:0:
451,239,62247,1,8,0:0:0:0:
451,239,62329,2,0,P|455:204|456:169,1,70,2|2,3:2|3:2,0:0:0:0:
413,83,62655,1,10,0:2:0:0:
272,38,62981,6,0,P|230:56|235:146,1,140,4|8,3:2|0:0,0:0:0:0:
294,208,63470,1,0,0:0:0:0:
263,295,63633,1,0,3:0:0:0:
263,295,63796,2,0,P|187:285|109:283,1,140,0|8,3:0|0:0,0:0:0:0:
31,302,64286,1,0,0:0:0:0:
31,302,64449,2,0,P|37:260|40:209,1,70,0|8,3:0|0:0,0:0:0:0:
125,196,64775,1,0,3:0:0:0:
125,196,64856,1,0,3:0:0:0:
125,196,64938,2,0,P|119:154|116:103,1,70,0|0,3:0|3:0,0:0:0:0:
80,38,65264,2,0,P|127:33|212:20,1,105,8|0,0:0|0:0,0:0:0:0:
230,22,65590,6,0,P|226:56|221:91,1,70,12|0,0:2|3:0,0:0:0:0:
319,120,65916,2,0,P|322:154|327:189,1,70,8|0,0:0|3:0,0:0:0:0:
221,212,66242,2,0,P|217:246|212:281,1,70,8|0,0:0|3:0,0:0:0:0:
258,369,66568,1,8,0:0:0:0:
258,369,66731,1,0,3:0:0:0:
332,308,66894,1,12,0:2:0:0:
332,308,67057,2,0,B|419:298|383:368|477:354,1,140,0|0,3:0|3:0,0:0:0:0:
508,273,67546,1,8,0:0:0:0:
508,273,67709,2,0,P|510:228|516:182,1,70,0|0,3:0|1:0,0:0:0:0:
449,133,68036,1,0,1:0:0:0:
449,133,68117,1,0,1:0:0:0:
449,133,68199,6,0,P|405:126|352:127,1,70,6|0,3:2|0:0,0:0:0:0:
333,207,68525,2,0,P|298:205|263:199,1,70,10|0,0:0|0:0,0:0:0:0:
185,154,68851,1,2,3:2:0:0:
185,154,69014,1,0,3:0:0:0:
262,107,69177,2,0,P|262:72|267:37,1,70,10|0,0:2|3:0,0:0:0:0:
177,8,69503,2,0,P|142:4|107:2,1,70,2|2,0:2|3:2,0:0:0:0:
31,68,69829,1,10,0:2:0:0:
82,160,69992,1,0,3:0:0:0:
82,160,70074,1,0,3:0:0:0:
82,160,70155,2,0,P|80:194|77:229,1,70,0|2,3:0|3:2,0:0:0:0:
131,309,70481,1,10,0:2:0:0:
230,284,70644,6,0,B|303:271|267:341|351:332,1,140,4|0,3:2|3:0,0:0:0:0:
446,368,71133,2,0,P|447:334|450:298,1,70,8|0,0:0|3:0,0:0:0:0:
352,254,71459,2,0,P|351:220|348:184,1,70,8|0,0:0|3:0,0:0:0:0:
449,154,71786,2,0,P|450:120|453:84,1,70,8|0,0:0|3:0,0:0:0:0:
390,10,72112,2,0,P|311:5|273:57,1,140,8|8,0:0|0:0,0:0:0:0:
241,133,72601,2,0,P|243:167|244:202,1,70,0|0,1:0|1:0,0:0:0:0:
234,238,72845,1,0,1:0:0:0:
234,238,72927,1,0,1:0:0:0:
164,299,73090,2,0,P|123:295|83:294,1,70,0|4,1:0|1:3,0:0:0:0:
15,246,73416,5,8,0:0:0:0:
15,246,73579,2,0,P|7:183|80:149,1,140,4|8,3:2|0:0,0:0:0:0:
144,182,74068,2,0,P|142:118|135:35,1,140,4|8,3:2|0:0,0:0:0:0:
218,1,74557,2,0,P|284:19|274:85,1,140,4|0,3:2|1:0,0:0:0:0:
218,141,75046,2,0,P|221:185|219:235,1,70,0|4,1:0|1:3,0:0:0:0:
310,203,75372,2,0,P|345:198|392:194,1,70,0|0,1:0|1:0,0:0:0:0:
432,118,75699,1,4,1:3:0:0:
432,118,75862,1,0,1:0:0:0:
506,169,76025,6,0,P|508:203|508:238,1,70,8|0,1:2|3:0,0:0:0:0:
421,272,76351,1,0,3:0:0:0:
421,272,76514,2,0,B|337:263|373:333|300:320,1,140,8|0,1:2|3:0,0:0:0:0:
217,288,77003,2,0,P|215:241|212:207,1,70,8|0,1:2|3:0,0:0:0:0:
282,158,77329,2,0,P|283:90|95:69,1,293.999991027832,4|0,3:2|0:0,0:0:0:0:
153,131,78633,6,0,B|173:176|173:176|147:224,1,105,4|0,0:0|0:0,0:0:0:0:
134,242,78959,2,0,B|109:286|109:286|133:335,1,105,4|0,0:0|0:0,0:0:0:0:
148,377,79285,2,0,L|51:387,2,70,8|8|8,3:3|3:3|3:3,0:0:0:0:
221,328,79775,2,0,L|325:317,1,105,4|0,0:0|0:0,0:0:0:0:
337,338,80101,2,0,L|441:327,1,105,0|0,3:0|0:0,0:0:0:0:
474,323,80427,1,0,3:0:0:0:
512,238,80590,1,8,0:0:0:0:
512,238,81242,6,0,L|501:134,1,105,4|0,0:0|0:0,0:0:0:0:
496,97,81568,2,0,B|447:73|447:73|403:98,1,105,4|0,0:0|0:0,0:0:0:0:
382,118,81894,1,8,3:3:0:0:
333,46,82057,1,8,3:3:0:0:
333,46,82220,1,8,3:3:0:0:
258,86,82383,2,0,B|212:106|212:106|164:80,1,105,4|0,0:0|0:0,0:0:0:0:
147,67,82709,2,0,B|102:42|102:42|53:66,1,105,0|0,3:0|0:0,0:0:0:0:
30,81,83036,1,0,3:0:0:0:
36,164,83199,2,0,L|43:233,1,70,8|0,0:0|3:0,0:0:0:0:
54,322,83525,1,8,0:0:0:0:
207,335,83851,6,0,L|196:231,1,105,4|0,0:0|0:0,0:0:0:0:
226,212,84177,2,0,B|275:188|275:188|319:212,1,105,4|0,0:0|0:0,0:0:0:0:
357,238,84503,2,0,L|426:230,2,70,8|4|4,3:3|3:3|3:3,0:0:0:0:
327,321,84992,2,0,B|281:341|281:341|233:315,1,105,4|0,0:0|0:0,0:0:0:0:
216,302,85318,2,0,B|171:277|171:277|122:301,1,105,0|0,3:0|0:0,0:0:0:0:
98,321,85644,1,0,3:0:0:0:
24,373,85807,1,8,0:0:0:0:
24,373,86459,6,0,L|13:269,1,105,4|0,0:0|0:0,0:0:0:0:
34,255,86786,2,0,L|23:151,1,105,4|0,0:0|0:0,0:0:0:0:
21,118,87112,1,8,3:3:0:0:
109,88,87275,1,4,3:3:0:0:
109,88,87438,1,4,3:3:0:0:
131,176,87601,2,0,B|180:199|180:199|224:175,1,105,4|0,0:0|0:0,0:0:0:0:
241,161,87927,2,0,B|289:135|289:135|334:155,1,105,0|0,3:0|0:0,0:0:0:0:
363,171,88253,1,0,3:0:0:0:
448,131,88416,2,0,L|440:61,1,70,8|0,0:0|3:0,0:0:0:0:
362,17,88742,1,8,0:0:0:0:
362,17,88905,1,0,3:0:0:0:
289,71,89068,6,0,L|300:175,1,105,4|0,0:0|0:0,0:0:0:0:
301,208,89394,2,0,B|252:231|252:231|208:207,1,105,4|0,0:0|0:0,0:0:0:0:
175,187,89720,1,8,3:0:0:0:
138,265,89883,2,0,L|68:273,1,70,4|4,3:0|3:0,0:0:0:0:
11,210,90209,2,0,L|0:106,1,105,4|0,0:0|0:0,0:0:0:0:
0,62,90536,2,0,B|48:36|48:36|93:56,1,105,0|0,3:0|0:0,0:0:0:0:
120,70,90862,1,0,3:0:0:0:
192,25,91025,1,8,0:0:0:0:
299,91,91351,1,0,0:0:0:0:
400,29,91677,6,0,B|424:78|424:78|399:122,1,105,4|0,0:0|0:0,0:0:0:0:
387,139,92003,2,0,B|361:189|361:189|381:234,1,105,4|0,0:0|0:0,0:0:0:0:
400,259,92329,1,8,3:0:0:0:
454,326,92492,1,8,3:0:0:0:
454,326,92655,1,8,3:0:0:0:
370,338,92818,2,0,L|265:349,1,105,4|0,0:0|0:0,0:0:0:0:
237,349,93144,2,0,B|209:306|209:306|235:256,1,105,0|0,3:0|0:0,0:0:0:0:
245,234,93470,1,0,3:0:0:0:
197,157,93633,2,0,L|127:165,1,70,8|0,0:0|3:0,0:0:0:0:
83,251,93959,2,0,L|153:243,1,70,8|0,0:0|0:0,0:0:0:0:
193,320,94286,6,0,L|297:309,1,105,4|0,0:0|0:0,0:0:0:0:
310,287,94613,2,0,L|414:276,1,105,4|0,0:0|0:0,0:0:0:0:
439,299,94939,2,0,L|509:291,2,70,8|8|8,3:0|3:0|3:0,0:0:0:0:
470,217,95427,2,0,B|494:168|494:168|469:124,1,105,4|0,0:0|0:0,0:0:0:0:
452,97,95753,2,0,L|348:108,1,105,0|0,3:0|0:0,0:0:0:0:
316,113,96079,1,0,3:0:0:0:
229,128,96242,1,8,0:0:0:0:
134,49,96568,1,0,0:0:0:0:
134,49,96731,1,0,0:0:0:0:
49,85,96894,6,0,L|60:189,1,105,4|0,0:0|0:0,0:0:0:0:
66,215,97220,2,0,B|115:238|115:238|159:214,1,105,4|0,0:0|0:0,0:0:0:0:
187,198,97546,2,0,L|179:128,1,70,8|8,3:0|3:0,0:0:0:0:
243,62,97872,1,8,3:0:0:0:
243,62,98036,2,0,P|282:33|350:57,1,112,4|0,0:0|0:0,0:0:0:0:
408,98,98525,2,0,P|406:136|405:166,1,56
328,185,98851,2,0,P|330:223|331:253,1,56
412,263,99177,2,0,P|410:301|409:331,1,56
325,358,99503,6,0,B|262:342|265:399|205:378,1,125.999996154785,4|8,0:0|0:0,0:0:0:0:
136,331,99992,1,0,0:0:0:0:
202,269,100155,1,0,3:0:0:0:
202,269,100318,2,0,P|199:235|193:186,1,62.9999980773926,2|0,3:2|0:0,0:0:0:0:
118,165,100644,2,0,P|103:97|155:54,1,125.999996154785,2|0,3:2|3:0,0:0:0:0:
212,106,101133,1,8,0:0:0:0:
280,49,101296,1,0,3:0:0:0:
280,49,101378,1,0,3:0:0:0:
280,49,101459,2,0,P|313:53|345:53,1,62.9999980773926,0|0,3:0|3:0,0:0:0:0:
423,11,101786,2,0,P|461:6|503:50,1,94.499997116089,8|0,0:0|0:0,0:0:0:0:
496,71,102112,6,0,P|488:128|488:201,1,125.999996154785,4|8,0:0|0:0,0:0:0:0:
419,251,102601,1,0,0:0:0:0:
367,180,102764,1,0,3:0:0:0:
367,180,102927,2,0,P|335:180|304:184,1,62.9999980773926,2|0,3:2|0:0,0:0:0:0:
253,255,103253,2,0,P|173:245|120:232,1,125.999996154785,2|0,3:2|3:0,0:0:0:0:
65,299,103742,1,8,0:0:0:0:
117,381,103905,1,0,3:0:0:0:
117,381,103987,1,0,3:0:0:0:
117,381,104068,2,0,P|150:375|187:372,1,62.9999980773926,0|0,3:0|3:0,0:0:0:0:
225,298,104394,2,0,P|258:304|295:307,1,62.9999980773926,8|0,0:0|3:0,0:0:0:0:
357,355,104720,6,0,P|363:311|370:266,1,62.9999980773926,4|0,0:0|0:0,0:0:0:0:
452,269,105046,1,8,0:0:0:0:
452,269,105209,2,0,P|446:225|439:180,1,62.9999980773926,0|0,0:0|3:0,0:0:0:0:
383,145,105536,2,0,P|347:148|318:152,1,62.9999980773926,2|0,3:2|0:0,0:0:0:0:
243,193,105862,2,0,P|240:122|230:39,1,125.999996154785,2|0,3:2|3:0,0:0:0:0:
158,28,106351,1,8,0:0:0:0:
97,101,106514,1,0,3:0:0:0:
97,101,106595,1,0,3:0:0:0:
97,101,106677,2,0,P|128:103|159:107,1,62.9999980773926,0|0,3:0|3:0,0:0:0:0:
194,188,107003,2,0,P|225:185|256:181,1,62.9999980773926,8|0,0:0|0:0,0:0:0:0:
338,224,107329,6,0,B|415:233|461:197|457:134|406:103|356:124|356:124|382:335|382:335|348:368|317:336|289:307|249:337,1,587.999982055665,2|2,0:0|0:0,0:0:0:0:
158,300,109938,2,0,P|163:331|166:362,2,62.9999980773926,8|0|0,1:2|3:0|3:0,0:0:0:0:
81,248,110427,2,0,P|53:242|10:228,2,62.9999980773926,8|0|0,1:2|3:0|3:0,0:0:0:0:
173,194,110916,1,8,1:2:0:0:
173,194,111079,2,0,P|203:184|233:177,1,62.9999980773926,0|0,3:0|3:0,0:0:0:0:
86,147,111405,1,8,1:2:0:0:
86,147,111568,2,0,P|82:115|77:84,1,62.9999980773926,0|0,3:0|3:0,0:0:0:0:
135,9,111894,2,0,B|204:4|193:47|270:36,1,125.999996154785,8|0,1:2|0:0,0:0:0:0:
428,40,112546,6,0,P|418:78|412:114,1,70,6|0,3:2|0:0,0:0:0:0:
339,174,112872,2,0,P|349:212|355:248,1,70,10|0,0:0|0:0,0:0:0:0:
433,303,113199,1,2,3:2:0:0:
433,303,113362,1,0,0:0:0:0:
371,369,113525,2,0,P|310:359|283:357,1,70,10|0,0:0|0:0,0:0:0:0:
211,382,113851,2,0,P|176:325|203:260,1,140,2|10,3:2|0:0,0:0:0:0:
283,212,114340,1,0,3:0:0:0:
283,212,114421,1,0,3:0:0:0:
283,212,114503,2,0,P|287:177|291:142,1,70,2|2,3:2|3:2,0:0:0:0:
244,62,114829,1,10,0:2:0:0:
323,13,114992,6,0,P|385:49|370:117,1,140,4|2,3:2|3:2,0:0:0:0:
290,142,115481,2,0,P|238:135|208:133,1,70,10|0,0:2|0:0,0:0:0:0:
156,60,115807,1,2,3:2:0:0:
156,60,115970,1,0,3:0:0:0:
64,84,116133,2,0,P|71:133|73:175,1,70,10|0,0:2|0:0,0:0:0:0:
158,187,116459,2,0,P|151:236|149:278,1,70,0|0,3:0|3:0,0:0:0:0:
75,309,116786,1,8,0:0:0:0:
143,384,116949,1,0,3:0:0:0:
143,384,117030,1,8,0:0:0:0:
143,384,117112,2,0,P|177:380|212:376,1,70,0|0,3:0|3:0,0:0:0:0:
283,317,117438,1,8,0:0:0:0:
362,376,117601,1,0,3:0:0:0:
362,376,117682,1,0,3:0:0:0:
362,376,117764,6,0,P|380:297|342:242,1,140,4|8,3:2|0:0,0:0:0:0:
270,218,118253,1,0,0:0:0:0:
181,240,118416,1,0,3:0:0:0:
181,240,118579,2,0,P|178:148|171:77,1,140,0|8,3:0|0:0,0:0:0:0:
135,20,119068,2,0,P|174:19|214:14,1,70,0|0,0:0|3:0,0:0:0:0:
252,89,119394,2,0,P|286:89|321:93,1,70,8|0,0:0|3:0,0:0:0:0:
342,125,119639,1,0,3:0:0:0:
342,125,119720,2,0,P|376:125|411:121,1,70,0|0,3:0|3:0,0:0:0:0:
489,168,120046,2,0,P|496:225|449:253,1,105,8|0,0:0|0:0,0:0:0:0:
433,248,120372,6,0,P|398:243|363:243,1,70,12|0,0:2|3:0,0:0:0:0:
331,334,120699,2,0,P|296:333|261:329,1,70,8|0,0:0|3:0,0:0:0:0:
222,240,121025,2,0,P|187:235|152:235,1,70,8|0,0:0|3:0,0:0:0:0:
74,288,121351,1,8,0:0:0:0:
74,288,121514,1,0,3:0:0:0:
1,224,121677,1,12,0:2:0:0:
1,224,121840,2,0,P|8:146|21:62,1,140,0|0,3:0|3:0,0:0:0:0:
84,17,122329,2,0,P|118:20|153:22,1,70,8|0,0:0|0:0,0:0:0:0:
219,81,122655,1,0,1:0:0:0:
310,49,122818,1,0,1:0:0:0:
310,49,122900,1,0,1:0:0:0:
310,49,122981,6,0,P|305:85|301:130,1,70,4|2,3:2|0:2,0:0:0:0:
219,168,123307,2,0,P|224:204|228:249,1,70,10|2,0:2|0:2,0:0:0:0:
270,323,123633,1,2,3:2:0:0:
270,323,123796,1,0,3:0:0:0:
338,258,123959,1,8,0:0:0:0:
338,258,124122,2,0,B|411:245|384:313|465:301,1,140,2|0,3:2|3:0,0:0:0:0:
512,226,124612,1,10,0:0:0:0:
440,174,124775,1,0,3:0:0:0:
440,174,124856,1,0,3:0:0:0:
440,174,124938,2,0,P|435:124|439:84,1,70,2|2,3:2|3:2,0:0:0:0:
368,43,125264,1,10,0:2:0:0:
368,43,125427,6,0,P|297:22|260:69,1,140,6|0,3:2|3:0,0:0:0:0:
292,148,125916,2,0,P|292:188|286:238,1,70,8|0,0:0|3:0,0:0:0:0:
238,292,126242,1,8,0:0:0:0:
238,292,126405,1,0,3:0:0:0:
160,252,126568,1,8,0:0:0:0:
160,252,126731,1,0,3:0:0:0:
82,294,126894,2,0,P|79:259|79:224,1,70,8|0,0:0|3:0,0:0:0:0:
0,186,127220,2,0,P|3:151|3:116,1,70,8|0,0:0|1:0,0:0:0:0:
46,104,127465,1,0,1:0:0:0:
46,104,127546,2,0,P|43:69|43:34,1,70,0|0,1:0|1:0,0:0:0:0:
127,0,127872,2,0,P|166:1|222:-3,1,70,0|4,1:0|1:3,0:0:0:0:
267,57,128199,5,8,0:0:0:0:
267,57,128362,2,0,P|288:106|222:159,1,140,4|8,3:2|0:0,0:0:0:0:
146,145,128851,2,0,P|146:199|141:294,1,140,4|8,3:2|0:0,0:0:0:0:
208,343,129340,2,0,B|281:356|254:288|335:300,1,140,4|0,3:2|1:0,0:0:0:0:
408,343,129829,2,0,P|412:306|418:255,1,70,0|4,1:0|1:3,0:0:0:0:
344,219,130155,2,0,P|340:182|334:131,2,70,0|0|4,1:0|1:0|1:3,0:0:0:0:
281,281,130644,1,0,1:0:0:0:
221,216,130807,6,0,P|181:221|143:223,1,70,8|0,1:2|3:0,0:0:0:0:
78,272,131133,1,0,3:0:0:0:
78,272,131296,2,0,P|31:227|63:146,1,140,8|0,1:2|3:0,0:0:0:0:
97,89,131786,2,0,P|131:91|166:95,1,70,8|0,1:2|3:0,0:0:0:0:
220,24,132112,6,0,B|402:-11|317:197|514:159,1,335.999989746094,4|0,3:2|3:0,0:0:0:0:
502,0,133742,6,0,P|444:37|467:92,1,125.999996154785,4|0,1:2|3:0,0:0:0:0:
495,161,134231,1,0,3:0:0:0:
442,236,134394,1,8,0:0:0:0:
442,236,134557,2,0,P|377:226|308:219,1,125.999996154785,0|0,3:0|3:0,0:0:0:0:
234,254,135046,1,8,0:0:0:0:
204,173,135209,1,0,3:0:0:0:
204,173,135291,1,0,3:0:0:0:
204,173,135372,2,0,P|206:140|214:87,1,62.9999980773926,0|0,3:0|3:0,0:0:0:0:
170,33,135699,1,8,0:0:0:0:
80,44,135862,6,0,P|43:80|66:155,1,125.999996154785,4|0,3:2|3:0,0:0:0:0:
129,205,136351,1,8,0:0:0:0:
129,205,136514,1,0,0:0:0:0:
71,273,136677,2,0,P|74:308|72:337,1,62.9999980773926,0|0,3:0|3:0,0:0:0:0:
146,383,137003,1,8,0:0:0:0:
215,330,137166,2,0,B|279:325|262:379|335:372,1,125.999996154785,0|0,3:0|3:0,0:0:0:0:
386,307,137655,1,8,0:0:0:0:
318,254,137818,1,0,3:0:0:0:
318,254,137900,1,0,3:0:0:0:
318,254,137981,2,0,P|316:210|311:169,1,62.9999980773926,0|0,3:0|3:0,0:0:0:0:
388,146,138307,2,0,P|390:102|395:61,1,62.9999980773926,8|0,0:0|1:0,0:0:0:0:
369,62,138552,1,0,1:0:0:0:
369,62,138633,6,0,P|390:25|470:26,1,125.999996154785,4|8,3:2|0:0,0:0:0:0:
512,153,139286,1,0,3:0:0:0:
512,153,139449,1,0,3:0:0:0:
463,230,139612,2,0,P|430:225|387:223,1,62.9999980773926,0|8,3:0|0:0,0:0:0:0:
350,147,139938,2,0,P|290:116|234:167,1,125.999996154785,0|8,0:0|0:0,0:0:0:0:
233,243,140427,1,0,3:0:0:0:
233,243,140508,1,0,3:0:0:0:
233,243,140590,2,0,P|226:280|226:323,1,62.9999980773926,0|0,3:0|3:0,0:0:0:0:
147,356,140916,1,8,0:0:0:0:
60,314,141079,1,0,3:0:0:0:
60,314,141161,1,0,3:0:0:0:
60,314,141242,6,0,P|19:284|41:212,1,125.999996154785,4|8,3:2|0:0,0:0:0:0:
118,175,141731,1,0,3:0:0:0:
118,175,141894,2,0,P|129:98|135:26,1,125.999996154785,0|8,3:0|0:0,0:0:0:0:
217,8,142383,1,0,3:0:0:0:
217,8,142546,2,0,L|291:1,1,62.9999980773926,0|0,3:0|0:0,0:0:0:0:
353,56,142872,1,8,0:0:0:0:
432,17,143036,1,0,1:0:0:0:
432,17,143117,1,0,1:0:0:0:
432,17,143199,2,0,P|436:60|434:98,1,62.9999980773926,0|0,1:0|3:0,0:0:0:0:
367,137,143525,2,0,P|363:180|365:218,1,62.9999980773926,4|4,1:3|3:3,0:0:0:0:
413,282,143851,6,0,P|434:244|503:244,2,112,4|0|8,3:2|3:0|0:0,0:0:0:0:
317,357,144829,1,8,0:0:0:0:
317,357,144992,2,0,P|245:348|202:347,1,112,0|8,3:0|0:0,0:0:0:0:
130,309,145481,2,0,P|135:265|141:241,1,56,0|0,0:0|3:0,0:0:0:0:
68,202,145807,2,0,P|63:158|57:134,1,56,8|0,0:0|3:0,0:0:0:0:
119,82,146133,1,0,0:0:0:0:
233,117,146459,6,0,P|287:99|281:39,1,112,0|0,3:0|0:0,0:0:0:0:
217,10,146949,1,0,3:0:0:0:
217,10,147112,2,0,P|144:12|86:22,1,112,8|8,0:0|0:0,0:0:0:0:
9,98,147764,2,0,P|13:138|12:165,1,56,0|8,3:0|0:0,0:0:0:0:
58,223,148090,1,0,3:0:0:0:
173,187,148416,1,4,3:0:0:0:
280,233,148742,1,0,3:0:0:0:
387,183,149068,6,0,P|390:121|397:50,2,112,4|0|8,3:2|3:0|0:0,0:0:0:0:
459,275,150046,1,8,0:0:0:0:
459,275,150209,2,0,P|461:324|394:355,1,112,0|8,3:0|0:0,0:0:0:0:
338,317,150699,2,0,P|305:316|265:310,1,56,0|0,0:0|3:0,0:0:0:0:
226,378,151025,2,0,P|193:379|153:385,1,56,8|0,0:0|3:0,0:0:0:0:
102,331,151351,1,0,0:0:0:0:
122,212,151677,6,0,P|144:171|220:191,1,112,2|0,3:2|0:0,0:0:0:0:
265,238,152166,1,0,3:0:0:0:
265,238,152329,2,0,P|329:241|394:249,1,112,10|8,0:2|0:0,0:0:0:0:
494,215,152981,2,0,P|498:171|499:151,1,56,0|8,3:0|0:0,0:0:0:0:
428,113,153307,2,0,P|424:69|423:49,1,56,0|0,3:0|3:0,0:0:0:0:
351,13,153633,1,8,3:2:0:0:
351,13,153796,1,0,3:0:0:0:
295,76,153959,2,0,P|257:72|225:69,1,56,0|0,3:0|3:0,0:0:0:0:
182,7,154286,6,0,P|133:22|123:81,1,112,6|2,3:2|3:2,0:0:0:0:
163,153,154775,1,0,0:0:0:0:
163,153,154938,2,0,P|158:219|149:278,1,112,10|10,0:2|0:2,0:0:0:0:
191,338,155427,2,0,B|246:333|229:381|299:373,1,112,0|0,3:0|0:0,0:0:0:0:
367,334,155916,2,0,P|371:298|375:270,1,56,2|2,0:2|3:2,0:0:0:0:
455,243,156242,1,8,0:0:0:0:
455,243,156405,2,0,P|448:183|445:113,1,112,2|2,3:2|0:2,0:0:0:0:
392,64,156894,6,0,P|339:33|295:74,1,112,2|2,3:2|0:2,0:0:0:0:
277,142,157383,1,0,3:0:0:0:
277,142,157546,2,0,P|210:132|150:129,1,112,10|10,0:2|0:2,0:0:0:0:
81,138,158036,1,0,0:0:0:0:
81,138,158199,2,0,P|88:184|87:215,1,56,2|10,3:2|0:2,0:0:0:0:
17,239,158525,2,0,P|10:285|11:316,1,56,0|2,3:0|3:2,0:0:0:0:
78,352,158851,1,2,3:2:0:0:
78,352,159014,1,0,3:0:0:0:
152,310,159177,2,0,P|186:313|221:314,1,56,4|4,3:0|3:0,0:0:0:0:
291,285,159503,6,0,P|260:323|307:382,2,112,4|0|8,3:2|3:0|0:0,0:0:0:0:
405,239,160481,1,8,0:0:0:0:
405,239,160644,2,0,P|408:162|413:114,1,112,0|8,3:0|0:0,0:0:0:0:
368,54,161133,2,0,P|320:49|290:43,1,56,0|0,0:0|3:0,0:0:0:0:
259,115,161459,2,0,P|211:120|181:126,1,56,8|0,0:0|3:0,0:0:0:0:
140,62,161786,1,0,3:0:0:0:
1,150,162112,6,0,P|6:187|10:234,2,62.9999980773926,8|0|0,1:2|3:0|3:0,0:0:0:0:
61,77,162601,2,0,P|64:45|68:14,2,62.9999980773926,8|0|0,1:2|3:0|3:0,0:0:0:0:
132,146,163090,1,8,1:2:0:0:
132,146,163253,2,0,P|163:149|201:157,1,62.9999980773926,0|0,3:0|3:0,0:0:0:0:
281,110,163579,2,0,P|339:128|356:199,1,125.999996154785,8|0,1:2|3:0,0:0:0:0:
336,275,164068,2,0,P|300:279|244:288,1,62.9999980773926,8|0,1:2|3:0,0:0:0:0:
187,319,164394,1,0,1:2:0:0:
187,319,164557,1,0,3:0:0:0:
140,236,164720,6,0,P|93:228|31:224,2,94.499997116089,0|0|0,1:2|1:2|1:2,0:0:0:0:
207,174,165372,1,4,1:3:0:0:
207,174,165454,1,4,1:3:0:0:
207,174,165536,1,4,1:3:0:0:
168,85,165699,2,0,P|121:77|59:73,2,94.499997116089,0|0|0,1:2|1:2|1:2,0:0:0:0:
235,23,166351,1,4,1:3:0:0:
235,23,166433,1,4,1:3:0:0:
235,23,166515,1,4,1:3:0:0:
314,68,166677,2,0,P|311:107|311:138,1,62.9999980773926,0|4,1:2|1:3,0:0:0:0:
390,189,167003,1,4,1:3:0:0:
471,140,167166,1,4,1:3:0:0:
471,140,167247,1,4,1:3:0:0:
471,140,167329,1,2,1:2:0:0:
146,297,169286,5,8,3:2:0:0:
219,243,169449,1,8,3:2:0:0:
349,333,169775,6,0,P|413:342|430:263,1,140,4|0,3:2|3:0,0:0:0:0:
371,210,170264,2,0,P|375:153|380:118,1,70,10|0,0:2|0:0,0:0:0:0:
445,75,170590,1,2,3:2:0:0:
445,75,170753,1,0,3:0:0:0:
381,2,170916,2,0,P|343:6|294:5,1,70,10|0,0:2|3:0,0:0:0:0:
263,88,171242,2,0,P|225:84|176:85,1,70,2|2,0:2|3:2,0:0:0:0:
139,14,171568,1,10,0:2:0:0:
56,60,171731,1,0,3:0:0:0:
56,60,171813,1,8,0:0:0:0:
56,60,171894,2,0,P|60:95|62:130,1,70,2|2,3:2|3:2,0:0:0:0:
145,175,172220,1,10,0:2:0:0:
263,88,172546,6,0,B|336:75|309:143|390:131,1,140,4|8,3:2|0:0,0:0:0:0:
467,88,173036,1,0,0:0:0:0:
512,171,173199,1,0,3:0:0:0:
512,171,173362,2,0,P|507:224|508:313,1,140,0|8,3:0|0:0,0:0:0:0:
443,374,173851,2,0,P|406:374|365:379,1,70,0|0,0:0|3:0,0:0:0:0:
328,298,174177,1,8,0:0:0:0:
251,338,174340,1,0,3:0:0:0:
251,338,174421,1,0,3:0:0:0:
251,338,174503,2,0,P|214:338|173:333,1,70,0|0,3:0|3:0,0:0:0:0:
99,369,174829,2,0,P|46:356|53:296,1,105,8|0,0:0|0:0,0:0:0:0:
79,282,175155,6,0,P|78:236|75:199,1,70,12|0,0:2|3:0,0:0:0:0:
174,205,175481,2,0,P|175:159|178:122,1,70,8|0,0:0|3:0,0:0:0:0:
84,103,175807,2,0,P|83:57|80:20,1,70,8|0,0:0|3:0,0:0:0:0:
177,0,176133,1,8,0:0:0:0:
177,0,176296,1,0,3:0:0:0:
238,65,176459,6,0,B|311:52|284:120|365:108,1,140,12|8,0:2|0:0,0:0:0:0:
454,78,176949,1,0,3:0:0:0:
454,78,177112,2,0,P|448:120|447:149,1,70,4|4,3:3|3:3,0:0:0:0:
508,219,177438,1,0,1:0:0:0:
446,286,177601,1,0,1:0:0:0:
446,286,177682,1,0,1:0:0:0:
446,286,177764,6,0,P|386:278|361:275,1,70,6|0,3:2|0:0,0:0:0:0:
330,193,178090,2,0,P|270:201|245:204,1,70,10|0,0:2|0:0,0:0:0:0:
191,268,178416,1,2,3:2:0:0:
191,268,178579,1,0,3:2:0:0:
108,218,178742,2,0,P|107:172|103:144,1,70,10|0,0:2|3:2,0:0:0:0:
166,74,179068,2,0,P|200:69|235:64,1,70,2|2,0:2|3:2,0:0:0:0:
313,111,179394,1,10,0:2:0:0:
269,197,179557,1,0,3:0:0:0:
269,197,179639,1,0,3:0:0:0:
269,197,179720,2,0,P|273:231|273:266,1,70,2|2,3:2|3:2,0:0:0:0:
347,323,180046,1,10,0:2:0:0:
434,292,180209,6,0,P|475:239|428:175,1,140,4|0,3:2|3:0,0:0:0:0:
356,182,180699,2,0,P|315:185|281:192,1,70,8|0,0:0|3:0,0:0:0:0:
256,99,181025,2,0,P|215:96|181:89,1,70,8|0,0:0|3:0,0:0:0:0:
154,181,181351,2,0,P|113:184|79:191,1,70,8|0,0:0|3:0,0:0:0:0:
12,144,181677,1,4,3:3:0:0:
12,144,181758,1,4,3:3:0:0:
12,144,181840,1,4,3:3:0:0:
32,57,182003,2,0,P|66:63|101:65,1,70,4|0,3:3|1:0,0:0:0:0:
134,64,182247,1,0,1:0:0:0:
134,64,182329,1,0,1:0:0:0:
192,146,182492,2,0,P|226:140|261:138,2,70,0|0|4,1:0|1:0|1:3,0:0:0:0:
123,218,182981,5,8,0:0:0:0:
123,218,183144,2,0,P|98:278|166:329,1,140,4|8,3:2|0:0,0:0:0:0:
235,316,183633,2,0,B|308:303|281:371|362:359,1,140,4|8,3:2|0:0,0:0:0:0:
452,333,184122,2,0,P|457:260|465:188,1,140,4|0,3:2|1:0,0:0:0:0:
377,167,184612,2,0,P|376:125|372:90,1,70,0|4,1:0|1:3,0:0:0:0:
435,35,184938,1,0,1:0:0:0:
435,35,185101,1,0,1:0:0:0:
352,4,185264,2,0,P|309:11|271:13,1,70,4|0,1:3|1:0,0:0:0:0:
230,90,185590,6,0,P|187:83|149:81,1,70,8|0,1:2|3:0,0:0:0:0:
89,24,185916,1,0,3:0:0:0:
89,24,186079,2,0,P|44:45|55:128,1,140,8|0,1:2|3:0,0:0:0:0:
114,189,186568,2,0,P|113:232|108:271,1,70,8|0,1:2|3:0,0:0:0:0:
175,316,186894,6,0,B|327:345|256:170|421:202,1,293.999991027832,4|0,3:2|0:0,0:0:0:0:
493,252,188199,6,0,P|501:187|515:114,2,125.999996154785,4|8|0,3:2|0:0|3:0,0:0:0:0:
447,329,189014,1,0,3:0:0:0:
370,289,189177,1,10,0:2:0:0:
370,289,189340,2,0,B|307:273|310:330|250:309,1,125.999996154785,2|0,3:2|3:0,0:0:0:0:
163,337,189829,2,0,P|160:302|157:269,1,62.9999980773926,10|0,0:2|3:0,0:0:0:0:
132,256,190074,1,0,3:0:0:0:
132,256,190155,2,0,P|135:221|138:188,1,62.9999980773926,2|2,3:2|3:2,0:0:0:0:
80,120,190481,2,0,P|118:114|155:106,1,62.9999980773926,10|0,0:2|3:0,0:0:0:0:
217,61,190807,5,4,3:2:0:0:
217,61,190970,1,0,0:0:0:0:
283,116,191133,2,0,P|275:171|272:214,1,94.499997116089,8|0,0:0|0:0,0:0:0:0:
241,227,191459,2,0,P|248:267|251:295,1,62.9999980773926,2|0,3:2|3:0,0:0:0:0:
305,358,191786,1,8,0:0:0:0:
390,342,191949,2,0,P|438:304|415:234,1,125.999996154785,2|0,3:2|3:0,0:0:0:0:
371,180,192438,2,0,P|374:148|380:117,1,62.9999980773926,10|0,0:2|3:0,0:0:0:0:
427,107,192682,1,8,0:0:0:0:
427,107,192764,2,0,P|423:75|417:44,1,62.9999980773926,2|2,3:2|3:2,0:0:0:0:
345,0,193090,1,10,0:2:0:0:
280,63,193253,1,4,3:0:0:0:
280,63,193334,1,4,3:0:0:0:
280,63,193416,6,0,P|215:53|147:45,1,125.999996154785,4|8,3:2|0:0,0:0:0:0:
78,9,193905,1,0,0:0:0:0:
18,69,194068,2,0,P|22:114|24:140,1,62.9999980773926,0|0,3:0|3:0,0:0:0:0:
83,192,194394,1,10,0:2:0:0:
155,147,194557,2,0,P|210:135|257:202,1,125.999996154785,2|0,3:2|3:0,0:0:0:0:
228,258,195046,1,10,0:2:0:0:
297,313,195209,1,0,3:0:0:0:
297,313,195291,1,0,3:0:0:0:
297,313,195372,2,0,P|331:317|362:322,1,62.9999980773926,2|2,3:2|3:2,0:0:0:0:
414,384,195699,2,0,P|445:379|476:375,1,62.9999980773926,10|0,0:2|0:0,0:0:0:0:
510,297,196025,6,0,P|514:249|517:221,1,62.9999980773926,8|0,1:2|3:0,0:0:0:0:
465,163,196351,1,0,3:0:0:0:
465,163,196514,2,0,P|421:129|344:157,1,125.999996154785,8|0,1:2|3:0,0:0:0:0:
306,213,197003,2,0,P|274:210|243:207,1,62.9999980773926,8|0,1:2|3:0,0:0:0:0:
179,263,197329,6,0,P|83:256|88:93,1,293.999991027832,4|0,3:2|0:0,0:0:0:0:
159,59,198633,6,0,B|208:36|208:36|252:60,1,105,4|0,0:0|0:0,0:0:0:0:
269,74,198959,2,0,B|317:100|317:100|362:80,1,105,4|0,0:0|0:0,0:0:0:0:
391,69,199286,2,0,L|401:-28,2,70,8|8|8,3:0|3:0|3:0,0:0:0:0:
442,148,199775,2,0,B|462:193|462:193|436:241,1,105,4|0,0:0|0:0,0:0:0:0:
416,275,200101,2,0,L|311:264,1,105,0|0,3:0|0:0,0:0:0:0:
277,261,200427,1,0,3:0:0:0:
181,250,200590,1,8,0:0:0:0:
181,250,201242,6,0,B|161:204|161:204|187:156,1,105,4|0,0:0|0:0,0:0:0:0:
205,132,201568,2,0,L|310:143,1,105,4|0,0:0|0:0,0:0:0:0:
345,151,201894,1,8,3:0:0:0:
381,233,202057,1,8,3:0:0:0:
381,233,202220,1,8,3:0:0:0:
309,291,202383,2,0,L|204:280,1,105,4|0,0:0|0:0,0:0:0:0:
178,304,202709,2,0,L|73:293,1,105,0|0,3:0|0:0,0:0:0:0:
37,300,203036,1,0,3:0:0:0:
0,202,203199,2,0,L|77:210,1,70,8|0,0:0|3:0,0:0:0:0:
154,219,203525,1,8,0:0:0:0:
250,120,203851,6,0,B|276:70|276:70|256:25,1,105,4|0,0:0|0:0,0:0:0:0:
233,19,204177,2,0,L|128:8,1,105,4|0,0:0|0:0,0:0:0:0:
100,37,204503,2,0,L|24:29,2,70,8|8|8,3:0|3:0|3:0,0:0:0:0:
141,121,204992,2,0,B|165:170|165:170|127:239,1,105,4|0,0:0|0:0,0:0:0:0:
127,232,205318,2,0,B|101:280|101:280|133:351,1,105,0|0,3:0|0:0,0:0:0:0:
139,351,205644,1,0,3:0:0:0:
229,355,205807,1,8,0:0:0:0:
229,355,206459,6,0,L|334:366,1,105,4|0,0:0|0:0,0:0:0:0:
370,364,206785,2,0,B|396:314|396:314|376:269,1,105,4|0,0:0|0:0,0:0:0:0:
360,238,207112,1,8,3:0:0:0:
270,225,207275,1,8,3:0:0:0:
270,225,207438,1,8,3:0:0:0:
183,216,207601,2,0,B|157:166|157:166|177:121,1,105,4|0,0:0|0:0,0:0:0:0:
195,90,207927,2,0,L|300:101,1,105,0|0,3:0|0:0,0:0:0:0:
326,126,208253,1,0,3:0:0:0:
384,53,208416,2,0,L|453:60,1,70,8|0,0:0|3:0,0:0:0:0:
511,132,208742,1,8,0:0:0:0:
447,197,208905,5,4,0:0:0:0:
256,192,208987,12,0,214286,0:0:0:0:
