osu file format v14

[General]
AudioFilename: audio.mp3
AudioLeadIn: 0
PreviewTime: 167247
Countdown: 0
SampleSet: Soft
StackLeniency: 0.7
Mode: 0
LetterboxInBreaks: 0
WidescreenStoryboard: 1

[Editor]
Bookmarks: 12927,89068,143851,214286
DistanceSpacing: 1
BeatDivisor: 4
GridSize: 8
TimelineZoom: 1.8

[Metadata]
Title:Neverland
TitleUnicode:ネバーランド
Artist:the peggies
ArtistUnicode:the peggies
Creator:Seto Kousuke
Version:Wisoven's Normal
Source:
Tags:rock jrock j-rock japanese super boy ! super girl !! bird birds shirahane suou kouhane reicavera wisoven
BeatmapID:3913376
BeatmapSetID:1898721

[Difficulty]
HPDrainRate:3
CircleSize:3
OverallDifficulty:4
ApproachRate:6
SliderMultiplier:1
SliderTickRate:1

[Events]
//Background and Video events
0,0,"cute rock girl.jpg",0,0
//Break Periods
//Storyboard Layer 0 (Background)
//Storyboard Layer 1 (Fail)
//Storyboard Layer 2 (Pass)
//Storyboard Layer 3 (Foreground)
//Storyboard Layer 4 (Overlay)
//Storyboard Sound Samples

[TimingPoints]
373,326.086956521739,4,2,1,70,1,0
23841,326.086956521739,4,2,1,60,1,0
23841,-111.111111111111,4,2,1,60,0,0
34286,326.086956521739,4,2,1,70,1,0
52546,-111.111111111111,4,2,1,60,0,0
55155,-100,4,2,1,75,0,0
57764,-90.9090909090909,4,2,1,80,0,1
76025,-100,4,2,1,80,0,0
77329,-111.111111111111,4,2,1,80,0,0
78633,-100,4,2,1,70,0,0
99503,-100,4,2,1,75,0,0
107329,-111.111111111111,4,2,1,60,0,0
109938,-100,4,2,1,75,0,0
112546,-90.9090909090909,4,2,1,80,0,1
132112,-111.111111111111,4,2,1,80,0,0
133416,-111.111111111111,4,2,1,75,0,0
133742,-100,4,2,1,75,0,0
143851,-100,4,2,1,70,0,0
162112,-100,4,2,1,75,0,0
164802,-100,4,2,1,5,0,0
164965,-100,4,2,1,75,0,0
165046,-100,4,2,1,5,0,0
165209,-100,4,2,1,75,0,0
165780,-100,4,2,1,5,0,0
165943,-100,4,2,1,75,0,0
166025,-100,4,2,1,5,0,0
166188,-100,4,2,1,75,0,0
167329,-100,4,2,1,60,0,0
169286,-100,4,2,1,75,0,0
169775,-90.9090909090909,4,2,1,85,0,1
186894,-111.111111111111,4,2,1,85,0,0
188199,-100,4,2,1,80,0,0
197329,-111.111111111111,4,2,1,80,0,0
198633,-100,4,2,1,70,0,0
210372,-100,4,2,1,60,0,0
211679,-100,4,2,1,50,0,0
212981,-100,4,2,1,40,0,0
213470,-100,4,2,1,30,0,0
213959,-100,4,2,1,20,0,0
214204,-100,4,2,1,5,0,0

[Colours]
Combo1 : 154,114,127
Combo2 : 111,84,112
Combo3 : 140,80,96
Combo4 : 193,141,135

[HitObjects]
65,273,12927,6,0,L|126:263,1,50,8|8,0:0|0:0,0:0:0:0:
210,239,13416,6,0,L|201:355,2,100,4|4|8,0:0|0:0|3:3,0:0:0:0:
244,202,14231,2,0,L|299:219,1,50,8|8,3:3|3:3,0:0:0:0:
328,250,14557,1,4,0:0:0:0:
414,199,14883,1,0,3:0:0:0:
508,230,15209,1,0,3:0:0:0:
508,230,15372,1,8,0:0:0:0:
395,64,16025,6,0,P|341:51|294:24,2,100,4|4|8,0:0|0:0|3:3,0:0:0:0:
424,104,16840,2,0,P|400:125|383:148,1,50,8|8,3:3|3:3,0:0:0:0:
385,189,17166,1,4,0:0:0:0:
435,275,17492,1,0,3:0:0:0:
404,370,17818,1,0,3:0:0:0:
404,370,17981,2,0,L|455:373,2,50,8|0|8,0:0|3:0|0:0,0:0:0:0:
313,326,18633,6,0,L|211:370,2,100,4|4|8,0:0|0:0|3:2,0:0:0:0:
335,281,19449,2,0,L|330:231,1,50,8|8,3:2|3:2,0:0:0:0:
347,184,19775,1,4,0:0:0:0:
276,113,20101,1,0,3:0:0:0:
184,152,20427,1,0,3:0:0:0:
184,152,20590,1,8,0:0:0:0:
105,335,21242,6,0,P|55:351|2:364,2,100,4|4|8,0:0|0:0|3:2,0:0:0:0:
149,356,22057,2,0,L|200:362,1,50,8|8,3:2|3:2,0:0:0:0:
248,366,22383,1,4,0:0:0:0:
344,339,22709,1,0,3:0:0:0:
440,312,23036,1,0,3:0:0:0:
440,312,23199,2,0,L|446:364,2,50,8|0|8,0:0|3:0|0:0,0:0:0:0:
424,223,23841,6,0,P|354:133|465:102,1,269.999991760254,4|0,0:0|0:0,0:0:0:0:
487,14,25144,2,0,P|329:28|267:126,1,269.999991760254,4|0,0:0|0:0,0:0:0:0:
272,201,26449,2,0,B|224:194|194:160|194:160|137:227|32:224,1,269.999991760254,4|0,0:0|0:0,0:0:0:0:
54,136,27753,1,0,3:0:0:0:
54,136,27916,2,0,L|43:42,1,89.9999972534181,8|8,0:0|0:0,0:0:0:0:
124,7,28568,2,0,L|129:51,1,44.999998626709,0|8,3:0|0:0,0:0:0:0:
185,121,29057,6,0,B|301:140|321:24|439:44,1,269.999991760254,4|0,0:0|0:0,0:0:0:0:
501,104,30362,2,0,P|481:240|469:374,1,269.999991760254,4|0,0:0|0:0,0:0:0:0:
383,344,31666,2,0,B|301:382|301:382|212:364,2,179.999994506836,4|2|0,0:0|0:0|3:0,0:0:0:0:
352,259,33297,1,8,0:0:0:0:
403,185,33623,2,0,L|457:203,1,44.999998626709,0|2,1:0|0:0,0:0:0:0:
403,54,34286,6,0,L|497:22,2,100,4|8|0,0:0|0:0|3:0,0:0:0:0:
353,49,35101,1,2,3:2:0:0:
263,94,35427,2,0,P|218:85|153:83,1,100,2|0,3:2|3:0,0:0:0:0:
114,90,35916,1,8,0:0:0:0:
59,175,36242,2,0,L|7:182,2,50,0|0|8,3:0|3:0|0:0,0:0:0:0:
120,253,36894,6,0,P|114:304|110:357,2,100,0|8|0,3:0|0:0|3:0,0:0:0:0:
163,227,37709,1,2,3:2:0:0:
259,201,38036,2,0,L|270:313,1,100,2|0,3:2|3:0,0:0:0:0:
314,319,38525,1,8,0:0:0:0:
411,295,38851,2,0,L|416:348,2,50,0|0|8,3:0|3:0|0:0,0:0:0:0:
472,216,39503,6,0,P|452:172|425:122,1,100,4|8,0:0|0:0,0:0:0:0:
443,78,39992,2,0,L|327:88,1,100,0|2,0:0|3:2,0:0:0:0:
306,52,40481,1,0,0:0:0:0:
306,52,40644,1,2,3:2:0:0:
222,107,40970,2,0,L|216:159,2,50,0|8|0,3:0|0:0|3:0,0:0:0:0:
90,35,41786,2,0,L|84:84,1,50,8|0,0:0|0:0,0:0:0:0:
47,118,42112,6,0,P|68:197|72:231,1,100,4|8,3:2|0:0,0:0:0:0:
47,259,42601,1,0,0:0:0:0:
92,348,42927,1,2,3:2:0:0:
92,348,43090,2,0,L|147:336,1,50,8|4,0:0|3:2,0:0:0:0:
216,272,43579,1,0,3:0:0:0:
216,272,43742,1,8,0:0:0:0:
296,331,44068,2,0,L|293:382,2,50,0|0|12,1:0|1:0|3:0,0:0:0:0:
372,266,44720,6,0,L|474:253,1,100,4|0,3:2|3:0,0:0:0:0:
500,157,45372,2,0,B|401:170|401:170|312:118,1,200,8|0,0:0|3:0,0:0:0:0:
292,21,46351,1,0,3:0:0:0:
210,78,46677,2,0,L|97:84,1,100,8|0,0:0|0:0,0:0:0:0:
12,59,47329,6,0,P|25:130|28:169,1,100,0|0,3:0|3:0,0:0:0:0:
27,257,47981,2,0,L|130:244,1,100,8|0,0:0|0:0,0:0:0:0:
172,226,48470,2,0,B|154:282|154:282|186:374,1,150,8|0,0:0|1:0,0:0:0:0:
283,379,49286,1,0,1:0:0:0:
357,312,49612,1,12,3:0:0:0:
452,342,49938,6,0,L|460:239,1,100,4|0,3:2|3:0,0:0:0:0:
508,155,50590,2,0,L|305:160,1,200,8|0,0:0|3:0,0:0:0:0:
236,93,51568,1,0,3:0:0:0:
161,23,51894,2,0,P|215:-4|267:-3,1,100,8|0,0:0|0:0,0:0:0:0:
346,10,52546,6,0,B|423:158|417:367|417:367|386:309|328:290|328:290|296:361|219:379,1,629.999980773926,6|2,3:2|0:0,0:0:0:0:
133,335,55155,6,0,L|143:230,1,100,8|0,1:2|3:0,0:0:0:0:
118,191,55644,1,8,1:2:0:0:
21,215,55970,1,0,3:0:0:0:
21,215,56133,6,0,L|11:110,1,100,8|0,1:2|3:0,0:0:0:0:
36,71,56622,1,8,1:2:0:0:
131,101,56949,1,0,3:0:0:0:
131,101,57112,2,0,P|181:93|230:77,1,100,8|0,1:2|1:2,0:0:0:0:
305,0,57764,5,6,3:2:0:0:
364,92,58090,1,10,0:0:0:0:
314,189,58416,2,0,L|309:251,1,55.0000016784668,0|0,3:0|3:0,0:0:0:0:
354,275,58742,2,0,L|349:337,1,55.0000016784668,10|2,0:0|3:2,0:0:0:0:
323,378,59068,6,0,P|277:355|203:367,1,110.000003356934,2|10,0:0|0:0,0:0:0:0:
165,364,59557,1,0,0:0:0:0:
165,364,59720,2,0,P|155:304|137:237,1,110.000003356934,2|8,3:2|0:0,0:0:0:0:
191,230,60209,6,0,B|187:152|258:162|255:80,1,165.000005035401,6|8,3:2|0:0,0:0:0:0:
163,23,61025,1,2,3:2:0:0:
63,72,61351,1,10,0:2:0:0:
55,183,61677,2,0,L|51:242,1,55.0000016784668,2|2,3:2|3:2,0:0:0:0:
95,269,62003,2,0,L|60:326,2,55.0000016784668,10|0|2,0:2|3:0|3:2,0:0:0:0:
200,236,62655,1,10,0:2:0:0:
274,317,62981,6,0,P|324:331|394:341,1,110.000003356934,4|8,3:2|0:0,0:0:0:0:
477,286,63633,1,0,3:0:0:0:
477,286,63796,2,0,L|474:166,1,110.000003356934,0|8,3:0|0:0,0:0:0:0:
365,196,64449,1,0,3:0:0:0:
365,196,64612,2,0,L|362:76,1,110.000003356934,8|0,0:0|3:0,0:0:0:0:
379,33,65101,2,0,L|316:27,1,55.0000016784668,0|8,3:0|0:0,0:0:0:0:
215,12,65590,5,12,0:2:0:0:
147,98,65916,1,8,0:0:0:0:
257,112,66242,1,8,0:0:0:0:
187,200,66568,2,0,L|243:218,1,55.0000016784668,8|0,0:0|3:0,0:0:0:0:
293,208,66894,2,0,L|284:324,1,110.000003356934,12|8,0:2|0:0,0:0:0:0:
255,364,67383,1,0,3:0:0:0:
255,364,67546,2,0,P|225:328|154:316,1,110.000003356934,8|0,0:0|1:0,0:0:0:0:
62,352,68199,5,6,3:2:0:0:
83,244,68525,1,10,0:0:0:0:
43,141,68851,2,0,L|96:127,1,55.0000016784668,2|0,3:2|3:0,0:0:0:0:
103,72,69177,2,0,L|156:58,1,55.0000016784668,10|0,0:2|3:0,0:0:0:0:
163,3,69503,1,2,0:2:0:0:
266,40,69829,1,10,0:2:0:0:
369,77,70155,2,0,L|363:199,1,110.000003356934,0|10,3:0|0:2,0:0:0:0:
323,224,70644,6,0,P|258:216|214:307,1,165.000005035401,4|8,3:2|0:0,0:0:0:0:
302,353,71459,1,8,0:0:0:0:
394,295,71786,1,8,0:0:0:0:
486,353,72112,2,0,P|492:276|499:241,1,110.000003356934,8|8,0:0|0:0,0:0:0:0:
459,205,72601,2,0,P|453:128|446:93,1,110.000003356934,0|0,1:0|1:0,0:0:0:0:
396,74,73090,1,0,1:0:0:0:
288,99,73416,6,0,L|277:43,1,55.0000016784668,8|4,0:0|3:2,0:0:0:0:
175,3,73905,2,0,L|164:59,1,55.0000016784668,8|4,0:0|3:2,0:0:0:0:
177,166,74394,2,0,L|166:222,1,55.0000016784668,8|4,0:0|3:2,0:0:0:0:
114,316,74883,1,0,1:0:0:0:
114,316,75046,2,0,P|163:324|222:342,1,110.000003356934,0|0,1:0|1:0,0:0:0:0:
259,380,75536,1,0,1:0:0:0:
259,380,75699,2,0,L|317:375,1,55.0000016784668,4|0,1:3|1:0,0:0:0:0:
350,341,76025,5,8,1:2:0:0:
386,195,76514,1,8,1:2:0:0:
422,49,77003,1,8,1:2:0:0:
334,95,77329,6,0,B|244:89|244:89|162:125|162:125|72:119,1,269.999991760254,4|0,3:2|0:0,0:0:0:0:
93,217,78633,6,0,B|43:228|43:228|5:265,2,100,4|4|8,0:0|0:0|3:3,0:0:0:0:
138,238,79449,2,0,L|144:292,1,50,8|8,3:3|3:3,0:0:0:0:
129,335,79775,1,4,0:0:0:0:
218,378,80101,1,0,3:0:0:0:
287,306,80427,1,0,3:0:0:0:
287,306,80590,1,8,0:0:0:0:
187,132,81242,6,0,P|124:142|88:151,2,100,4|4|8,0:0|0:0|3:3,0:0:0:0:
232,111,82057,2,0,P|224:86|222:62,1,50,8|8,3:3|3:3,0:0:0:0:
254,24,82383,1,4,0:0:0:0:
353,37,82709,1,0,3:0:0:0:
452,51,83036,1,0,3:0:0:0:
452,51,83199,2,0,L|455:2,2,50,8|0|8,0:0|3:0|0:0,0:0:0:0:
419,145,83851,6,0,L|317:158,2,100,4|4|8,0:0|0:0|3:3,0:0:0:0:
458,175,84666,2,0,L|451:228,1,50,4|4,3:3|3:3,0:0:0:0:
472,269,84992,1,4,0:0:0:0:
404,342,85318,1,0,3:0:0:0:
304,330,85644,1,0,3:0:0:0:
304,330,85807,1,8,0:0:0:0:
125,240,86459,6,0,P|73:232|21:229,2,100,4|4|8,0:0|0:0|3:3,0:0:0:0:
169,217,87275,2,0,P|177:198|179:167,1,50,4|4,3:3|3:3,0:0:0:0:
148,129,87601,1,4,0:0:0:0:
179,34,87927,1,0,3:0:0:0:
278,23,88253,1,0,3:0:0:0:
278,23,88416,2,0,L|282:72,2,50,8|0|8,0:0|3:0|0:0,0:0:0:0:
377,19,89068,6,0,P|413:63|452:95,1,100,4|4,0:0|0:0,0:0:0:0:
487,181,89720,1,8,3:0:0:0:
487,181,89883,2,0,L|477:286,1,100,4|4,3:0|0:0,0:0:0:0:
398,342,90536,1,0,3:0:0:0:
398,342,90699,2,0,L|344:335,1,50,0|0,0:0|3:0,0:0:0:0:
309,305,91025,2,0,P|253:322|194:333,1,100,8|0,0:0|0:0,0:0:0:0:
118,296,91677,6,0,L|129:196,1,100,4|4,0:0|0:0,0:0:0:0:
212,141,92329,1,8,3:0:0:0:
212,141,92492,2,0,P|243:153|259:163,1,50,8|8,3:0|3:0,0:0:0:0:
295,193,92818,2,0,L|284:293,2,100,4|0|0,0:0|3:0|3:0,0:0:0:0:
341,174,93633,1,8,0:0:0:0:
411,102,93959,1,8,0:0:0:0:
376,8,94286,6,0,P|325:24|267:28,1,100,4|4,0:0|0:0,0:0:0:0:
205,96,94938,1,8,3:0:0:0:
205,96,95101,2,0,L|149:92,1,50,8|8,3:0|3:0,0:0:0:0:
109,113,95427,2,0,L|101:10,2,100,4|0|0,0:0|3:0|3:0,0:0:0:0:
82,155,96242,1,8,0:0:0:0:
112,250,96568,1,0,0:0:0:0:
211,237,96894,6,0,L|317:246,1,100,4|4,0:0|0:0,0:0:0:0:
347,279,97383,1,0,0:0:0:0:
347,279,97546,2,0,L|453:288,1,100,8|8,3:0|3:0,0:0:0:0:
491,264,98036,2,0,P|473:238|472:211,1,50,4|0,0:0|0:0,0:0:0:0:
256,49,99503,6,0,L|143:63,2,100,4|8|0,0:0|0:0|3:0,0:0:0:0:
293,82,100318,2,0,P|288:113|286:145,1,50,2|0,3:2|0:0,0:0:0:0:
312,173,100644,2,0,P|303:225|300:280,1,100,2|0,3:2|3:0,0:0:0:0:
328,313,101133,1,8,0:0:0:0:
250,376,101459,1,0,3:0:0:0:
156,339,101786,1,8,0:0:0:0:
59,365,102112,6,0,L|72:246,1,100,4|8,0:0|0:0,0:0:0:0:
109,234,102601,1,0,0:0:0:0:
37,164,102927,1,2,3:2:0:0:
72,70,103253,2,0,B|114:44|114:44|225:81,1,150,2|8,3:2|0:0,0:0:0:0:
302,113,104068,2,0,L|298:165,2,50,0|0|8,3:0|3:0|0:0,0:0:0:0:
401,113,104720,6,0,L|392:12,2,100,4|8|0,0:0|0:0|3:0,0:0:0:0:
439,145,105536,2,0,P|425:172|423:200,1,50,2|0,3:2|0:0,0:0:0:0:
461,221,105862,2,0,P|437:267|433:314,1,100,2|0,3:2|3:0,0:0:0:0:
403,353,106351,1,8,0:0:0:0:
304,367,106677,1,0,3:0:0:0:
242,288,107003,2,0,L|250:237,1,50,8|0,0:0|0:0,0:0:0:0:
235,195,107329,6,0,B|192:188|192:188|153:197|122:227|122:227|98:212|62:201,2,179.999994506836,2|0|2,0:0|0:0|0:0,0:0:0:0:
403,258,109286,2,0,P|426:194|438:122,1,134.999995880127,2|0,0:0|0:0,0:0:0:0:
464,86,109938,6,0,P|423:71|354:58,1,100,8|0,1:2|3:0,0:0:0:0:
324,83,110427,1,8,1:2:0:0:
228,53,110753,1,0,3:0:0:0:
228,53,110916,2,0,L|233:164,1,100,8|0,1:2|3:0,0:0:0:0:
272,183,111405,2,0,L|267:294,1,100,8|0,1:2|3:0,0:0:0:0:
233,319,111894,1,8,1:2:0:0:
233,319,112057,1,0,3:0:0:0:
77,373,112546,5,6,3:2:0:0:
9,286,112872,1,10,0:0:0:0:
51,184,113199,2,0,L|108:176,1,55.0000016784668,2|0,3:2|0:0,0:0:0:0:
140,219,113525,2,0,L|197:211,1,55.0000016784668,10|0,0:0|0:0,0:0:0:0:
228,255,113851,2,0,P|291:240|343:238,1,110.000003356934,2|10,3:2|0:0,0:0:0:0:
381,269,114340,1,0,3:0:0:0:
381,269,114503,2,0,L|402:156,1,110.000003356934,2|10,3:2|0:2,0:0:0:0:
441,124,114992,6,0,P|470:63|388:39,1,165.000005035401,4|10,3:2|0:2,0:0:0:0:
294,74,115807,1,2,3:2:0:0:
202,12,116133,1,10,0:2:0:0:
102,61,116459,1,0,3:0:0:0:
102,61,116622,2,0,L|118:180,1,110.000003356934,0|0,3:0|3:0,0:0:0:0:
84,215,117112,2,0,P|53:205|30:191,2,55.0000016784668,0|0|8,3:0|3:0|0:0,0:0:0:0:
172,280,117764,6,0,L|296:298,1,110.000003356934,4|8,3:2|0:0,0:0:0:0:
390,288,118416,1,0,3:0:0:0:
390,288,118579,2,0,P|423:329|487:330,2,110.000003356934,0|8|0,3:0|0:0|3:0,0:0:0:0:
426,246,119394,2,0,B|430:191|430:191|414:136,1,110.000003356934,8|0,0:0|3:0,0:0:0:0:
370,104,119883,2,0,L|378:44,1,55.0000016784668,0|8,3:0|0:0,0:0:0:0:
276,5,120372,5,12,0:2:0:0:
215,97,120699,1,8,0:0:0:0:
291,176,121025,2,0,L|282:233,1,55.0000016784668,8|0,0:0|3:0,0:0:0:0:
247,272,121351,2,0,L|256:329,1,55.0000016784668,8|0,0:0|3:0,0:0:0:0:
306,347,121677,2,0,P|353:339|417:318,1,110.000003356934,12|8,0:2|0:0,0:0:0:0:
466,330,122166,1,0,3:0:0:0:
466,330,122329,2,0,L|456:220,1,110.000003356934,8|0,0:0|1:0,0:0:0:0:
501,120,122981,6,0,P|468:106|442:99,1,55.0000016784668,4|2,3:2|0:2,0:0:0:0:
430,49,123307,2,0,P|397:35|371:28,1,55.0000016784668,10|2,0:2|0:2,0:0:0:0:
323,27,123633,1,2,3:2:0:0:
213,32,123959,1,8,0:0:0:0:
188,139,124286,2,0,L|246:149,1,55.0000016784668,0|0,0:0|3:0,0:0:0:0:
267,196,124612,2,0,L|325:206,1,55.0000016784668,10|0,0:0|3:0,0:0:0:0:
376,202,124938,2,0,P|362:247|395:298,1,110.000003356934,2|10,3:2|0:2,0:0:0:0:
440,325,125427,6,0,B|388:344|345:380|345:380|314:364|274:359,1,165.000005035401,6|8,3:2|0:0,0:0:0:0:
184,376,126242,1,8,0:0:0:0:
117,288,126569,1,8,0:0:0:0:
160,186,126894,6,0,P|192:182|221:192,1,55.0000016784668,8|0,0:0|3:0,0:0:0:0:
248,230,127220,2,0,P|274:236|301:232,1,55.0000016784668,8|0,0:0|1:0,0:0:0:0:
344,198,127546,2,0,L|327:89,1,110.000003356934,0|0,1:0|1:0,0:0:0:0:
242,18,128199,6,0,L|232:77,1,55.0000016784668,8|4,0:0|3:2,0:0:0:0:
124,93,128688,2,0,L|114:152,1,55.0000016784668,8|4,0:0|3:2,0:0:0:0:
6,168,129177,2,0,L|16:227,1,55.0000016784668,8|4,0:0|3:2,0:0:0:0:
105,284,129666,2,0,L|115:343,1,55.0000016784668,0|0,1:0|1:0,0:0:0:0:
217,375,130155,2,0,P|277:364|334:358,1,110.000003356934,0|4,1:0|1:3,0:0:0:0:
366,322,130644,1,0,1:0:0:0:
366,322,130807,6,0,P|328:302|323:228,1,110.000003356934,8|0,1:2|3:0,0:0:0:0:
359,204,131296,2,0,P|397:184|402:110,1,110.000003356934,8|0,1:2|3:0,0:0:0:0:
369,82,131786,1,8,1:2:0:0:
283,108,132112,6,0,B|146:124|36:20|36:20|38:73|75:102,1,359.999989013672,4|0,3:2|3:0,0:0:0:0:
104,192,133742,6,0,L|0:206,2,100,4|0|8,1:2|3:0|0:0,0:0:0:0:
145,220,134557,2,0,P|153:268|157:323,1,100,0|0,3:0|3:0,0:0:0:0:
189,357,135046,1,8,0:0:0:0:
279,314,135372,2,0,L|283:262,2,50,0|0|8,3:0|3:0|0:0,0:0:0:0:
313,350,135862,6,0,P|354:362|412:286,1,150,4|8,3:2|0:0,0:0:0:0:
493,230,136677,1,0,3:0:0:0:
435,150,137003,1,8,0:0:0:0:
435,150,137166,2,0,P|372:164|324:170,1,100,0|0,3:0|3:0,0:0:0:0:
256,109,137818,1,0,3:0:0:0:
295,17,138144,1,0,3:0:0:0:
295,17,138307,2,0,P|325:18|350:22,1,50,8|0,0:0|1:0,0:0:0:0:
377,58,138633,6,0,L|480:62,1,100,4|8,3:2|0:0,0:0:0:0:
440,155,139286,2,0,L|337:159,1,100,0|0,3:0|3:0,0:0:0:0:
302,191,139775,1,8,0:0:0:0:
302,191,139938,2,0,B|316:240|316:240|297:288,1,100,0|8,0:0|0:0,0:0:0:0:
198,277,140590,2,0,B|184:228|184:228|203:180,1,100,0|8,3:0|0:0,0:0:0:0:
176,139,141079,1,0,0:0:0:0:
176,139,141242,6,0,P|122:98|37:98,1,150,4|0,3:2|3:0,0:0:0:0:
12,136,141894,2,0,B|5:186|5:186|33:229|33:229|25:283,1,150,0|0,3:0|3:0,0:0:0:0:
3,321,142546,1,0,3:0:0:0:
93,363,142872,1,8,0:0:0:0:
174,306,143199,2,0,L|226:315,2,50,0|0|4,1:0|3:0|1:3,0:0:0:0:
165,207,143851,6,0,P|165:180|152:109,1,100,4|0,3:2|3:0,0:0:0:0:
112,16,144503,2,0,L|213:7,1,100,8|8,0:0|0:0,0:0:0:0:
271,87,145155,2,0,L|370:95,1,100
469,80,145807,1,8,0:0:0:0:
500,174,146133,1,0,0:0:0:0:
420,234,146459,6,0,B|375:213|375:213|285:259,1,150,0|0,3:0|3:0,0:0:0:0:
247,351,147275,1,0,0:0:0:0:
154,314,147601,1,0,0:0:0:0:
154,314,147764,2,0,L|145:367,2,50,0|8|0,3:0|0:0|3:0,0:0:0:0:
113,222,148416,2,0,L|122:169,2,50,4|4|0,3:0|3:0|3:0,0:0:0:0:
21,261,149068,6,0,P|9:190|-3:148,1,100,4|0,3:2|3:0,0:0:0:0:
40,70,149720,1,8,0:0:0:0:
135,99,150046,1,8,0:0:0:0:
135,99,150209,2,0,B|182:82|182:82|237:85,1,100,0|8,3:0|0:0,0:0:0:0:
301,156,150862,1,0,3:0:0:0:
301,156,151025,2,0,P|335:161|354:162,2,50,8|0|0,0:0|3:0|0:0,0:0:0:0:
222,217,151677,6,0,L|234:318,1,100,2|0,3:2|0:0,0:0:0:0:
325,355,152329,2,0,L|337:254,1,100,10|8,0:2|0:0,0:0:0:0:
424,207,152981,1,0,3:0:0:0:
424,207,153144,2,0,B|417:154|359:126|352:76,1,150,8|8,0:0|3:2,0:0:0:0:
312,46,153796,2,0,P|303:77|295:97,1,50,0|0,3:0|3:0,0:0:0:0:
203,131,154286,6,0,P|142:133|94:144,1,100,6|2,3:2|3:2,0:0:0:0:
54,228,154938,2,0,P|114:230|163:241,1,100,10|10,0:2|0:2,0:0:0:0:
175,282,155427,1,0,3:0:0:0:
175,282,155590,2,0,P|182:331|231:355,1,100,2|2,0:2|0:2,0:0:0:0:
266,330,156079,2,0,L|367:340,1,100,2|2,3:2|3:2,0:0:0:0:
439,272,156731,1,2,0:2:0:0:
439,272,156894,6,0,P|442:234|450:168,1,100,2|2,3:2|0:2,0:0:0:0:
349,162,157546,2,0,P|346:124|338:58,1,100,10|10,0:2|0:2,0:0:0:0:
293,41,158036,1,0,0:0:0:0:
293,41,158199,2,0,P|243:38|191:29,1,100,2|0,3:2|3:0,0:0:0:0:
148,51,158688,1,2,3:2:0:0:
79,124,159014,1,0,3:0:0:0:
130,216,159340,1,4,3:0:0:0:
130,216,159503,6,0,B|133:246|133:246|119:318,2,100,4|0|8,3:2|3:0|0:0,0:0:0:0:
219,170,160481,1,8,0:0:0:0:
219,170,160644,2,0,L|324:176,1,100,0|8,3:0|0:0,0:0:0:0:
360,203,161133,2,0,P|359:259|323:306,1,100,0|8,0:0|0:0,0:0:0:0:
296,326,161622,1,0,3:0:0:0:
151,367,162112,6,0,B|126:342|126:342|116:267,1,100,8|0,1:2|3:0,1:2:0:0:
147,236,162601,1,8,1:2:0:0:
206,155,162927,1,0,3:0:0:0:
206,155,163090,2,0,P|205:104|199:54,1,100,8|0,1:2|3:0,0:0:0:0:
156,30,163579,1,8,1:2:0:0:
61,63,163905,1,0,3:0:0:0:
61,63,164068,2,0,P|61:112|67:162,1,100,8|0,1:2|1:2,0:0:0:0:
66,263,164720,6,0,L|72:339,2,75,0|0|0,1:2|1:2|1:2,0:0:0:0:
116,267,165372,2,0,P|146:279|165:294,1,50,4|4,1:3|1:3,0:0:0:0:
204,265,165699,2,0,L|210:189,2,75,0|0|0,1:2|1:2|1:2,0:0:0:0:
239,300,166351,1,4,1:3:0:0:
317,362,166677,1,0,1:2:0:0:
413,334,167003,2,0,L|425:286,1,50,4|4,1:3|1:3,0:0:0:0:
398,243,167329,5,2,1:2:0:0:
118,81,169286,5,8,3:2:0:0:
118,81,169449,1,8,3:2:0:0:
47,165,169775,6,0,P|38:207|128:270,1,165.000005035401,4|10,3:2|0:2,0:0:0:0:
226,227,170590,1,2,3:2:0:0:
296,311,170916,1,10,0:2:0:0:
396,267,171242,2,0,P|390:234|388:205,1,55.0000016784668,2|2,0:2|3:2,0:0:0:0:
425,172,171568,2,0,P|430:139|433:110,1,55.0000016784668,10|0,0:2|3:0,0:0:0:0:
396,76,171894,2,0,B|341:67|341:67|277:91,1,110.000003356934,2|10,3:2|0:2,0:0:0:0:
191,135,172546,6,0,P|161:82|105:46,2,110.000003356934,4|8|0,3:2|0:0|3:0,0:0:0:0:
173,187,173362,2,0,P|133:196|51:207,1,110.000003356934,0|8,3:0|0:0,0:0:0:0:
3,297,174014,1,0,3:0:0:0:
3,297,174177,2,0,P|57:304|111:315,1,110.000003356934,8|0,0:0|3:0,0:0:0:0:
145,358,174666,2,0,L|199:346,1,55.0000016784668,0|8,3:0|0:0,0:0:0:0:
262,256,175155,5,12,0:2:0:0:
344,328,175481,1,8,0:0:0:0:
447,293,175807,2,0,P|442:264|432:236,1,55.0000016784668,8|0,0:0|3:0,0:0:0:0:
452,188,176133,2,0,P|443:161|438:134,1,55.0000016784668,8|0,0:0|3:0,0:0:0:0:
388,113,176459,2,0,P|329:117|298:81,1,110.000003356934,12|8,0:2|0:0,0:0:0:0:
251,52,176949,1,0,3:0:0:0:
251,52,177112,2,0,L|141:59,1,110.000003356934,4|0,3:3|1:0,0:0:0:0:
38,20,177764,5,6,3:2:0:0:
54,128,178090,1,10,0:2:0:0:
70,236,178416,2,0,P|106:241|137:248,1,55.0000016784668,2|0,3:2|3:2,0:0:0:0:
142,297,178742,2,0,P|178:302|209:309,1,55.0000016784668,10|0,0:2|3:2,0:0:0:0:
214,358,179068,2,0,P|251:347|324:342,1,110.000003356934,2|10,0:2|0:2,0:0:0:0:
368,371,179557,1,0,3:0:0:0:
368,371,179720,2,0,B|357:318|357:318|392:262,1,110.000003356934,2|10,3:2|0:2,0:0:0:0:
441,263,180209,6,0,L|420:88,1,165.000005035401,4|8,3:2|0:0,0:0:0:0:
327,41,181025,1,8,0:0:0:0:
256,125,181351,1,8,0:0:0:0:
313,218,181677,2,0,L|303:333,1,110.000003356934,4|4,3:3|3:3,0:0:0:0:
252,348,182166,2,0,P|231:318|154:301,1,110.000003356934,0|0,1:0|1:0,0:0:0:0:
110,316,182655,1,0,1:0:0:0:
25,246,182981,6,0,L|43:193,1,55.0000016784668,8|4,0:0|3:2,0:0:0:0:
145,154,183470,2,0,L|163:101,1,55.0000016784668,8|4,0:0|3:2,0:0:0:0:
246,172,183959,2,0,L|264:225,1,55.0000016784668,8|4,0:0|3:2,0:0:0:0:
365,264,184449,2,0,L|383:317,1,55.0000016784668,0|0,1:0|1:0,0:0:0:0:
484,356,184938,1,0,1:0:0:0:
484,356,185101,2,0,P|495:296|497:238,1,110.000003356934,0|0,1:0|1:0,0:0:0:0:
467,200,185590,5,8,1:2:0:0:
308,245,186079,1,8,1:2:0:0:
189,129,186568,1,8,1:2:0:0:
253,66,186894,6,0,P|199:40|159:213,1,314.999990386963,4|0,3:2|0:0,0:0:0:0:
176,255,188199,6,0,L|65:271,1,100,4|8,3:2|0:0,0:0:0:0:
32,358,188851,1,0,3:0:0:0:
32,358,189014,2,0,L|88:368,1,50,0|10,3:0|0:2,0:0:0:0:
177,343,189503,1,0,0:0:0:0:
273,373,189829,1,10,0:2:0:0:
370,350,190155,2,0,P|410:350|475:358,1,100,2|10,3:2|0:2,0:0:0:0:
497,315,190644,1,0,3:0:0:0:
497,315,190807,6,0,P|460:277|467:227,1,100,4|8,3:2|0:0,0:0:0:0:
503,141,191459,1,2,3:2:0:0:
419,84,191786,1,8,0:0:0:0:
419,84,191949,2,0,B|362:93|364:164|304:175,1,150,2|10,3:2|0:2,0:0:0:0:
216,130,192764,2,0,L|166:125,2,50,2|2|10,3:2|3:2|0:2,0:0:0:0:
250,36,193416,6,0,L|150:26,1,100,4|8,3:2|0:0,0:0:0:0:
108,54,193905,2,0,P|63:49|21:98,1,100,0|0,0:0|3:0,0:0:0:0:
31,133,194394,1,10,0:2:0:0:
16,231,194720,6,0,L|117:221,1,100,0|10,0:0|0:2,0:0:0:0:
139,265,195209,2,0,L|240:255,1,100,0|2,3:0|3:2,0:0:0:0:
284,275,195699,2,0,L|297:226,1,50,10|0,0:2|0:0,0:0:0:0:
340,201,196025,5,8,1:2:0:0:
436,225,196351,1,0,3:0:0:0:
436,225,196514,2,0,P|432:185|452:129,1,100,8|0,1:2|3:0,0:0:0:0:
496,106,197003,2,0,P|473:73|470:57,1,50,8|0,1:2|3:0,0:0:0:0:
473,19,197329,6,0,B|435:20|405:9|405:9|326:20|326:110|245:119,1,269.999991760254,4|0,3:2|0:0,0:0:0:0:
145,133,198633,6,0,B|134:82|134:82|113:31,2,100,4|4|8,0:0|0:0|3:0,0:0:0:0:
121,177,199449,2,0,L|114:228,1,50,8|8,3:0|3:0,0:0:0:0:
90,270,199775,1,4,0:0:0:0:
181,311,200101,1,0,3:0:0:0:
262,252,200427,1,0,3:0:0:0:
262,252,200590,1,8,0:0:0:0:
459,282,201242,6,0,L|466:384,2,100,4|4|8,0:0|0:0|3:0,0:0:0:0:
493,245,202057,2,0,L|489:195,1,50,8|8,3:0|3:0,0:0:0:0:
457,156,202383,1,4,0:0:0:0:
358,172,202709,1,0,3:0:0:0:
295,95,203036,1,0,3:0:0:0:
295,95,203199,2,0,L|305:37,2,50,8|0|8,0:0|3:0|0:0,0:0:0:0:
199,123,203851,6,0,L|188:5,2,100,4|4|8,0:0|0:0|3:0,0:0:0:0:
165,160,204666,2,0,P|173:194|174:210,1,50,8|8,3:0|3:0,0:0:0:0:
153,254,204992,1,4,0:0:0:0:
250,275,205318,1,0,3:0:0:0:
347,295,205644,1,0,3:0:0:0:
347,295,205807,1,8,0:0:0:0:
403,103,206459,6,0,P|446:85|501:68,2,100,4|4|8,0:0|0:0|3:0,0:0:0:0:
360,130,207275,2,0,P|334:115|309:108,1,50,8|8,3:0|3:0,0:0:0:0:
269,129,207601,1,4,0:0:0:0:
178,86,207927,1,0,3:0:0:0:
95,143,208253,1,0,3:0:0:0:
95,143,208416,2,0,L|83:89,2,50,8|0|8,0:0|3:0|0:0,0:0:0:0:
67,184,208905,5,4,0:0:0:0:
256,192,208987,12,0,214286,0:0:0:0:
