osu file format v14

[General]
AudioFilename: audio.mp3
AudioLeadIn: 0
PreviewTime: 167247
Countdown: 0
SampleSet: Soft
StackLeniency: 0.7
Mode: 0
LetterboxInBreaks: 0
WidescreenStoryboard: 0

[Editor]
Bookmarks: 13416,34286,57764,78633,99503,122981,143851,167329,188199,208905
DistanceSpacing: 1
BeatDivisor: 4
GridSize: 4
TimelineZoom: 1.6

[Metadata]
Title:Neverland
TitleUnicode:ネバーランド
Artist:the peggies
ArtistUnicode:the peggies
Creator:Seto Kousuke
Version:Kouhane's Insane
Source:
Tags:rock jrock j-rock japanese super boy ! super girl !! bird birds shirahane suou kouhane reicavera wisoven
BeatmapID:3913375
BeatmapSetID:1898721

[Difficulty]
HPDrainRate:5
CircleSize:4
OverallDifficulty:8
ApproachRate:9
SliderMultiplier:1.5
SliderTickRate:1

[Events]
//Background and Video events
0,0,"cute rock girl.jpg",0,0
//Break Periods
//Storyboard Layer 0 (Background)
//Storyboard Layer 1 (Fail)
//Storyboard Layer 2 (Pass)
//Storyboard Layer 3 (Foreground)
//Storyboard Layer 4 (Overlay)
//Storyboard Sound Samples

[TimingPoints]
373,326.086956521739,4,2,1,70,1,0
23841,326.086956521739,4,2,1,60,1,0
23841,-133.333333333333,4,2,1,60,0,0
32971,-100,4,2,1,60,0,0
33786,-200,4,2,1,60,0,0
34286,326.086956521739,4,2,1,70,1,0
44720,-86.9565217391303,4,2,1,70,0,0
46025,-117.647058823529,4,2,1,70,0,0
49938,-86.9565217391304,4,2,1,70,0,0
51242,-117.647058823529,4,2,1,70,0,0
52546,-232.558139534884,4,2,1,60,0,0
55155,-100,4,2,1,75,0,0
57764,-86.9565217391304,4,2,1,80,0,1
77329,-250,4,2,1,80,0,0
78633,-250,4,2,1,70,0,0
99503,-100,4,2,1,75,0,0
107329,-250,4,2,1,60,0,0
109938,-100,4,2,1,75,0,0
112546,-86.9565217391304,4,2,1,80,0,1
132112,-181.818181818182,4,2,1,80,0,1
133416,-86.9565217391304,4,2,1,75,0,0
143851,-111.111111111111,4,2,1,70,0,0
162112,-100,4,2,1,75,0,0
164802,-100,4,2,1,5,0,0
164965,-100,4,2,1,75,0,0
165046,-100,4,2,1,5,0,0
165209,-100,4,2,1,75,0,0
165780,-100,4,2,1,5,0,0
165943,-100,4,2,1,75,0,0
166025,-100,4,2,1,5,0,0
166188,-100,4,2,1,75,0,0
167329,-333.333333333333,4,2,1,60,0,0
169286,-333.333333333333,4,2,1,75,0,0
169775,-80,4,2,1,85,0,1
175155,-222.222222222221,4,2,1,85,0,1
177764,-80,4,2,1,85,0,1
186894,-181.818181818181,4,2,1,85,0,1
188199,-86.9565217391304,4,2,1,80,0,1
197329,-250,4,2,1,80,0,0
198633,-100,4,2,1,70,0,0
210372,-100,4,2,1,60,0,0
211679,-100,4,2,1,50,0,0
212981,-100,4,2,1,40,0,0
213470,-100,4,2,1,30,0,0
213959,-100,4,2,1,20,0,0
214204,-100,4,2,1,5,0,0

[Colours]
Combo1 : 154,114,127
Combo2 : 111,84,112
Combo3 : 140,80,96
Combo4 : 193,141,135

[HitObjects]
444,149,12927,5,8,0:0:0:0:
290,96,13090,1,8,0:0:0:0:
290,96,13416,6,0,L|306:223,1,112.5,4|0,0:0|0:0,0:0:0:0:
362,264,13742,2,0,L|342:369,1,75,4|0,0:0|0:0,0:0:0:0:
142,369,14068,5,8,3:3:0:0:
176,285,14231,1,8,3:3:0:0:
264,286,14394,1,8,3:3:0:0:
133,371,14557,6,0,P|91:354|102:279,1,112.5,4|0,0:0|0:0,0:0:0:0:
120,226,14883,2,0,L|105:129,1,75,0|0,3:0|0:0,0:0:0:0:
193,22,15209,1,0,3:0:0:0:
293,140,15372,1,8,0:0:0:0:
293,140,16025,6,0,L|278:251,1,112.5,4|0,0:0|0:0,0:0:0:0:
227,308,16351,2,0,B|258:330|258:330|297:327,1,75,4|0,0:0|0:0,0:0:0:0:
190,224,16677,5,8,3:3:0:0:
105,200,16840,1,8,3:3:0:0:
50,272,17003,1,8,3:3:0:0:
201,223,17166,6,0,L|184:94,1,112.5,4|0,0:0|0:0,0:0:0:0:
139,47,17492,2,0,P|113:73|106:110,1,75,0|0,3:0|0:0,0:0:0:0:
274,148,17818,1,0,3:0:0:0:
243,24,17981,1,8,0:0:0:0:
186,111,18144,1,0,3:0:0:0:
334,73,18307,2,0,L|434:90,1,75,8|0,0:0|0:0,0:0:0:0:
508,192,18633,6,0,P|462:184|413:235,1,112.5,4|0,0:0|0:0,0:0:0:0:
382,297,18959,2,0,L|464:310,1,75,4|0,0:0|0:0,0:0:0:0:
326,231,19286,5,8,3:2:0:0:
240,253,19449,1,8,3:2:0:0:
154,275,19612,1,8,3:2:0:0:
249,121,19775,6,0,B|279:106|279:106|265:198,1,112.5,4|0,0:0|0:0,0:0:0:0:
240,253,20101,2,0,L|254:346,1,75,0|0,3:0|0:0,0:0:0:0:
184,191,20427,1,0,3:0:0:0:
332,314,20590,1,8,0:0:0:0:
332,314,21242,6,0,P|378:325|444:282,1,112.5,4|0,0:0|0:0,0:0:0:0:
478,231,21568,2,0,L|463:142,1,75,4|0,0:0|0:0,0:0:0:0:
321,80,21894,5,8,3:2:0:0:
297,165,22057,1,8,3:2:0:0:
369,220,22220,1,8,3:2:0:0:
326,70,22383,6,0,B|295:50|274:52|274:52|258:68|218:82,1,112.5,4|0,0:0|0:0,0:0:0:0:
150,56,22709,2,0,L|141:140,1,75,0|0,3:0|0:0,0:0:0:0:
57,266,23036,1,0,3:0:0:0:
189,233,23199,1,8,0:0:0:0:
59,176,23362,1,0,3:0:0:0:
146,313,23525,2,0,P|195:323|236:307,1,75,8|0,0:0|0:0,0:0:0:0:
296,242,23841,6,0,L|314:353,1,112.500004291535,4|0,0:0|0:0,0:0:0:0:
409,384,24493,2,0,L|390:272,1,112.500004291535,2|0,0:0|0:0,0:0:0:0:
359,127,25145,1,4,0:0:0:0:
359,127,25471,2,0,P|317:138|260:98,1,112.500004291535,2|0,0:0|0:0,0:0:0:0:
170,114,25961,1,2,0:0:0:0:
170,114,26124,2,0,L|178:56,1,56.2500021457673
225,182,26450,6,0,L|209:293,1,112.500004291535,4|0,0:0|0:0,0:0:0:0:
105,384,27102,1,2,0:0:0:0:
105,384,27265,2,0,L|89:272,1,112.500004291535,2|0,0:0|0:0,0:0:0:0:
129,136,27754,5,0,3:0:0:0:
0,189,27917,2,0,L|66:199,1,56.2500021457673,8|0,0:0|0:0,0:0:0:0:
139,45,28243,2,0,P|94:44|60:74,1,84.3750032186509,8|0,0:0|0:0,0:0:0:0:
45,105,28569,1,0,3:0:0:0:
218,111,28732,2,0,L|283:101,1,56.2500021457673,8|0,0:0|0:0,0:0:0:0:
413,79,29058,6,0,L|398:191,1,112.500004291535,4|0,0:0|0:0,0:0:0:0:
339,281,29548,1,2,0:0:0:0:
339,281,29874,2,0,P|374:280|399:291,2,56.2500021457673,2|0|2,0:0|0:0|0:0,0:0:0:0:
228,353,30363,6,0,P|250:303|222:257,1,112.500004291535,4|0,0:0|0:0,0:0:0:0:
139,244,30852,1,2,0:0:0:0:
139,244,31504,1,2,0:0:0:0:
30,108,31667,5,4,0:0:0:0:
125,90,31830,2,0,L|114:145,1,56.2500021457673,2|0,0:0|0:0,0:0:0:0:
38,203,32156,2,0,L|60:314,2,112.500004291535,2|0|0,0:0|0:0|0:0,0:0:0:0:
222,197,32971,6,0,L|302:210,1,75,0|0,3:0|0:0,0:0:0:0:
428,281,33298,2,0,L|348:294,1,75,8|0,0:0|1:0,0:0:0:0:
324,319,33542,1,0,1:0:0:0:
324,319,33624,1,0,1:0:0:0:
480,344,33786,6,0,P|504:323|508:254,1,93.75,2|0,0:0|0:0,0:0:0:0:
504,228,34286,6,0,L|491:132,1,75,4|0,0:0|0:0,0:0:0:0:
324,153,34612,2,0,L|313:227,1,75,8|0,0:0|0:0,0:0:0:0:
417,223,34938,2,0,L|413:133,2,75,0|2|0,3:0|3:2|0:0,0:0:0:0:
460,57,35427,2,0,B|406:51|406:51|362:73|362:73|297:62,1,150,2|0,3:2|3:0,0:0:0:0:
160,81,35916,5,8,0:0:0:0:
234,26,36079,1,0,3:0:0:0:
234,26,36161,1,0,3:0:0:0:
234,26,36242,1,0,3:0:0:0:
251,139,36405,1,0,3:0:0:0:
269,251,36568,1,8,0:0:0:0:
269,251,36894,6,0,P|196:232|107:252,2,150,0|8|0,3:0|0:0|3:0,0:0:0:0:
128,364,37709,2,0,P|181:330|217:330,1,75,2|0,3:2|0:0,0:0:0:0:
429,362,38036,2,0,P|367:385|264:345,1,150,2|0,3:2|3:0,0:0:0:0:
349,203,38525,2,0,P|361:244|335:302,1,75,8|0,0:0|3:0,0:0:0:0:
345,299,38770,1,0,3:0:0:0:
345,299,38851,1,0,3:0:0:0:
456,235,39014,1,0,3:0:0:0:
258,236,39177,2,0,L|162:238,1,75,8|0,0:0|0:0,0:0:0:0:
198,52,39503,6,0,L|197:140,1,75,4|0,0:0|0:0,0:0:0:0:
23,44,39829,2,0,L|24:132,1,75,8|0,0:0|0:0,0:0:0:0:
112,75,40155,2,0,L|112:149,2,75,0|2|0,3:0|3:2|0:0,0:0:0:0:
33,234,40644,2,0,P|114:230|198:240,1,150,2|0,3:2|3:0,0:0:0:0:
316,147,41133,5,8,0:0:0:0:
283,236,41296,1,0,3:0:0:0:
283,236,41378,1,0,3:0:0:0:
283,236,41459,1,0,3:0:0:0:
397,232,41622,1,0,3:0:0:0:
512,234,41786,1,8,0:0:0:0:
512,234,42112,6,0,P|509:146|493:63,2,150,4|8|0,3:2|0:0|3:0,0:0:0:0:
400,117,42927,2,0,P|405:159|406:210,1,75,2|8,3:2|0:0,0:0:0:0:
280,90,43253,2,0,P|288:144|295:263,1,150,4|0,3:2|3:0,0:0:0:0:
406,352,43742,5,8,0:0:0:0:
303,328,43905,1,0,1:0:0:0:
303,328,43987,1,0,1:0:0:0:
303,328,44068,1,0,1:0:0:0:
210,348,44231,1,0,1:0:0:0:
117,331,44394,1,12,3:0:0:0:
63,229,44557,1,12,3:0:0:0:
116,112,44720,6,0,P|174:96|287:123,2,172.500003290176,4|0|8,3:2|3:0|0:0,0:0:0:0:
116,112,46025,2,0,L|113:188,1,63.7500012159348,0|8,3:0|0:0,0:0:0:0:
395,183,46351,2,0,L|378:56,1,127.50000243187,0|8,3:0|0:0,0:0:0:0:
378,56,47329,5,0,3:0:0:0:
278,16,47492,1,8,0:0:0:0:
200,75,47655,2,0,P|194:109|199:165,1,63.7500012159348,0|0,3:0|0:0,0:0:0:0:
367,217,47981,2,0,P|339:159|274:155,1,127.50000243187,8|0,0:0|0:0,0:0:0:0:
275,260,48470,1,8,0:0:0:0:
386,232,48633,6,0,L|467:232,1,63.7500012159348,0|8,3:0|0:0,0:0:0:0:
358,330,48959,1,0,1:0:0:0:
275,260,49122,1,0,1:0:0:0:
275,260,49204,1,0,1:0:0:0:
275,260,49286,1,0,1:0:0:0:
200,337,49449,1,0,1:0:0:0:
88,336,49612,1,12,3:0:0:0:
12,253,49775,1,12,3:0:0:0:
66,147,49938,6,0,P|124:131|237:158,2,172.500003290176,4|0|8,3:2|3:0|0:0,0:0:0:0:
66,147,51242,6,0,L|67:65,1,63.7500012159348,0|8,3:0|0:0,0:0:0:0:
323,54,51568,2,0,L|336:194,1,127.50000243187,0|8,3:0|0:0,0:0:0:0:
127,273,52546,6,0,B|76:172|-79:291|22:430|191:404|133:269|225:245|303:268,1,451.500006889343,6|2,3:2|0:0,0:0:0:0:
304,279,55155,5,8,1:2:0:0:
336,180,55318,1,0,3:0:0:0:
368,85,55481,1,0,3:0:0:0:
439,204,55644,5,8,1:2:0:0:
340,172,55807,1,0,3:0:0:0:
245,140,55970,1,0,3:0:0:0:
366,99,56133,5,8,1:2:0:0:
334,194,56296,1,0,3:0:0:0:
302,293,56459,1,0,3:0:0:0:
211,263,56622,2,0,P|154:258|55:265,1,150,8|0,1:2|3:0,0:0:0:0:
24,58,57112,1,8,1:2:0:0:
14,34,57438,5,0,1:2:0:0:
118,121,57601,1,0,1:2:0:0:
118,121,57682,1,0,1:2:0:0:
118,121,57764,6,0,P|171:141|229:111,1,86.2500016450882,6|0,3:2|0:0,0:0:0:0:
308,17,58090,2,0,P|288:70|320:123,1,86.2500016450882,10|0,0:0|0:0,0:0:0:0:
424,21,58416,1,0,3:0:0:0:
435,134,58579,1,0,3:0:0:0:
428,10,58742,1,10,0:0:0:0:
341,185,58905,6,0,P|253:192|195:123,1,172.500003290176,2|0,3:2|0:0,0:0:0:0:
43,86,59394,1,10,0:0:0:0:
146,0,59557,1,0,0:0:0:0:
146,0,59639,1,8,0:0:0:0:
146,0,59720,2,0,P|133:45|125:88,1,86.2500016450882,2|2,3:2|3:2,0:0:0:0:
117,257,60046,1,8,0:0:0:0:
49,168,60209,6,0,B|166:178|166:178|213:116,1,172.500003290176,6|0,3:2|3:0,0:0:0:0:
299,300,60699,2,0,P|256:294|220:315,1,86.2500016450882,8|0,0:0|0:0,0:0:0:0:
117,257,61025,1,2,3:2:0:0:
147,378,61188,1,0,3:0:0:0:
217,219,61351,2,0,L|199:131,1,86.2500016450882,10|0,0:2|0:0,0:0:0:0:
317,275,61677,6,0,L|335:187,1,86.2500016450882,2|2,3:2|3:2,0:0:0:0:
333,26,62003,1,10,0:2:0:0:
440,91,62166,1,0,3:0:0:0:
440,91,62247,1,8,0:0:0:0:
440,91,62329,2,0,P|401:116|361:111,1,86.2500016450882,2|2,3:2|3:2,0:0:0:0:
179,49,62655,2,0,P|221:45|256:69,1,86.2500016450882,10|0,0:2|0:0,0:0:0:0:
74,208,62981,6,0,P|100:158|167:146,1,129.375002467632,4|0,3:2|0:0,0:0:0:0:
200,134,63307,2,0,L|219:248,1,86.2500016450882,8|0,0:0|0:0,0:0:0:0:
357,198,63633,1,0,3:0:0:0:
316,369,63796,2,0,L|298:277,1,86.2500016450882,0|0,3:0|0:0,0:0:0:0:
424,127,64122,6,0,B|461:173|461:173|422:289,1,172.500003290176,8|0,0:0|3:0,0:0:0:0:
327,115,64612,2,0,P|337:72|372:42,1,86.2500016450882,8|0,0:0|3:0,0:0:0:0:
409,40,64856,1,0,3:0:0:0:
409,40,64938,1,0,3:0:0:0:
357,198,65101,1,0,3:0:0:0:
202,83,65264,2,0,B|235:68|235:68|220:174,1,129.375002467632,8|0,0:0|0:0,0:0:0:0:
204,192,65590,5,12,0:2:0:0:
113,121,65753,1,0,3:0:0:0:
42,212,65916,1,8,0:0:0:0:
133,283,66079,1,0,3:0:0:0:
308,192,66242,5,8,0:0:0:0:
399,121,66405,1,0,3:0:0:0:
470,212,66568,1,8,0:0:0:0:
379,283,66731,1,0,3:0:0:0:
302,92,66894,6,0,L|317:-4,1,86.2500016450882,12|0,0:2|3:0,0:0:0:0:
141,100,67220,2,0,L|126:4,1,86.2500016450882,8|0,0:0|3:0,0:0:0:0:
220,172,67546,2,0,L|220:286,1,86.2500016450882,8|0,0:0|3:0,0:0:0:0:
54,360,67872,1,0,1:0:0:0:
50,337,67953,1,0,1:0:0:0:
46,314,68035,1,0,1:0:0:0:
43,291,68116,1,0,1:0:0:0:
40,268,68199,6,0,P|80:245|126:248,1,86.2500016450882,6|0,3:2|0:0,0:0:0:0:
243,352,68525,2,0,P|192:353|147:322,1,86.2500016450882,10|0,0:0|0:0,0:0:0:0:
308,214,68851,1,2,3:2:0:0:
220,258,69014,1,0,3:0:0:0:
314,195,69177,1,10,0:2:0:0:
354,350,69340,6,0,P|414:376|515:307,1,172.500003290176,0|2,3:0|3:2,0:0:0:0:
503,155,69829,1,10,0:2:0:0:
427,284,69992,1,0,3:0:0:0:
427,284,70074,1,0,3:0:0:0:
427,284,70155,2,0,L|408:169,1,86.2500016450882,0|2,3:0|3:2,0:0:0:0:
471,64,70481,1,10,0:2:0:0:
303,6,70644,6,0,B|201:-5|234:55|137:39,1,172.500003290176,4|0,3:2|3:0,0:0:0:0:
14,134,71133,2,0,P|60:127|100:148,1,86.2500016450882,8|0,0:0|3:0,0:0:0:0:
291,221,71459,5,8,0:0:0:0:
219,312,71622,1,0,3:0:0:0:
128,240,71786,1,8,0:0:0:0:
200,149,71949,1,0,3:0:0:0:
309,227,72112,6,0,L|427:211,1,86.2500016450882,8|0,0:0|3:0,0:0:0:0:
512,111,72438,1,8,0:0:0:0:
400,12,72601,1,0,1:0:0:0:
400,12,72682,1,0,1:0:0:0:
400,12,72764,2,0,L|416:130,1,86.2500016450882,0|0,1:0|1:0,0:0:0:0:
504,234,73090,1,0,1:0:0:0:
395,215,73253,1,4,1:3:0:0:
354,298,73416,5,8,0:0:0:0:
455,384,73579,2,0,L|440:273,1,86.2500016450882,4|0,3:2|0:0,0:0:0:0:
294,129,73905,5,8,0:0:0:0:
395,215,74068,2,0,L|380:104,1,86.2500016450882,4|0,3:2|0:0,0:0:0:0:
217,220,74394,5,8,0:0:0:0:
318,306,74557,2,0,L|303:195,1,86.2500016450882,4|0,3:2|0:0,0:0:0:0:
172,136,74883,5,0,1:0:0:0:
119,215,75046,1,0,1:0:0:0:
168,294,75209,1,4,1:3:0:0:
184,125,75372,2,0,L|159:19,1,86.2500016450882,0|0,1:0|1:0,0:0:0:0:
70,136,75699,1,4,1:3:0:0:
164,41,75862,1,0,1:0:0:0:
277,134,76025,6,0,L|261:238,1,86.2500016450882,8|0,1:2|3:0,0:0:0:0:
161,332,76351,1,0,3:0:0:0:
184,125,76514,2,0,L|168:229,1,86.2500016450882,8|0,1:2|3:0,0:0:0:0:
68,323,76840,1,0,3:0:0:0:
87,173,77003,1,8,1:2:0:0:
13,243,77166,1,0,3:0:0:0:
161,332,77329,6,0,B|268:318|268:318|289:288|274:248,1,180,4|0,3:2|0:0,0:0:0:0:
102,45,78633,5,4,0:0:0:0:
361,52,78959,1,4,0:0:0:0:
88,60,79286,1,8,3:3:0:0:
42,159,79449,1,8,3:3:0:0:
111,253,79612,1,8,3:3:0:0:
44,346,79775,5,4,0:0:0:0:
40,356,80101,1,0,3:0:0:0:
42,159,80427,1,0,3:0:0:0:
216,246,80590,1,8,0:0:0:0:
462,74,81242,5,4,0:0:0:0:
471,289,81568,1,4,0:0:0:0:
454,64,81894,1,8,3:3:0:0:
376,124,82057,1,8,3:3:0:0:
285,57,82220,1,8,3:3:0:0:
174,120,82383,5,4,0:0:0:0:
167,127,82709,1,0,3:0:0:0:
376,124,83036,1,0,3:0:0:0:
376,132,83117,1,0,3:0:0:0:
375,140,83199,1,8,0:0:0:0:
275,203,83362,1,0,3:0:0:0:
269,31,83525,1,8,0:0:0:0:
448,267,83851,5,4,0:0:0:0:
213,312,84177,1,4,0:0:0:0:
469,271,84503,1,8,3:3:0:0:
397,329,84666,1,4,3:3:0:0:
321,249,84829,1,4,3:3:0:0:
213,312,84992,5,4,0:0:0:0:
207,322,85318,1,0,3:0:0:0:
397,329,85644,1,0,3:0:0:0:
394,152,85807,1,8,0:0:0:0:
69,186,86459,5,4,0:0:0:0:
264,192,86786,1,4,0:0:0:0:
58,193,87112,1,8,3:3:0:0:
44,286,87275,1,4,3:3:0:0:
124,365,87438,1,4,3:3:0:0:
244,339,87601,5,4,0:0:0:0:
253,330,87927,1,0,3:0:0:0:
44,286,88253,1,0,3:0:0:0:
41,300,88334,1,0,3:0:0:0:
39,315,88416,1,8,0:0:0:0:
138,221,88579,1,0,3:0:0:0:
56,117,88742,1,8,0:0:0:0:
49,215,88905,1,0,3:0:0:0:
213,135,89068,6,0,L|144:133,1,60,4|4,0:0|0:0,0:0:0:0:
139,148,89720,1,8,3:0:0:0:
208,55,89883,1,4,3:0:0:0:
331,60,90046,1,4,3:0:0:0:
412,162,90209,2,0,L|412:229,1,60,4|0,0:0|3:0,0:0:0:0:
198,38,90862,1,0,3:0:0:0:
170,203,91025,1,8,0:0:0:0:
163,215,91677,6,0,L|157:287,1,60,4|4,0:0|0:0,0:0:0:0:
157,299,92329,1,8,3:0:0:0:
257,358,92492,1,8,3:0:0:0:
358,304,92655,1,8,3:0:0:0:
376,190,92818,2,0,L|364:119,1,60,4|0,0:0|3:0,0:0:0:0:
157,299,93470,1,0,3:0:0:0:
338,378,93633,1,8,0:0:0:0:
71,164,93959,1,8,0:0:0:0:
50,155,94286,6,0,L|47:96,1,60,4|4,0:0|0:0,0:0:0:0:
33,81,94938,1,8,3:0:0:0:
113,15,95101,1,8,3:0:0:0:
227,15,95264,1,8,3:0:0:0:
305,101,95427,2,0,L|303:174,1,60,4|0,0:0|3:0,0:0:0:0:
481,13,96079,1,0,3:0:0:0:
498,180,96242,1,8,0:0:0:0:
499,195,96894,6,0,L|496:258,1,60,4|4,0:0|0:0,0:0:0:0:
480,22,97546,1,8,3:0:0:0:
373,125,97709,1,8,3:0:0:0:
382,27,97872,1,8,3:0:0:0:
478,125,98036,1,4,0:0:0:0:
256,192,98199,12,0,99340,0:0:0:0:
149,102,99503,6,0,L|133:194,1,75,4|0,0:0|0:0,0:0:0:0:
256,241,99829,2,0,L|243:167,1,75,8|0,0:0|0:0,0:0:0:0:
159,270,100155,1,0,3:0:0:0:
268,330,100318,2,0,L|341:317,1,75,2|0,3:2|0:0,0:0:0:0:
449,224,100644,6,0,P|400:236|391:158,1,150,2|0,3:2|3:0,0:0:0:0:
463,29,101133,2,0,L|475:113,1,75,8|0,0:0|3:0,0:0:0:0:
479,135,101378,1,0,3:0:0:0:
479,135,101459,1,0,3:0:0:0:
367,65,101622,1,0,3:0:0:0:
286,213,101786,1,8,0:0:0:0:
286,213,102112,6,0,L|203:204,1,75,4|0,0:0|0:0,0:0:0:0:
109,128,102438,2,0,L|183:119,1,75,8|0,0:0|0:0,0:0:0:0:
297,115,102764,1,0,3:0:0:0:
182,14,102927,2,0,L|256:22,1,75,2|0,3:2|0:0,0:0:0:0:
450,20,103253,6,0,P|381:22|378:90,1,150,2|0,3:2|3:0,0:0:0:0:
470,199,103742,2,0,L|468:108,1,75,8|0,0:0|3:0,0:0:0:0:
362,191,104068,1,0,3:0:0:0:
362,191,104231,1,0,3:0:0:0:
473,301,104394,1,8,0:0:0:0:
473,301,104720,6,0,L|398:318,1,75,4|0,0:0|0:0,0:0:0:0:
287,365,105046,2,0,P|307:328|302:292,1,75,8|0,0:0|0:0,0:0:0:0:
264,177,105372,1,0,3:0:0:0:
149,243,105536,2,0,L|223:252,1,75,2|0,3:2|0:0,0:0:0:0:
290,81,105862,6,0,L|141:100,1,150,2|0,3:2|3:0,0:0:0:0:
28,60,106351,2,0,L|42:146,1,75,8|0,0:0|3:0,0:0:0:0:
49,166,106595,1,0,3:0:0:0:
49,166,106677,1,0,3:0:0:0:
0,289,106840,1,0,3:0:0:0:
149,243,107003,1,8,0:0:0:0:
149,243,107329,6,0,B|202:256|256:202|256:202|276:262|346:277|346:277|408:237|386:179|386:179|378:218|349:231,1,420,2|2,0:0|0:0,0:0:0:0:
271,113,109938,5,8,1:2:0:0:
256,202,110101,1,0,3:0:0:0:
241,291,110264,1,0,3:0:0:0:
157,177,110427,5,8,1:2:0:0:
246,192,110590,1,0,3:0:0:0:
335,207,110753,1,0,3:0:0:0:
230,289,110916,5,8,1:2:0:0:
245,200,111079,1,0,3:0:0:0:
260,111,111242,1,0,3:0:0:0:
139,33,111405,6,0,B|153:88|153:88|141:121|141:121|163:198,1,150,8|0,1:2|3:0,0:0:0:0:
58,339,111894,1,8,1:2:0:0:
0,225,112057,1,0,3:0:0:0:
0,225,112546,6,0,L|97:247,1,86.2500016450882,6|0,3:2|0:0,0:0:0:0:
176,363,112872,2,0,L|267:342,1,86.2500016450882,10|0,0:0|0:0,0:0:0:0:
397,260,113199,1,2,3:2:0:0:
362,372,113362,1,0,0:0:0:0:
412,262,113525,1,10,0:0:0:0:
251,219,113688,6,0,B|146:201|185:260|74:242,1,172.500003290176
0,152,114177,1,10,0:0:0:0:
120,70,114340,1,0,3:0:0:0:
120,70,114421,1,0,3:0:0:0:
120,70,114503,2,0,L|104:178,1,86.2500016450882,2|2,3:2|3:2,0:0:0:0:
22,50,114829,1,10,0:2:0:0:
198,101,114992,6,0,P|267:125|350:40,1,172.500003290176,4|2,3:2|3:2,0:0:0:0:
487,0,115481,2,0,P|460:37|459:82,1,86.2500016450882,10|0,0:2|0:0,0:0:0:0:
503,237,115807,1,2,3:2:0:0:
386,171,115970,1,0,3:0:0:0:
317,307,116133,2,0,L|409:287,1,86.2500016450882,10|0,0:2|0:0,0:0:0:0:
265,203,116459,6,0,L|173:222,1,86.2500016450882,0|0,3:0|3:0,0:0:0:0:
40,299,116786,1,8,0:0:0:0:
136,384,116949,1,0,3:0:0:0:
136,384,117030,1,8,0:0:0:0:
136,384,117112,2,0,P|163:341|156:283,1,86.2500016450882,0|0,3:0|3:0,0:0:0:0:
131,156,117438,2,0,P|102:197|111:257,1,86.2500016450882,8|0,0:0|3:0,0:0:0:0:
105,242,117682,1,0,3:0:0:0:
112,249,117764,6,0,L|274:260,1,129.375002467632,4|0,3:2|0:0,0:0:0:0:
274,266,118090,2,0,P|290:215|270:170,1,86.2500016450882,8|0,0:0|0:0,0:0:0:0:
255,172,118334,1,0,3:0:0:0:
255,172,118416,1,0,3:0:0:0:
157,43,118579,2,0,P|208:59|257:39,1,86.2500016450882,0|0,3:0|0:0,0:0:0:0:
404,45,118905,6,0,B|358:13|358:13|386:162,1,172.500003290176,8|0,0:0|3:0,0:0:0:0:
439,309,119394,1,8,0:0:0:0:
508,198,119557,1,0,3:0:0:0:
508,198,119639,1,0,3:0:0:0:
508,198,119720,2,0,L|411:215,1,86.2500016450882,0|0,3:0|3:0,0:0:0:0:
268,281,120046,2,0,L|365:298,1,86.2500016450882,8|0,0:0|0:0,0:0:0:0:
201,189,120372,5,12,0:2:0:0:
109,256,120536,1,0,3:0:0:0:
176,348,120699,1,8,0:0:0:0:
268,281,120862,1,0,3:0:0:0:
293,122,121025,5,8,0:0:0:0:
226,30,121189,1,0,3:0:0:0:
134,97,121352,1,8,0:0:0:0:
201,189,121515,1,0,3:0:0:0:
317,30,121677,6,0,L|433:45,1,86.2500016450882,12|0,0:2|3:0,0:0:0:0:
427,215,122003,2,0,L|334:202,1,86.2500016450882,8|0,0:0|3:0,0:0:0:0:
201,189,122329,1,8,0:0:0:0:
284,114,122492,1,0,3:0:0:0:
260,259,122655,1,0,1:0:0:0:
257,282,122736,1,0,1:0:0:0:
254,305,122818,1,0,1:0:0:0:
251,328,122899,1,0,1:0:0:0:
248,351,122981,5,4,3:2:0:0:
334,324,123144,1,2,0:2:0:0:
174,286,123307,1,10,0:2:0:0:
260,259,123470,1,2,0:2:0:0:
166,377,123633,2,0,P|93:367|28:368,1,129.375002467632,2|0,3:2|0:0,0:0:0:0:
13,377,123959,1,8,0:0:0:0:
94,286,124122,6,0,P|97:240|89:91,1,172.500003290176,2|0,3:2|3:0,0:0:0:0:
7,157,124612,2,0,P|7:206|10:244,1,86.2500016450882,10|0,0:0|3:0,0:0:0:0:
96,80,124938,1,2,3:2:0:0:
176,140,125101,1,2,3:2:0:0:
256,72,125264,1,10,0:2:0:0:
167,157,125427,6,0,P|166:251|168:357,1,172.500003290176,6|0,3:2|3:0,0:0:0:0:
344,255,125916,2,0,P|301:238|255:285,1,86.2500016450882,8|0,0:0|3:0,0:0:0:0:
427,318,126242,1,8,0:0:0:0:
484,232,126405,1,0,3:0:0:0:
404,157,126568,1,8,0:0:0:0:
461,71,126731,1,0,3:0:0:0:
365,33,126894,6,0,L|242:16,1,86.2500016450882,8|0,0:0|3:0,0:0:0:0:
190,156,127220,1,8,0:0:0:0:
215,75,127383,1,0,1:0:0:0:
215,75,127465,1,0,1:0:0:0:
215,75,127546,1,0,1:0:0:0:
119,76,127709,1,0,1:0:0:0:
23,77,127872,1,0,1:0:0:0:
68,1,128036,1,4,1:3:0:0:
67,162,128199,5,8,0:0:0:0:
67,162,128362,2,0,L|65:275,1,86.2500016450882,4|0,3:2|0:0,0:0:0:0:
215,75,128688,1,8,0:0:0:0:
215,75,128851,2,0,L|210:188,1,86.2500016450882,4|0,3:2|0:0,0:0:0:0:
355,305,129177,1,8,0:0:0:0:
355,305,129340,2,0,L|352:193,1,86.2500016450882,4|0,3:2|0:0,0:0:0:0:
461,84,129666,5,0,1:0:0:0:
461,84,129829,2,0,L|468:193,2,86.2500016450882,0|4|0,1:0|1:3|1:0,0:0:0:0:
322,47,130318,1,0,1:0:0:0:
322,47,130481,1,4,1:3:0:0:
403,14,130644,1,0,1:0:0:0:
461,84,130807,6,0,L|468:193,1,86.2500016450882,8|0,1:2|3:0,0:0:0:0:
429,264,131133,1,0,3:0:0:0:
275,187,131296,2,0,L|368:181,1,86.2500016450882,8|0,1:2|3:0,0:0:0:0:
328,359,131622,1,0,3:0:0:0:
344,269,131786,2,0,L|250:274,1,86.2500016450882,8|0,1:2|3:0,0:0:0:0:
67,250,132112,6,0,B|33:187|93:124|165:138|192:230|129:347,1,330.000010070801,4|0,3:2|3:0,0:0:0:0:
118,354,133742,6,0,P|175:336|301:353,1,172.500003290176,4|0,1:2|3:0,0:0:0:0:
401,279,134231,1,0,3:0:0:0:
471,353,134394,1,8,0:0:0:0:
375,366,134557,2,0,P|367:297|385:161,1,172.500003290176,0|0,3:0|3:0,0:0:0:0:
451,54,135046,1,8,0:0:0:0:
472,151,135209,2,0,L|482:200,2,43.1250008225441,0|0|0,3:0|3:0|3:0,0:0:0:0:
439,63,135536,1,0,3:0:0:0:
361,126,135699,1,8,0:0:0:0:
283,59,135862,6,0,P|193:47|76:60,1,172.500003290176,4|0,3:2|3:0,0:0:0:0:
241,157,136351,2,0,P|169:154|135:158,1,86.2500016450882,8|0,0:0|0:0,0:0:0:0:
45,117,136677,1,0,3:0:0:0:
16,221,136840,1,0,3:0:0:0:
54,131,137003,1,8,0:0:0:0:
130,240,137166,6,0,P|132:307|30:337,1,172.500003290176,0|0,3:0|3:0,0:0:0:0:
216,350,137655,2,0,P|294:344|330:361,1,86.2500016450882,8|0,0:0|3:0,0:0:0:0:
308,354,137900,1,0,3:0:0:0:
316,363,137981,1,0,3:0:0:0:
402,294,138144,1,0,3:0:0:0:
310,233,138307,1,8,0:0:0:0:
391,147,138470,1,0,1:0:0:0:
391,147,138552,1,0,1:0:0:0:
391,147,138633,6,0,P|315:156|195:141,1,172.500003290176,4|8,3:2|0:0,0:0:0:0:
453,57,139286,1,0,3:0:0:0:
453,57,139449,2,0,P|401:49|356:54,1,86.2500016450882,0|0,3:0|3:0,0:0:0:0:
220,147,139775,6,0,P|305:156|391:146,1,172.500003290176,8|0,0:0|3:0,0:0:0:0:
242,52,140264,2,0,P|187:48|152:54,1,86.2500016450882,8|0,0:0|3:0,0:0:0:0:
149,62,140508,1,0,3:0:0:0:
142,75,140590,1,0,3:0:0:0:
55,21,140753,1,0,3:0:0:0:
19,116,140916,2,0,P|20:163|24:228,1,86.2500016450882,8|0,0:0|0:0,0:0:0:0:
151,335,141242,6,0,P|126:275|77:341,1,172.500003290176,4|8,3:2|0:0,0:0:0:0:
244,367,141731,1,0,3:0:0:0:
244,367,141894,2,0,P|250:294|172:193,1,172.500003290176,0|8,3:0|0:0,0:0:0:0:
358,384,142383,1,0,3:0:0:0:
358,384,142546,2,0,P|423:336|436:217,1,172.500003290176,0|8,3:0|0:0,0:0:0:0:
353,144,143036,5,0,1:0:0:0:
353,144,143117,1,0,1:0:0:0:
353,144,143199,1,0,1:0:0:0:
424,75,143362,1,0,3:0:0:0:
337,24,143525,1,4,1:3:0:0:
266,96,143688,1,4,3:3:0:0:
363,161,143851,6,0,B|355:217|355:217|367:243|367:243|361:292,1,134.999995880127,4|0,3:2|3:0,0:0:0:0:
224,382,144503,1,8,0:0:0:0:
224,382,144829,1,8,0:0:0:0:
193,270,144992,2,0,P|225:262|256:274,1,67.4999979400635,0|0,3:0|0:0,0:0:0:0:
119,358,145318,1,8,0:0:0:0:
84,247,145481,2,0,L|99:173,1,67.4999979400635,0|0,0:0|3:0,0:0:0:0:
193,270,145807,1,8,0:0:0:0:
97,180,145970,2,0,P|46:221|50:286,1,134.999995880127,0|0,3:0|0:0,0:0:0:0:
196,175,146459,6,0,B|211:96|211:96|193:73|161:79,1,134.999995880127,0|0,3:0|0:0,0:0:0:0:
196,175,146949,1,0,3:0:0:0:
304,75,147112,2,0,L|290:164,1,67.4999979400635,8|0,0:0|0:0,0:0:0:0:
403,213,147438,2,0,L|389:124,1,67.4999979400635,8|0,0:0|0:0,0:0:0:0:
377,310,147764,5,0,3:0:0:0:
392,146,147927,1,8,0:0:0:0:
312,233,148090,1,0,3:0:0:0:
312,233,148253,1,0,3:0:0:0:
486,283,148416,2,0,L|507:146,1,134.999995880127,4|0,3:0|3:0,0:0:0:0:
319,12,149068,6,0,P|289:56|208:58,1,134.999995880127,4|0,3:2|3:0,0:0:0:0:
50,132,149720,1,8,0:0:0:0:
50,132,150046,1,8,0:0:0:0:
117,9,150209,2,0,L|129:85,1,67.4999979400635,0|0,3:0|0:0,0:0:0:0:
260,168,150536,2,0,L|184:179,1,67.4999979400635,8|0,0:0|0:0,0:0:0:0:
111,318,150862,1,0,3:0:0:0:
93,202,151025,1,8,0:0:0:0:
259,268,151188,2,0,B|295:276|322:250|322:250|362:254|373:288,1,134.999995880127,0|0,3:0|0:0,0:0:0:0:
260,168,151677,6,0,L|283:29,1,134.999995880127,2|0,3:2|0:0,0:0:0:0:
347,163,152166,1,0,3:0:0:0:
186,95,152329,2,0,L|119:106,1,67.4999979400635,10|0,0:2|0:0,0:0:0:0:
0,203,152655,2,0,L|66:214,1,67.4999979400635,8|0,0:0|0:0,0:0:0:0:
261,284,152981,5,0,3:0:0:0:
108,318,153144,1,8,0:0:0:0:
181,209,153307,1,0,3:0:0:0:
181,209,153470,1,0,3:0:0:0:
204,369,153633,1,8,3:2:0:0:
183,235,153796,1,0,3:0:0:0:
309,362,153959,2,0,P|350:369|385:346,1,67.4999979400635,0|0,3:0|3:0,0:0:0:0:
471,248,154286,6,0,L|469:387,1,134.999995880127,6|2,3:2|3:2,0:0:0:0:
331,193,154938,1,10,0:2:0:0:
331,193,155264,1,10,0:2:0:0:
436,114,155427,2,0,P|397:119|359:101,1,67.4999979400635,0|2,3:0|0:2,0:0:0:0:
482,30,155753,1,0,0:0:0:0:
371,109,155916,2,0,P|361:77|366:44,1,67.4999979400635,2|2,0:2|3:2,0:0:0:0:
462,192,156242,1,8,0:0:0:0:
331,193,156405,2,0,L|183:178,1,134.999995880127,2|2,3:2|0:2,0:0:0:0:
95,60,156894,6,0,P|157:39|212:74,1,134.999995880127,2|2,3:2|0:2,0:0:0:0:
108,152,157383,1,0,3:0:0:0:
0,57,157546,2,0,L|13:136,1,67.4999979400635,10|0,0:2|0:0,0:0:0:0:
96,247,157872,2,0,L|17:260,1,67.4999979400635,10|0,0:2|0:0,0:0:0:0:
211,365,158199,5,2,3:2:0:0:
198,207,158362,1,10,0:2:0:0:
121,330,158525,1,0,3:0:0:0:
121,330,158688,1,2,3:2:0:0:
276,276,158851,1,2,3:2:0:0:
188,188,159014,1,0,3:0:0:0:
302,127,159177,2,0,L|391:145,1,67.4999979400635,4|4,3:0|3:0,0:0:0:0:
241,28,159503,6,0,P|194:73|130:61,1,134.999995880127,4|0,3:2|3:0,0:0:0:0:
61,240,160155,1,8,0:0:0:0:
61,240,160481,1,8,0:0:0:0:
0,129,160644,2,0,L|79:142,1,67.4999979400635,0|0,3:0|0:0,0:0:0:0:
217,182,160970,2,0,L|138:195,1,67.4999979400635,8|0,0:0|0:0,0:0:0:0:
111,319,161296,1,0,3:0:0:0:
150,192,161459,1,8,0:0:0:0:
253,307,161622,2,0,P|304:327|361:264,1,134.999995880127,0|0,3:0|0:0,0:0:0:0:
418,203,162112,5,8,1:2:0:0:
328,181,162275,1,0,3:0:0:0:
238,159,162438,1,0,3:0:0:0:
331,174,162601,5,8,1:2:0:0:
241,152,162764,1,0,3:0:0:0:
151,130,162927,1,0,3:0:0:0:
219,2,163090,6,0,P|254:38|332:16,1,112.5,8|0,1:2|0:0,0:0:0:0:
322,24,163416,1,0,3:0:0:0:
512,91,163579,6,0,P|457:86|418:124,1,112.5,8|0,1:2|0:0,0:0:0:0:
415,139,163905,1,0,3:0:0:0:
480,293,164068,5,8,1:2:0:0:
494,187,164231,1,0,3:0:0:0:
371,275,164394,2,0,L|385:348,1,75,0|0,1:2|0:0,0:0:0:0:
241,169,164720,6,0,P|277:191|315:183,1,75,0|0,1:2|0:0,0:0:0:0:
332,157,164965,2,0,L|318:104,1,37.5,0|0,1:2|0:0,0:0:0:0:
225,44,165209,1,0,1:2:0:0:
148,142,165372,1,4,1:3:0:0:
148,142,165454,1,4,1:3:0:0:
148,142,165536,2,0,L|158:194,1,37.5,4|4,1:3|1:3,0:0:0:0:
210,253,165699,6,0,L|190:325,1,75,0|0,1:2|0:0,0:0:0:0:
164,347,165943,2,0,L|173:383,1,37.5,0|0,1:2|0:0,0:0:0:0:
284,313,166188,1,0,1:2:0:0:
113,263,166351,1,4,1:3:0:0:
113,263,166432,1,4,1:3:0:0:
113,263,166514,2,0,L|75:268,1,37.5,4|4,1:3|1:3,0:0:0:0:
229,159,166677,5,0,1:2:0:0:
346,200,166840,1,4,1:3:0:0:
249,56,167003,1,4,1:3:0:0:
221,51,167084,1,4,1:3:0:0:
193,55,167166,1,4,1:3:0:0:
169,69,167247,1,4,1:3:0:0:
151,91,167329,6,0,L|151:119,1,22.4999993133545,2|0,1:2|0:0,0:0:0:0:
75,32,167655,2,0,L|75:60,1,22.4999993133545,2|0,0:2|0:0,0:0:0:0:
0,101,167981,2,0,L|0:123,2,22.4999993133545,2|2|2,0:2|0:2|0:2,0:0:0:0:
75,133,168470,1,2,0:2:0:0:
75,213,168633,1,2,0:2:0:0:
75,213,168959,2,0,L|75:240,1,22.4999993133545,2|2,0:2|0:2,0:0:0:0:
75,133,169286,5,8,3:2:0:0:
78,315,169449,1,8,3:2:0:0:
67,324,169775,6,0,P|127:313|272:334,1,187.5,4|0,3:2|3:0,0:0:0:0:
105,230,170264,2,0,P|153:222|205:231,1,93.75,10|0,0:2|0:0,0:0:0:0:
81,137,170590,1,2,3:2:0:0:
195,131,170753,1,0,3:0:0:0:
128,45,170916,2,0,P|77:41|14:53,1,93.75,10|0,0:2|3:0,0:0:0:0:
191,112,171242,5,2,0:2:0:0:
272,14,171405,1,2,3:2:0:0:
372,95,171568,1,10,0:2:0:0:
306,192,171731,1,0,3:0:0:0:
306,192,171813,1,8,0:0:0:0:
306,192,171894,2,0,L|304:295,1,93.75,2|2,3:2|3:2,0:0:0:0:
427,183,172220,1,10,0:2:0:0:
447,344,172383,1,0,0:0:0:0:
286,356,172546,6,0,P|210:350|70:363,2,187.5,4|8|0,3:2|0:0|3:0,0:0:0:0:
207,248,173362,1,0,3:0:0:0:
303,363,173525,1,0,0:0:0:0:
394,253,173688,6,0,P|325:244|181:253,1,187.5,8|0,0:0|3:0,0:0:0:0:
354,155,174177,1,8,0:0:0:0:
242,156,174340,1,0,3:0:0:0:
242,156,174421,1,0,3:0:0:0:
242,156,174503,1,0,3:0:0:0:
293,73,174666,1,0,3:0:0:0:
394,253,174829,1,8,0:0:0:0:
397,266,175155,6,0,L|397:310,1,33.7499989700318,12|0,0:2|3:0,0:0:0:0:
293,73,175481,2,0,L|293:29,1,33.7499989700318,8|0,0:0|3:0,0:0:0:0:
199,275,175807,2,0,L|199:319,1,33.7499989700318,8|0,0:0|3:0,0:0:0:0:
81,105,176133,2,0,L|81:71,1,33.7499989700318,8|0,0:0|3:0,0:0:0:0:
12,318,176459,5,12,0:2:0:0:
66,195,176622,1,0,3:0:0:0:
142,376,176786,1,8,0:0:0:0:
106,284,176949,1,0,3:0:0:0:
294,278,177112,5,4,3:3:0:0:
294,278,177193,1,4,3:3:0:0:
294,278,177275,1,4,3:3:0:0:
172,187,177438,1,0,1:0:0:0:
201,279,177601,1,0,1:0:0:0:
201,279,177682,1,0,1:0:0:0:
201,279,177764,6,0,L|337:278,1,93.75,6|0,3:2|0:0,0:0:0:0:
159,103,178090,2,0,L|295:102,1,93.75,10|0,0:2|0:0,0:0:0:0:
402,184,178416,1,2,3:2:0:0:
272,182,178579,1,0,3:2:0:0:
409,197,178742,1,10,0:2:0:0:
279,195,178905,1,0,3:2:0:0:
417,213,179068,5,2,0:2:0:0:
342,354,179231,1,2,3:2:0:0:
196,299,179394,2,0,P|189:254|190:187,1,93.75,10|0,0:2|3:0,0:0:0:0:
196,193,179639,1,0,3:0:0:0:
204,181,179720,1,2,3:2:0:0:
294,275,179883,1,2,3:2:0:0:
147,370,180046,1,10,0:2:0:0:
37,254,180209,6,0,P|43:186|63:81,1,140.625,4|0,3:2|0:0,0:0:0:0:
72,99,180536,1,0,3:0:0:0:
230,92,180699,5,8,0:0:0:0:
247,184,180862,1,0,3:0:0:0:
129,257,181025,5,8,0:0:0:0:
146,166,181188,1,0,3:0:0:0:
337,171,181351,2,0,L|350:277,1,93.75,8|0,0:0|3:0,0:0:0:0:
253,365,181677,5,4,3:3:0:0:
253,365,181758,1,4,3:3:0:0:
253,365,181840,1,4,3:3:0:0:
253,365,181921,1,4,3:3:0:0:
253,365,182003,2,0,L|245:307,1,46.875,4|0,3:3|3:0,0:0:0:0:
140,363,182166,1,0,1:0:0:0:
140,363,182247,1,0,1:0:0:0:
140,363,182329,1,0,1:0:0:0:
140,363,182410,1,0,1:0:0:0:
140,363,182492,2,0,L|148:305,1,46.875,0|0,1:0|3:0,0:0:0:0:
40,331,182655,5,0,1:0:0:0:
36,226,182818,1,4,1:3:0:0:
26,126,182981,5,8,0:0:0:0:
26,126,183144,2,0,P|36:73|74:22,1,93.75,4|0,3:2|0:0,0:0:0:0:
216,17,183470,1,8,0:0:0:0:
216,17,183633,2,0,P|228:68|216:131,1,93.75,4|0,3:2|0:0,0:0:0:0:
122,212,183959,1,8,0:0:0:0:
122,212,184122,2,0,P|175:213|232:241,1,93.75,4|0,3:2|0:0,0:0:0:0:
331,180,184449,5,0,1:0:0:0:
386,257,184612,1,0,1:0:0:0:
332,333,184775,1,4,1:3:0:0:
236,301,184938,1,0,1:0:0:0:
150,338,185101,2,0,P|103:347|43:342,2,93.75,0|4|0,1:0|1:3|1:0,0:0:0:0:
236,301,185590,6,0,L|243:201,1,93.75,8|0,1:2|3:0,0:0:0:0:
230,57,185916,1,0,3:0:0:0:
367,129,186079,2,0,L|238:131,1,93.75,8|0,1:2|3:0,0:0:0:0:
153,218,186405,1,0,3:0:0:0:
126,69,186568,2,0,L|200:152,1,93.75,8|0,1:2|3:0,0:0:0:0:
171,332,186894,6,0,P|61:298|155:218,1,288.750008811951,4|0,3:2|0:0,0:0:0:0:
257,278,188199,6,0,P|311:237|392:254,1,129.375002467632,4|0,3:2|0:0,0:0:0:0:
407,262,188525,2,0,P|413:219|422:177,1,86.2500016450882,8|0,0:0|0:0,0:0:0:0:
463,43,188851,1,0,3:0:0:0:
512,128,189014,1,0,3:0:0:0:
358,84,189177,2,0,P|316:73|276:86,1,86.2500016450882,10|2,0:2|3:2,0:0:0:0:
185,216,189503,6,0,P|195:174|182:134,1,86.2500016450882,2|0,0:0|3:0,0:0:0:0:
84,255,189829,2,0,L|105:343,1,86.2500016450882,10|0,0:2|3:0,0:0:0:0:
137,363,190074,1,0,3:0:0:0:
137,363,190155,2,0,B|169:334|169:334|252:342,1,86.2500016450882,2|2,3:2|3:2,0:0:0:0:
340,264,190481,1,10,0:2:0:0:
313,366,190644,1,0,3:0:0:0:
239,251,190807,6,0,L|256:149,1,86.2500016450882,4|0,3:2|0:0,0:0:0:0:
370,48,191133,2,0,P|419:87|416:167,1,129.375002467632,8|0,0:0|0:0,0:0:0:0:
424,188,191459,2,0,L|335:175,1,86.2500016450882,2|0,3:2|3:0,0:0:0:0:
209,51,191786,5,8,0:0:0:0:
152,160,191949,2,0,B|170:222|170:222|153:263|153:263|180:338,1,172.500003290176,2|0,3:2|3:0,0:0:0:0:
341,310,192438,2,0,L|221:288,1,86.2500016450882,10|0,0:2|3:0,0:0:0:0:
246,264,192682,1,8,0:0:0:0:
246,264,192764,2,0,B|263:224|263:224|245:177,1,86.2500016450882,2|2,3:2|3:2,0:0:0:0:
209,51,193090,1,10,0:2:0:0:
45,114,193253,1,4,3:0:0:0:
45,114,193334,1,4,3:0:0:0:
45,114,193416,6,0,P|92:104|161:180,1,129.375002467632,4|0,3:2|0:0,0:0:0:0:
158,164,193742,1,8,0:0:0:0:
56,287,193905,2,0,L|70:187,1,86.2500016450882,0|0,0:0|3:0,0:0:0:0:
248,184,194231,1,0,3:0:0:0:
150,337,194394,2,0,L|164:237,1,86.2500016450882,10|2,0:2|3:2,0:0:0:0:
335,273,194720,6,0,L|239:294,1,86.2500016450882,0|0,0:0|3:0,0:0:0:0:
357,174,195046,2,0,P|402:169|444:198,1,86.2500016450882,10|0,0:2|3:0,0:0:0:0:
464,216,195291,1,0,3:0:0:0:
464,216,195372,2,0,L|449:322,1,86.2500016450882,2|2,3:2|3:2,0:0:0:0:
364,384,195699,1,10,0:2:0:0:
335,273,195862,1,0,0:0:0:0:
187,332,196025,6,0,L|295:354,1,86.2500016450882,8|0,1:2|3:0,0:0:0:0:
342,183,196351,1,0,3:0:0:0:
168,233,196514,6,0,L|276:255,1,86.2500016450882,8|0,1:2|3:0,0:0:0:0:
323,84,196840,1,0,3:0:0:0:
149,134,197003,6,0,L|257:156,1,86.2500016450882,8|0,1:2|3:0,0:0:0:0:
399,36,197329,6,0,P|307:-2|234:65,1,210,4|0,3:2|0:0,0:0:0:0:
318,187,198633,6,0,L|437:164,1,112.5,4|0,0:0|0:0,0:0:0:0:
491,205,198959,2,0,P|505:171|497:135,1,75,4|0,0:0|0:0,0:0:0:0:
404,260,199286,5,8,3:0:0:0:
429,342,199449,1,8,3:0:0:0:
512,361,199612,1,8,3:0:0:0:
406,247,199775,6,0,P|364:239|305:307,1,112.5,4|0,0:0|0:0,0:0:0:0:
268,344,200101,2,0,B|297:361|297:361|336:351,1,75,0|0,3:0|0:0,0:0:0:0:
214,238,200427,1,0,3:0:0:0:
168,384,200590,1,8,0:0:0:0:
168,384,201242,6,0,P|123:340|70:355,1,112.5,4|0,0:0|0:0,0:0:0:0:
7,379,201568,2,0,L|-7:291,1,75,4|0,0:0|0:0,0:0:0:0:
149,229,201894,5,8,3:0:0:0:
70,265,202057,1,8,3:0:0:0:
0,215,202220,1,8,3:0:0:0:
122,144,202383,6,0,P|170:135|225:178,1,112.5,4|0,0:0|0:0,0:0:0:0:
266,235,202709,2,0,L|247:326,1,75,0|0,3:0|0:0,0:0:0:0:
110,365,203036,1,0,3:0:0:0:
169,248,203199,1,8,0:0:0:0:
97,359,203362,1,0,3:0:0:0:
0,272,203525,2,0,L|90:253,1,75,8|0,0:0|0:0,0:0:0:0:
211,377,203851,6,0,L|341:344,1,112.5,4|0,0:0|0:0,0:0:0:0:
370,288,204177,2,0,B|397:313|397:313|400:356,1,75,4|0,0:0|0:0,0:0:0:0:
280,264,204503,5,8,3:0:0:0:
300,173,204666,1,8,3:0:0:0:
320,82,204829,1,8,3:0:0:0:
202,197,204992,6,0,P|162:210|100:173,1,112.5,4|0,0:0|0:0,0:0:0:0:
101,100,205318,2,0,P|140:108|170:144,1,75,0|0,3:0|0:0,0:0:0:0:
109,281,205644,1,0,3:0:0:0:
7,165,205807,1,8,0:0:0:0:
7,165,206459,6,0,L|11:46,1,112.5,4|0,0:0|0:0,0:0:0:0:
70,4,206786,2,0,P|123:-5|161:16,1,75,4|0,0:0|0:0,0:0:0:0:
259,146,207112,5,8,3:0:0:0:
169,159,207275,1,8,3:0:0:0:
112,87,207438,1,8,3:0:0:0:
292,60,207601,6,0,L|421:73,1,112.5,4|0,0:0|0:0,0:0:0:0:
463,17,207927,2,0,B|486:47|486:47|481:90,1,75,0|0,3:0|0:0,0:0:0:0:
370,192,208253,1,0,3:0:0:0:
505,264,208416,1,8,0:0:0:0:
461,174,208579,1,0,3:0:0:0:
404,294,208742,1,8,0:0:0:0:
285,139,208905,5,4,0:0:0:0:
256,192,208987,12,0,214286,0:0:0:0:
