osu file format v14

[General]
AudioFilename: audio.mp3
AudioLeadIn: 0
PreviewTime: 167247
Countdown: 0
SampleSet: Soft
StackLeniency: 0.7
Mode: 0
LetterboxInBreaks: 0
WidescreenStoryboard: 1

[Editor]
Bookmarks: 13416,23851,34286,44720,57764,78633,89068,99503,122981,143851,154286,167329,182981,188199,208905
DistanceSpacing: 1
BeatDivisor: 4
GridSize: 4
TimelineZoom: 1.6

[Metadata]
Title:Neverland
TitleUnicode:ネバーランド
Artist:the peggies
ArtistUnicode:the peggies
Creator:Seto Kousuke
Version:Extra
Source:
Tags:rock jrock j-rock japanese super boy ! super girl !! bird birds shirahane suou kouhane reicavera wisoven
BeatmapID:3913374
BeatmapSetID:1898721

[Difficulty]
HPDrainRate:6
CircleSize:4.2
OverallDifficulty:8.5
ApproachRate:9.2
SliderMultiplier:1.7
SliderTickRate:1

[Events]
//Background and Video events
0,0,"cute rock girl.jpg",0,0
//Break Periods
//Storyboard Layer 0 (Background)
//Storyboard Layer 1 (Fail)
//Storyboard Layer 2 (Pass)
//Storyboard Layer 3 (Foreground)
//Storyboard Layer 4 (Overlay)
//Storyboard Sound Samples

[TimingPoints]
373,326.086956521739,4,2,1,70,1,0
23841,326.086956521739,4,2,1,60,1,0
23841,-399.999999999997,4,2,1,60,0,0
34286,326.086956521739,4,2,1,70,1,0
34286,-111.111111111111,4,2,1,70,0,0
44720,-125,4,2,1,70,0,0
52546,-125,4,2,1,60,0,0
55155,-125,4,2,1,75,0,0
57764,-90.9090909090909,4,2,1,80,0,1
62981,-111.111111111111,4,2,1,80,0,1
68199,-90.9090909090909,4,2,1,80,0,1
77329,-500,4,2,1,80,0,0
78633,-100,4,2,1,70,0,0
99503,-100,4,2,1,75,0,0
107329,-125,4,2,1,60,0,0
109938,-125,4,2,1,75,0,0
112546,-90.9090909090909,4,2,1,80,0,1
117764,-111.111111111111,4,2,1,80,0,1
122981,-90.9090909090909,4,2,1,80,0,1
128199,-100,4,2,1,80,0,1
132112,-333.333333333333,4,2,1,80,0,1
133416,-100,4,2,1,75,0,0
143851,-142.857142857143,4,2,1,70,0,0
162112,-100,4,2,1,75,0,0
164720,-76.9230769230769,4,2,1,75,0,0
164802,-76.9230769230769,4,2,1,5,0,0
164965,-76.9230769230769,4,2,1,75,0,0
165046,-76.9230769230769,4,2,1,5,0,0
165209,-76.9230769230769,4,2,1,75,0,0
165780,-76.9230769230769,4,2,1,5,0,0
165943,-76.9230769230769,4,2,1,75,0,0
166025,-76.9230769230769,4,2,1,5,0,0
166188,-76.9230769230769,4,2,1,75,0,0
167329,-285.714285714284,4,2,1,60,0,0
169286,-285.714285714284,4,2,1,75,0,0
169775,-83.3333333333333,4,2,1,85,0,1
172546,-100,4,2,1,85,0,1
177764,-80,4,2,1,85,0,1
182981,-133.333333333333,4,2,1,85,0,1
186894,-222.222222222222,4,2,1,85,0,1
186976,-222.222222222222,4,2,1,85,0,0
188199,-100,4,2,1,80,0,1
197329,-100,4,2,1,80,0,0
198633,-100,4,2,1,70,0,0
210372,-100,4,2,1,60,0,0
211679,-100,4,2,1,50,0,0
212981,-100,4,2,1,40,0,0
213470,-100,4,2,1,30,0,0
213959,-100,4,2,1,20,0,0
214204,-100,4,2,1,5,0,0

[Colours]
Combo1 : 154,114,127
Combo2 : 111,84,112
Combo3 : 140,80,96
Combo4 : 193,141,135

[HitObjects]
256,192,10807,12,8,12927,0:0:0:0:
35,228,13090,5,8,0:0:0:0:
35,228,13416,2,0,B|84:236|84:236|121:218|121:218|180:223,1,127.5,4|0,0:0|0:0,0:0:0:0:
199,318,13742,2,0,P|183:279|194:239,1,85,4|0,0:0|0:0,0:0:0:0:
392,79,14068,1,8,3:3:0:0:
444,178,14231,1,8,3:3:0:0:
385,270,14394,1,8,3:3:0:0:
483,351,14557,6,0,P|452:313|412:369,1,127.5,4|0,0:0|0:0,0:0:0:0:
367,372,14883,2,0,P|373:321|360:263,1,85,0|0,3:0|0:0,0:0:0:0:
252,189,15209,1,0,3:0:0:0:
482,18,15372,1,8,0:0:0:0:
478,30,16025,6,0,P|426:71|355:51,1,127.5,4|0,0:0|0:0,0:0:0:0:
271,28,16351,2,0,P|311:36|328:74,1,85,4|0,0:0|0:0,0:0:0:0:
384,320,16677,1,8,3:3:0:0:
304,254,16840,1,8,3:3:0:0:
205,327,17003,1,8,3:3:0:0:
186,152,17166,6,0,P|129:172|122:232,1,127.5,4|0,0:0|0:0,0:0:0:0:
213,163,17492,2,0,P|215:120|211:78,1,85,0|0,3:0|0:0,0:0:0:0:
105,27,17818,1,0,3:0:0:0:
317,136,17981,5,8,0:0:0:0:
107,42,18144,1,0,3:0:0:0:
215,244,18307,1,8,0:0:0:0:
228,257,18633,6,0,B|273:237|273:237|319:252|319:252|357:240,1,127.5,4|0,0:0|0:0,0:0:0:0:
362,341,18959,2,0,B|391:304|391:304|382:267,1,85,4|0,0:0|0:0,0:0:0:0:
281,71,19286,1,8,3:2:0:0:
188,143,19449,1,8,3:2:0:0:
72,72,19612,1,8,3:2:0:0:
17,250,19775,6,0,P|24:312|64:360,1,127.5,4|0,0:0|0:0,0:0:0:0:
16,234,20101,2,0,P|26:181|52:158,1,85,0|0,3:0|0:0,0:0:0:0:
132,268,20427,1,0,3:0:0:0:
251,64,20590,1,8,0:0:0:0:
262,82,21242,6,0,P|299:138|257:166,1,127.5,4|0,0:0|0:0,0:0:0:0:
241,264,21568,2,0,P|217:230|227:190,1,85,4|0,0:0|0:0,0:0:0:0:
416,73,21894,1,8,3:2:0:0:
487,193,22057,1,8,3:2:0:0:
435,311,22220,1,8,3:2:0:0:
299,364,22383,6,0,P|225:364|158:339,1,127.5,4|0,0:0|0:0,0:0:0:0:
57,326,22709,2,0,P|97:314|139:323,1,85,0|0,3:0|0:0,0:0:0:0:
270,228,23036,1,0,3:0:0:0:
57,176,23199,1,8,0:0:0:0:
284,246,23362,1,0,3:0:0:0:
151,23,23525,1,8,0:0:0:0:
123,42,23841,6,0,P|204:54|229:87,1,127.5,4|0,0:0|0:0,0:0:0:0:
442,28,25144,2,0,P|428:74|434:157,1,127.5,4|0,0:0|0:0,0:0:0:0:
450,333,26449,6,0,P|428:314|335:326,1,127.5,4|0,0:0|0:0,0:0:0:0:
251,364,27753,5,0,3:0:0:0:
150,227,27916,1,8,0:0:0:0:
415,225,28242,1,8,0:0:0:0:
139,233,28568,1,0,3:0:0:0:
38,96,28731,1,8,0:0:0:0:
27,107,29057,6,0,P|77:101|160:110,1,127.5,4|0,0:0|0:0,0:0:0:0:
322,56,30362,2,0,P|296:82|299:171,1,127.5,4|0,0:0|0:0,0:0:0:0:
100,294,31666,2,0,P|155:290|183:296,1,85,4|2,0:0|0:0,0:0:0:0:
253,334,32970,5,0,3:0:0:0:
341,323,33297,1,8,0:0:0:0:
425,364,33460,1,0,1:0:0:0:
425,364,33541,1,0,1:0:0:0:
425,364,33623,1,0,1:0:0:0:
423,236,33786,1,2,0:0:0:0:
413,227,34286,6,0,P|349:202|310:208,1,76.4999976654054,4|0,0:0|0:0,0:0:0:0:
267,104,34612,2,0,P|300:84|338:79,1,76.4999976654054,8|0,0:0|0:0,0:0:0:0:
173,254,34938,1,0,3:0:0:0:
260,279,35101,2,0,P|268:235|248:204,1,76.4999976654054,2|0,3:2|0:0,0:0:0:0:
266,294,35427,6,0,P|275:233|193:170,1,152.999995330811,2|0,3:2|3:0,0:0:0:0:
20,226,35916,1,8,0:0:0:0:
124,183,36079,1,0,3:0:0:0:
124,183,36161,1,0,3:0:0:0:
124,183,36242,1,0,3:0:0:0:
33,129,36405,1,0,3:0:0:0:
8,325,36568,1,8,0:0:0:0:
11,336,36894,6,0,P|62:324|99:333,1,76.4999976654054,0|0,3:0|0:0,0:0:0:0:
124,183,37220,2,0,P|129:222|152:251,1,76.4999976654054,8|0,0:0|0:0,0:0:0:0:
351,321,37546,1,0,3:0:0:0:
270,268,37709,2,0,P|254:302|264:339,1,76.4999976654054,2|0,3:2|0:0,0:0:0:0:
258,354,38035,6,0,P|248:293|330:230,1,152.999995330811,2|0,3:2|3:0,0:0:0:0:
476,350,38525,1,8,0:0:0:0:
480,250,38688,1,0,3:0:0:0:
480,250,38769,1,0,3:0:0:0:
480,250,38851,1,0,3:0:0:0:
477,361,39014,1,0,3:0:0:0:
470,146,39177,1,8,0:0:0:0:
473,159,39503,6,0,L|393:144,1,76.4999976654054,4|0,0:0|0:0,0:0:0:0:
495,36,39829,2,0,L|415:21,1,76.4999976654054,8|0,0:0|0:0,0:0:0:0:
307,156,40155,1,0,3:0:0:0:
264,82,40318,2,0,P|297:66|334:75,1,76.4999976654054,2|0,3:2|0:0,0:0:0:0:
349,69,40644,6,0,P|288:59|225:141,1,152.999995330811,2|0,3:2|3:0,0:0:0:0:
338,240,41133,1,8,0:0:0:0:
241,229,41296,1,0,3:0:0:0:
241,229,41378,1,0,3:0:0:0:
241,229,41459,1,0,3:0:0:0:
307,156,41622,1,0,3:0:0:0:
267,346,41786,1,8,0:0:0:0:
270,358,42112,6,0,P|238:337|196:340,1,76.4999976654054,4|0,3:2|0:0,0:0:0:0:
41,355,42438,2,0,P|73:334|115:337,1,76.4999976654054,8|0,0:0|0:0,0:0:0:0:
155,175,42764,1,0,3:0:0:0:
186,257,42927,2,0,P|147:265|90:242,1,76.4999976654054,2|8,3:2|0:0,0:0:0:0:
82,63,43253,6,0,P|153:40|241:77,1,152.999995330811,4|0,3:2|3:0,0:0:0:0:
419,57,43742,1,8,0:0:0:0:
323,19,43905,1,0,1:0:0:0:
323,19,43987,1,0,1:0:0:0:
323,19,44068,1,0,1:0:0:0:
285,127,44231,1,0,1:0:0:0:
320,230,44394,1,12,3:0:0:0:
402,283,44557,1,12,3:0:0:0:
477,265,44720,6,0,P|481:210|473:142,1,102,4|0,3:2|0:0,0:0:0:0:
491,160,45046,2,0,P|468:137|424:120,1,68,0|0,3:0|0:0,0:0:0:0:
179,123,45372,1,8,0:0:0:0:
179,123,46025,2,0,P|177:89|183:45,1,68,0|8,3:0|0:0,0:0:0:0:
0,199,46351,2,0,P|38:177|135:213,1,136,0|8,3:0|0:0,0:0:0:0:
122,198,47329,5,0,3:0:0:0:
58,297,47492,1,8,0:0:0:0:
153,364,47655,2,0,P|227:365|288:361,1,136,0|8,3:0|0:0,0:0:0:0:
487,354,48307,2,0,P|435:351|412:356,1,68,0|8,0:0|0:0,0:0:0:0:
257,279,48633,5,0,3:0:0:0:
349,292,48796,1,8,0:0:0:0:
419,226,48959,1,0,1:0:0:0:
321,206,49122,1,0,1:0:0:0:
321,206,49204,1,0,1:0:0:0:
321,206,49286,1,0,1:0:0:0:
352,302,49449,1,0,1:0:0:0:
433,222,49612,1,12,3:0:0:0:
422,95,49775,1,12,3:0:0:0:
325,16,49938,6,0,P|245:14|200:21,1,102,4|0,3:2|0:0,0:0:0:0:
193,18,50264,2,0,P|185:58|186:98,1,68,0|0,3:0|0:0,0:0:0:0:
178,314,50590,1,8,0:0:0:0:
172,321,51242,6,0,P|132:306|99:311,1,68,0|8,3:0|0:0,0:0:0:0:
333,368,51568,2,0,P|345:322|332:211,1,136,0|8,3:0|0:0,0:0:0:0:
327,245,52546,6,0,P|310:220|266:193,1,68,6|0,3:2|0:0,0:0:0:0:
306,125,52872,2,0,P|276:119|226:131,1,68,2|0,0:0|0:0,0:0:0:0:
203,56,53199,1,2,0:0:0:0:
203,56,53525,1,0,0:0:0:0:
156,115,53688,6,0,P|154:152|161:201,1,68,2|0,0:0|0:0,0:0:0:0:
198,248,54014,1,2,0:0:0:0:
176,321,54177,1,0,0:0:0:0:
258,316,54340,1,2,0:0:0:0:
258,316,54421,1,2,0:0:0:0:
258,316,54503,1,2,0:0:0:0:
281,238,54666,1,0,0:0:0:0:
126,259,54829,1,2,0:0:0:0:
115,274,55155,5,8,1:2:0:0:
89,84,55318,1,0,3:0:0:0:
89,84,55481,1,0,3:0:0:0:
276,241,55644,5,8,1:2:0:0:
250,51,55807,1,0,3:0:0:0:
250,51,55970,1,0,3:0:0:0:
418,260,56133,5,8,1:2:0:0:
425,68,56296,1,0,3:0:0:0:
425,68,56459,1,0,3:0:0:0:
263,248,56622,5,8,1:2:0:0:
249,266,56949,1,0,3:0:0:0:
82,74,57112,1,8,1:2:0:0:
72,54,57438,5,0,1:2:0:0:
80,243,57601,1,0,1:2:0:0:
80,243,57682,1,0,1:2:0:0:
80,243,57764,6,0,P|84:299|93:348,1,93.5000028533936,6|0,3:2|0:0,0:0:0:0:
356,240,58090,2,0,P|351:296|343:345,1,93.5000028533936,10|0,0:0|0:0,0:0:0:0:
190,186,58416,1,0,3:0:0:0:
210,320,58579,1,0,3:0:0:0:
338,144,58742,1,10,0:0:0:0:
162,192,58905,1,2,3:2:0:0:
335,349,59068,6,0,P|427:360|495:346,1,140.25000428009,2|0,0:0|0:0,0:0:0:0:
501,326,59394,1,10,0:0:0:0:
459,116,59557,1,0,0:0:0:0:
381,245,59720,1,2,3:2:0:0:
473,99,59883,1,2,3:2:0:0:
285,139,60046,1,8,0:0:0:0:
369,42,60209,6,0,B|358:89|358:89|389:158|389:158|374:219,1,187.000005706787,6|0,3:2|3:0,0:0:0:0:
180,335,60699,2,0,P|224:326|268:346,1,93.5000028533936,8|0,0:0|0:0,0:0:0:0:
503,276,61025,2,0,P|458:274|418:302,1,93.5000028533936,2|0,3:2|3:0,0:0:0:0:
203,144,61351,2,0,P|268:190|273:230,1,93.5000028533936,10|0,0:2|0:0,0:0:0:0:
480,102,61677,5,2,3:2:0:0:
374,215,61840,1,2,3:2:0:0:
312,59,62003,1,10,0:2:0:0:
393,130,62166,1,0,3:0:0:0:
393,130,62247,1,8,0:0:0:0:
393,130,62329,1,2,3:2:0:0:
413,23,62492,1,2,3:2:0:0:
269,168,62655,2,0,P|221:163|154:167,1,93.5000028533936,10|0,0:2|0:0,0:0:0:0:
60,22,62981,6,0,B|89:95|30:92|63:174,1,152.999995330811,4|8,3:2|0:0,0:0:0:0:
61,170,63633,1,0,3:0:0:0:
238,82,63796,2,0,P|248:37|234:-2,1,76.4999976654053,0|0,3:0|0:0,0:0:0:0:
350,205,64122,6,0,P|397:219|481:144,1,152.999995330811,8|0,0:0|3:0,0:0:0:0:
162,227,64612,1,8,0:0:0:0:
281,297,64775,1,0,3:0:0:0:
281,297,64856,1,0,3:0:0:0:
281,297,64938,1,0,3:0:0:0:
248,141,65101,1,0,3:0:0:0:
139,337,65264,1,8,0:0:0:0:
134,358,65590,5,12,0:2:0:0:
93,133,65753,1,0,3:0:0:0:
294,351,65916,1,8,0:0:0:0:
146,239,66079,1,0,3:0:0:0:
440,251,66242,1,8,0:0:0:0:
262,241,66405,1,0,3:0:0:0:
498,160,66568,1,8,0:0:0:0:
408,348,66731,1,0,3:0:0:0:
376,77,66894,5,12,0:2:0:0:
352,256,67057,1,0,3:0:0:0:
246,41,67220,1,8,0:0:0:0:
253,209,67383,1,0,3:0:0:0:
80,40,67546,1,8,0:0:0:0:
157,278,67709,1,0,3:0:0:0:
342,151,67872,1,0,1:0:0:0:
299,130,67953,1,0,1:0:0:0:
252,121,68035,1,0,1:0:0:0:
204,126,68116,1,0,1:0:0:0:
160,144,68199,6,0,P|142:219|163:288,1,140.25000428009,6|0,3:2|0:0,0:0:0:0:
143,288,68525,2,0,P|126:243|130:182,1,93.5000028533936,10|0,0:0|0:0,0:0:0:0:
346,58,68851,1,2,3:2:0:0:
365,266,69014,1,0,3:0:0:0:
359,44,69177,1,10,0:2:0:0:
373,280,69340,1,0,3:0:0:0:
454,57,69503,5,2,0:2:0:0:
283,173,69666,1,2,3:2:0:0:
480,229,69829,1,10,0:2:0:0:
395,161,69992,1,0,3:0:0:0:
395,161,70074,1,0,3:0:0:0:
395,161,70155,1,0,3:0:0:0:
265,302,70318,1,2,3:2:0:0:
461,346,70481,1,10,0:2:0:0:
273,179,70644,6,0,P|215:163|87:189,1,187.000005706787,4|0,3:2|3:0,0:0:0:0:
307,90,71133,1,8,0:0:0:0:
210,285,71296,1,0,3:0:0:0:
169,78,71459,1,8,0:0:0:0:
320,286,71622,1,0,3:0:0:0:
427,77,71786,1,8,0:0:0:0:
263,192,71949,1,0,3:0:0:0:
93,26,72112,5,8,0:0:0:0:
94,210,72275,1,0,3:0:0:0:
275,77,72438,1,8,0:0:0:0:
155,119,72601,1,0,1:0:0:0:
155,119,72682,1,0,1:0:0:0:
155,119,72764,5,0,1:0:0:0:
249,198,72927,1,0,1:0:0:0:
362,35,73090,1,0,1:0:0:0:
405,257,73253,1,4,1:3:0:0:
504,138,73416,5,8,0:0:0:0:
432,89,73579,2,0,P|421:144|435:188,1,93.5000028533936,4|0,3:2|0:0,0:0:0:0:
234,139,73905,1,8,0:0:0:0:
306,90,74068,2,0,P|317:145|303:189,1,93.5000028533936,4|0,3:2|0:0,0:0:0:0:
120,319,74394,1,8,0:0:0:0:
71,247,74557,6,0,P|126:236|170:250,1,93.5000028533936,4|0,3:2|0:0,0:0:0:0:
360,332,74883,1,0,1:0:0:0:
425,257,75046,1,0,1:0:0:0:
429,152,75209,1,4,1:3:0:0:
395,62,75372,1,0,1:0:0:0:
310,23,75536,1,0,1:0:0:0:
213,28,75699,2,0,P|183:67|191:129,1,93.5000028533936,4|0,1:3|1:0,0:0:0:0:
313,263,76025,5,8,1:2:0:0:
292,140,76188,1,0,3:0:0:0:
178,218,76351,1,0,3:0:0:0:
327,280,76514,5,8,1:2:0:0:
299,120,76677,1,0,3:0:0:0:
152,221,76840,1,0,3:0:0:0:
381,342,77003,5,8,1:2:0:0:
335,53,77166,1,0,3:0:0:0:
71,254,77329,2,0,P|69:311|118:341,1,119,4|0,3:2|0:0,0:0:0:0:
205,265,78633,6,0,L|194:160,2,85,4|0|4,0:0|0:0|0:0,0:0:0:0:
196,283,79286,5,8,3:3:0:0:
301,362,79449,1,8,3:3:0:0:
434,348,79612,1,8,3:3:0:0:
485,239,79775,2,0,B|507:154|436:165|477:65,1,170,4|0,0:0|3:0,0:0:0:0:
473,75,80427,1,0,3:0:0:0:
252,192,80590,1,8,0:0:0:0:
244,206,81242,6,0,L|340:213,2,85,4|0|4,0:0|0:0|0:0,0:0:0:0:
238,219,81894,1,8,3:3:0:0:
259,101,82057,1,8,3:3:0:0:
184,8,82220,1,8,3:3:0:0:
68,32,82383,2,0,P|58:92|153:76,1,170,4|0,0:0|3:0,0:0:0:0:
410,81,83036,1,0,3:0:0:0:
410,81,83117,1,0,3:0:0:0:
410,81,83199,1,8,0:0:0:0:
335,15,83362,1,0,3:0:0:0:
336,205,83525,1,8,0:0:0:0:
329,219,83851,6,0,L|420:195,2,85,4|0|4,0:0|0:0|0:0,0:0:0:0:
322,233,84503,1,8,3:3:0:0:
247,343,84666,1,4,3:3:0:0:
114,364,84829,1,4,3:3:0:0:
41,280,84992,2,0,B|29:225|29:225|56:172|56:172|52:100,2,170,4|0|0,0:0|3:0|3:0,0:0:0:0:
260,191,85807,1,8,0:0:0:0:
256,206,86459,6,0,L|253:108,2,85,4|0|4,0:0|0:0|0:0,0:0:0:0:
252,220,87112,1,8,3:3:0:0:
364,169,87275,1,4,3:3:0:0:
351,38,87438,1,4,3:3:0:0:
230,19,87601,2,0,P|157:24|56:24,1,170,4|0,0:0|3:0,0:0:0:0:
43,257,88253,1,0,3:0:0:0:
43,257,88334,1,0,3:0:0:0:
43,257,88416,1,8,0:0:0:0:
41,156,88579,1,0,3:0:0:0:
119,341,88742,1,8,0:0:0:0:
133,250,88905,1,0,3:0:0:0:
34,356,89068,6,0,P|93:350|178:366,1,127.5,4|0,0:0|0:0,0:0:0:0:
187,369,89394,2,0,P|235:362|268:325,1,85,4|0,0:0|0:0,0:0:0:0:
266,161,89720,1,8,3:0:0:0:
318,242,89883,1,4,3:0:0:0:
417,248,90046,1,4,3:0:0:0:
487,188,90209,6,0,P|489:131|477:46,1,127.5,4|0,0:0|0:0,0:0:0:0:
494,60,90536,2,0,P|502:123|500:186,1,127.5,0|0,3:0|0:0,0:0:0:0:
492,212,90862,1,0,3:0:0:0:
317,75,91025,1,8,0:0:0:0:
321,88,91677,6,0,P|266:81|162:97,1,127.5,4|0,0:0|0:0,0:0:0:0:
163,84,92003,2,0,P|154:138|160:181,1,85,4|0,0:0|0:0,0:0:0:0:
261,316,92329,1,8,3:0:0:0:
202,242,92492,1,8,3:0:0:0:
106,239,92655,1,8,3:0:0:0:
31,325,92818,6,0,P|79:337|177:320,1,127.5,4|0,0:0|0:0,0:0:0:0:
155,346,93144,2,0,P|92:355|30:342,1,127.5,0|0,3:0|0:0,0:0:0:0:
10,320,93470,1,0,3:0:0:0:
159,166,93633,2,0,P|206:163|280:170,1,85,8|0,0:0|3:0,0:0:0:0:
25,30,93959,1,8,0:0:0:0:
15,41,94286,6,0,P|98:44|156:35,1,127.5,4|0,0:0|0:0,0:0:0:0:
166,21,94612,2,0,P|210:14|267:37,1,85,4|0,0:0|0:0,0:0:0:0:
418,21,94938,1,8,3:0:0:0:
334,76,95101,1,8,3:0:0:0:
351,177,95264,1,8,3:0:0:0:
431,232,95427,6,0,P|443:288|429:368,1,127.5,4|0,0:0|0:0,0:0:0:0:
451,356,95753,2,0,P|460:293|448:231,1,127.5,0|0,3:0|0:0,0:0:0:0:
429,211,96079,1,0,3:0:0:0:
243,348,96242,1,8,0:0:0:0:
240,360,96894,6,0,P|251:296|234:206,1,127.5,4|0,0:0|0:0,0:0:0:0:
228,224,97220,2,0,P|293:211|329:222,1,85,4|0,0:0|0:0,0:0:0:0:
429,65,97546,1,8,3:0:0:0:
426,203,97709,1,8,3:0:0:0:
326,136,97872,1,8,3:0:0:0:
512,136,98036,1,4,0:0:0:0:
256,192,98199,12,0,99340,0:0:0:0:
50,118,99503,6,0,P|98:123|171:88,1,127.5,4|0,0:0|0:0,0:0:0:0:
181,72,99829,2,0,P|159:108|192:159,1,85,8|0,0:0|0:0,0:0:0:0:
315,266,100155,1,0,3:0:0:0:
296,175,100318,2,0,P|259:187|231:229,1,85,2|0,3:2|0:0,0:0:0:0:
220,246,100644,6,0,P|246:185|354:196,1,170,2|0,3:2|3:0,0:0:0:0:
343,348,101133,1,8,0:0:0:0:
457,266,101296,1,0,3:0:0:0:
457,266,101378,1,0,3:0:0:0:
457,266,101459,1,0,3:0:0:0:
339,182,101622,1,0,3:0:0:0:
220,246,101786,2,0,P|176:254|124:244,1,85,8|0,0:0|0:0,0:0:0:0:
24,113,102112,6,0,P|75:81|134:133,1,127.5,4|0,0:0|0:0,0:0:0:0:
125,131,102438,2,0,P|164:89|192:92,1,85,8|0,0:0|0:0,0:0:0:0:
384,106,102764,1,0,3:0:0:0:
295,61,102927,2,0,P|284:101|294:143,1,85,2|0,3:2|0:0,0:0:0:0:
278,156,103253,6,0,P|272:92|355:14,1,170,2|0,3:2|3:0,0:0:0:0:
485,104,103742,2,0,P|483:146|459:181,1,85,8|0,0:0|3:0,0:0:0:0:
267,175,104068,1,0,3:0:0:0:
384,106,104231,1,0,3:0:0:0:
374,301,104394,1,8,0:0:0:0:
376,205,104557,1,0,3:0:0:0:
267,293,104720,6,0,P|189:302|116:291,1,127.5,4|0,0:0|0:0,0:0:0:0:
125,315,105046,2,0,P|134:270|127:220,1,85,8|0,0:0|0:0,0:0:0:0:
28,82,105372,1,0,3:0:0:0:
119,37,105536,2,0,P|130:78|120:119,1,85,2|0,3:2|0:0,0:0:0:0:
124,23,105862,6,0,P|140:74|79:173,1,170,2|0,3:2|3:0,0:0:0:0:
21,353,106351,1,8,0:0:0:0:
20,254,106514,1,0,3:0:0:0:
20,254,106595,1,0,3:0:0:0:
20,254,106677,1,0,3:0:0:0:
218,303,106840,1,0,3:0:0:0:
120,260,107003,2,0,P|112:301|110:344,1,85,8|0,0:0|0:0,0:0:0:0:
327,345,107329,6,0,P|331:300|325:248,1,68,2|0,0:0|0:0,0:0:0:0:
413,366,107655,2,0,P|419:305|414:213,1,136,2|0,0:0|0:0,0:0:0:0:
349,190,108144,1,2,0:0:0:0:
422,156,108307,1,0,0:0:0:0:
357,111,108470,1,2,0:0:0:0:
429,79,108633,6,0,P|466:78|503:85,1,68,2|0,0:0|0:0,0:0:0:0:
369,33,108959,1,2,0:0:0:0:
296,60,109122,1,2,0:0:0:0:
296,60,109204,1,2,0:0:0:0:
296,60,109286,2,0,P|261:59|216:56,1,68,2|0,0:0|0:0,0:0:0:0:
44,26,109612,1,2,0:0:0:0:
70,39,109938,5,8,1:2:0:0:
69,280,110101,1,0,3:0:0:0:
69,280,110264,1,0,3:0:0:0:
95,49,110427,5,8,1:2:0:0:
198,259,110590,1,0,3:0:0:0:
198,259,110753,1,0,3:0:0:0:
117,58,110916,5,8,1:2:0:0:
315,192,111079,1,0,3:0:0:0:
315,192,111242,1,0,3:0:0:0:
139,67,111405,5,8,1:2:0:0:
376,73,111568,1,0,3:0:0:0:
376,73,111731,1,0,3:0:0:0:
161,76,111894,5,8,1:2:0:0:
257,323,112057,1,0,3:0:0:0:
257,323,112546,6,0,B|231:251|278:249|257:185,1,140.25000428009,6|0,3:2|0:0,0:0:0:0:
269,181,112872,2,0,B|290:245|243:247|271:303,1,93.5000028533936,10|0,0:0|0:0,0:0:0:0:
84,184,113199,2,0,B|63:248|110:250|82:306,1,93.5000028533936,2|0,3:2|0:0,0:0:0:0:
428,184,113525,2,0,B|449:248|402:250|430:306,1,93.5000028533936,10|0,0:0|0:0,0:0:0:0:
331,67,113851,6,0,P|267:55|183:77,1,140.25000428009,2|0,3:2|0:0,0:0:0:0:
173,88,114177,1,10,0:0:0:0:
39,30,114340,1,0,3:0:0:0:
39,30,114421,1,0,3:0:0:0:
39,30,114503,1,2,3:2:0:0:
36,170,114666,1,2,3:2:0:0:
253,174,114829,1,10,0:2:0:0:
264,21,114992,6,0,B|268:59|268:59|243:111|243:111|256:190,1,140.25000428009,4|0,3:2|0:0,0:0:0:0:
253,174,115318,1,2,3:2:0:0:
377,58,115481,2,0,P|421:45|468:51,1,93.5000028533936,10|0,0:2|0:0,0:0:0:0:
485,273,115807,2,0,P|441:286|394:280,1,93.5000028533936,2|0,3:2|3:0,0:0:0:0:
237,70,116133,2,0,P|283:134|218:178,1,140.25000428009,10|0,0:2|0:0,0:0:0:0:
230,192,116459,6,0,P|168:187|119:192,1,93.5000028533936,0|0,3:0|3:0,0:0:0:0:
373,193,116786,1,8,0:0:0:0:
242,343,116949,1,0,3:0:0:0:
242,343,117030,1,8,0:0:0:0:
242,343,117112,1,0,3:0:0:0:
240,211,117275,1,0,3:0:0:0:
374,338,117438,1,8,0:0:0:0:
485,188,117601,1,0,3:0:0:0:
485,188,117682,1,0,3:0:0:0:
485,188,117764,6,0,P|494:124|462:30,1,152.999995330811,4|8,3:2|0:0,0:0:0:0:
468,40,118416,1,0,3:0:0:0:
317,128,118579,2,0,P|268:130|225:119,1,76.4999976654053,0|0,3:0|0:0,0:0:0:0:
357,317,118905,6,0,P|290:300|193:326,1,152.999995330811,8|0,0:0|3:0,0:0:0:0:
411,205,119394,1,8,0:0:0:0:
278,204,119557,1,0,3:0:0:0:
278,204,119639,1,0,3:0:0:0:
278,204,119720,1,0,3:0:0:0:
147,206,119883,1,0,3:0:0:0:
411,205,120046,1,8,0:0:0:0:
438,211,120372,5,12,0:2:0:0:
363,45,120536,1,0,3:0:0:0:
297,259,120699,1,8,0:0:0:0:
267,79,120863,1,0,3:0:0:0:
146,288,121025,1,8,0:0:0:0:
173,73,121189,1,0,3:0:0:0:
0,306,121351,1,8,0:0:0:0:
83,42,121515,1,0,3:0:0:0:
292,268,121677,5,12,0:2:0:0:
166,92,121840,1,0,3:0:0:0:
81,345,122003,1,8,0:0:0:0:
242,162,122166,1,0,3:0:0:0:
406,341,122329,1,8,0:0:0:0:
406,341,122655,5,0,1:0:0:0:
360,340,122736,1,0,1:0:0:0:
314,338,122818,1,0,1:0:0:0:
268,336,122899,1,0,1:0:0:0:
222,334,122981,5,4,3:2:0:0:
369,152,123144,1,2,0:2:0:0:
171,330,123307,1,10,0:2:0:0:
428,233,123470,1,2,0:2:0:0:
120,326,123633,2,0,L|9:318,1,93.5000028533936,2|0,3:2|3:0,0:0:0:0:
261,220,123959,1,8,0:0:0:0:
85,152,124122,6,0,P|36:149|-15:154,1,93.5000028533936,2|0,3:2|0:0,0:0:0:0:
262,93,124449,1,0,3:0:0:0:
139,236,124612,1,10,0:0:0:0:
149,67,124775,1,0,3:0:0:0:
149,67,124856,1,0,3:0:0:0:
149,67,124938,1,2,3:2:0:0:
261,220,125101,1,2,3:2:0:0:
85,152,125264,1,10,0:2:0:0:
285,90,125427,6,0,P|352:88|448:106,1,140.25000428009,6|0,3:2|0:0,0:0:0:0:
460,86,125753,1,0,3:0:0:0:
457,342,125916,1,8,0:0:0:0:
357,176,126079,1,0,3:0:0:0:
355,382,126242,1,8,0:0:0:0:
477,190,126405,1,0,3:0:0:0:
264,324,126568,1,8,0:0:0:0:
293,93,126731,1,0,3:0:0:0:
388,286,126894,5,8,0:0:0:0:
389,61,127057,1,0,3:0:0:0:
235,239,127220,1,8,0:0:0:0:
150,54,127383,1,0,1:0:0:0:
68,261,127546,1,0,1:0:0:0:
68,261,127709,1,0,1:0:0:0:
34,94,127872,2,0,L|29:-4,1,93.5000028533936,0|4,1:0|1:3,0:0:0:0:
199,153,128199,5,8,0:0:0:0:
111,183,128362,2,0,P|64:178|4:181,1,85,4|0,3:2|0:0,0:0:0:0:
269,90,128688,1,8,0:0:0:0:
357,120,128851,2,0,P|404:115|464:118,1,85,4|0,3:2|0:0,0:0:0:0:
198,29,129177,1,8,0:0:0:0:
110,59,129340,2,0,P|63:54|3:57,1,85,4|0,3:2|0:0,0:0:0:0:
10,294,129666,5,0,1:0:0:0:
89,344,129829,1,0,1:0:0:0:
190,348,129992,1,4,1:3:0:0:
278,306,130155,1,0,1:0:0:0:
328,227,130318,1,0,1:0:0:0:
332,139,130481,2,0,P|328:99|316:49,1,85,4|0,1:3|1:0,0:0:0:0:
428,289,130807,5,8,1:2:0:0:
434,101,130970,1,0,3:0:0:0:
249,185,131133,1,0,3:0:0:0:
438,307,131296,5,8,1:2:0:0:
444,91,131459,1,0,3:0:0:0:
232,188,131622,1,0,3:0:0:0:
379,198,131786,5,8,1:2:0:0:
240,53,131949,1,0,3:0:0:0:
90,208,132112,2,0,B|57:273|98:355|98:355|127:358|139:318,1,203.999993774414,4|0,3:2|3:0,0:0:0:0:
135,327,133742,6,0,P|180:321|301:336,1,127.5,4|0,1:2|0:0,0:0:0:0:
288,347,134068,2,0,P|284:305|301:249,1,85,0|0,3:0|3:0,0:0:0:0:
478,229,134394,1,8,0:0:0:0:
392,113,134557,6,0,B|416:192|368:198|394:280,1,170,0|0,3:0|3:0,0:0:0:0:
294,158,135046,2,0,P|237:150|196:155,1,85,8|0,0:0|3:0,0:0:0:0:
198,157,135291,1,0,3:0:0:0:
187,164,135372,1,0,3:0:0:0:
260,64,135536,1,0,3:0:0:0:
250,246,135699,1,8,0:0:0:0:
158,64,135862,6,0,P|101:58|6:65,1,127.5,4|0,3:2|0:0,0:0:0:0:
8,76,136188,1,0,3:0:0:0:
89,225,136351,2,0,P|96:178|89:131,1,85,8|0,0:0|0:0,0:0:0:0:
30,336,136677,1,0,3:0:0:0:
30,336,136840,1,0,3:0:0:0:
182,202,137003,1,8,0:0:0:0:
377,330,137166,6,0,P|304:357|208:328,1,170,0|0,3:0|3:0,0:0:0:0:
63,183,137655,2,0,P|98:227|89:259,1,85,8|0,0:0|3:0,0:0:0:0:
86,262,137900,1,0,3:0:0:0:
75,269,137981,1,0,3:0:0:0:
177,108,138144,1,0,3:0:0:0:
292,268,138307,1,8,0:0:0:0:
436,171,138470,1,0,1:0:0:0:
436,171,138552,1,0,1:0:0:0:
436,171,138633,6,0,B|345:207|350:147|270:167,2,170,4|8|0,3:2|0:0|3:0,0:0:0:0:
378,78,139449,1,0,3:0:0:0:
292,268,139612,1,0,3:0:0:0:
104,163,139775,6,0,B|184:143|179:203|270:166,1,170,8|0,0:0|3:0,0:0:0:0:
222,78,140264,1,8,0:0:0:0:
142,271,140427,1,0,3:0:0:0:
142,271,140508,1,0,3:0:0:0:
142,271,140590,1,0,3:0:0:0:
37,110,140753,1,0,3:0:0:0:
269,166,140916,1,8,0:0:0:0:
269,166,141242,6,0,P|281:238|271:345,1,170,4|8,3:2|0:0,0:0:0:0:
390,137,141731,1,0,3:0:0:0:
390,137,141894,2,0,P|378:209|388:316,1,170,0|8,3:0|0:0,0:0:0:0:
158,94,142383,1,0,3:0:0:0:
158,94,142546,2,0,P|170:166|160:273,1,170,0|8,3:0|0:0,0:0:0:0:
269,30,143036,5,0,1:0:0:0:
269,30,143117,1,0,1:0:0:0:
269,30,143199,1,0,1:0:0:0:
271,205,143362,1,0,3:0:0:0:
317,104,143525,1,4,1:3:0:0:
309,299,143688,1,4,3:3:0:0:
309,299,143769,1,0,3:0:0:0:
309,299,143851,6,0,L|226:300,1,59.4999981842042,4|0,3:2|0:0,0:0:0:0:
193,232,144177,2,0,L|153:303,1,59.4999981842042,0|0,3:0|0:0,0:0:0:0:
137,363,144503,2,0,L|219:361,2,59.4999981842042,8|0|8,0:0|0:0|0:0,0:0:0:0:
73,285,144992,2,0,L|101:233,1,59.4999981842042,0|0,3:0|0:0,0:0:0:0:
193,232,145318,2,0,L|164:283,1,59.4999981842042,8|0,0:0|0:0,0:0:0:0:
80,147,145644,1,0,3:0:0:0:
171,152,145807,1,8,0:0:0:0:
171,152,145970,6,0,B|239:132|232:176|285:151,1,118.999996368408,0|0,3:0|0:0,0:0:0:0:
384,33,146459,6,0,P|353:78|400:133,1,118.999996368408,0|0,3:0|0:0,0:0:0:0:
459,86,146949,1,0,3:0:0:0:
460,245,147112,2,0,L|460:318,1,59.4999981842042,8|0,0:0|0:0,0:0:0:0:
458,166,147438,1,8,0:0:0:0:
458,166,147764,5,0,3:0:0:0:
347,243,147927,1,8,0:0:0:0:
258,161,148090,2,0,L|196:159,1,59.4999981842042,0|0,3:0|3:0,0:0:0:0:
190,163,148334,1,0,3:0:0:0:
182,167,148416,1,4,3:0:0:0:
115,75,148579,1,4,3:0:0:0:
26,157,148742,1,0,3:0:0:0:
18,280,148905,1,0,3:0:0:0:
94,359,149068,6,0,P|149:355|226:360,2,118.999996368408,4|0|8,3:2|3:0|0:0,0:0:0:0:
5,362,149883,1,0,0:0:0:0:
18,280,150046,1,8,0:0:0:0:
18,280,150209,2,0,P|28:235|28:212,1,59.4999981842042,0|0,3:0|0:0,0:0:0:0:
160,279,150536,2,0,P|150:234|150:211,1,59.4999981842042,8|0,0:0|0:0,0:0:0:0:
89,72,150862,1,0,3:0:0:0:
85,157,151025,1,8,0:0:0:0:
85,157,151188,2,0,L|224:142,1,118.999996368408,0|0,3:0|0:0,0:0:0:0:
343,44,151677,6,0,P|386:92|390:158,1,118.999996368408,2|0,3:2|0:0,0:0:0:0:
467,266,152166,1,0,3:0:0:0:
467,266,152329,2,0,P|402:248|347:264,1,118.999996368408,10|8,0:2|0:0,0:0:0:0:
258,225,152818,1,0,0:0:0:0:
164,346,152981,5,0,3:0:0:0:
54,248,153144,1,8,0:0:0:0:
162,250,153307,1,0,3:0:0:0:
57,347,153470,1,0,3:0:0:0:
50,148,153633,1,8,3:2:0:0:
54,248,153796,1,0,3:0:0:0:
159,142,153959,1,0,3:0:0:0:
47,59,154122,1,0,3:0:0:0:
50,148,154286,6,0,L|54:215,1,59.4999981842042,6|0,3:2|0:0,0:0:0:0:
162,82,154611,2,0,L|158:149,1,59.4999981842042,2|0,3:2|0:0,0:0:0:0:
258,174,154938,2,0,L|262:241,1,59.4999981842042,10|0,0:2|0:0,0:0:0:0:
370,108,155263,2,0,L|366:175,1,59.4999981842042,10|0,0:2|3:0,0:0:0:0:
262,55,155590,6,0,L|260:168,1,89.2499972763062,2|0,0:2|0:0,0:0:0:0:
258,174,155916,1,2,0:2:0:0:
370,108,156079,2,0,L|444:112,1,59.4999981842042,2|8,3:2|0:0,0:0:0:0:
140,53,156405,1,2,3:2:0:0:
140,53,156731,1,2,0:2:0:0:
54,134,156894,5,2,3:2:0:0:
54,134,157057,1,0,0:0:0:0:
134,232,157220,1,2,0:2:0:0:
134,232,157383,1,0,3:0:0:0:
49,336,157546,1,10,0:2:0:0:
49,336,157709,1,0,0:0:0:0:
188,357,157872,2,0,L|263:360,1,59.4999981842042,10|0,0:2|0:0,0:0:0:0:
352,198,158199,5,2,3:2:0:0:
407,280,158362,2,0,L|413:350,1,59.4999981842042,10|0,0:2|3:0,0:0:0:0:
444,190,158688,1,2,3:2:0:0:
318,293,158851,1,2,3:2:0:0:
224,228,159014,1,0,3:0:0:0:
203,120,159177,1,4,3:0:0:0:
253,43,159340,1,4,3:0:0:0:
330,28,159503,6,0,P|372:27|460:37,2,118.999996368408,4|0|8,3:2|3:0|0:0,0:0:0:0:
330,28,160481,1,8,0:0:0:0:
243,19,160644,2,0,P|202:17|165:22,1,59.4999981842042,0|0,3:0|0:0,0:0:0:0:
39,24,160970,2,0,P|80:22|117:27,1,59.4999981842042,8|0,0:0|0:0,0:0:0:0:
221,107,161296,1,0,3:0:0:0:
127,109,161459,1,8,0:0:0:0:
127,109,161622,2,0,P|86:103|-2:110,1,118.999996368408,0|0,3:0|0:0,0:0:0:0:
41,346,162112,5,8,1:2:0:0:
162,193,162275,1,0,3:0:0:0:
162,193,162438,1,0,3:0:0:0:
201,359,162601,5,8,1:2:0:0:
322,206,162764,1,0,3:0:0:0:
322,206,162927,1,0,3:0:0:0:
364,373,163090,5,8,1:2:0:0:
485,220,163253,1,0,3:0:0:0:
485,220,163416,1,0,3:0:0:0:
289,291,163579,6,0,P|229:298|197:288,1,85,8|0,1:2|3:0,0:0:0:0:
258,33,163905,1,0,3:0:0:0:
231,192,164068,1,8,1:2:0:0:
386,121,164231,1,0,3:0:0:0:
98,98,164394,1,0,1:2:0:0:
98,98,164720,6,0,P|130:150|95:211,1,110.499994941712,0|0,1:2|0:0,0:0:0:0:
234,201,164965,2,0,P|182:233|121:198,1,110.499994941712,0|0,1:2|0:0,0:0:0:0:
24,262,165209,1,0,1:2:0:0:
212,94,165372,1,4,1:3:0:0:
212,94,165454,1,4,1:3:0:0:
212,94,165536,2,0,L|279:95,1,55.2499974708558,4|4,1:3|1:3,0:0:0:0:
418,289,165699,6,0,P|356:290|321:229,1,110.499994941712,0|0,1:2|0:0,0:0:0:0:
260,355,165944,2,0,P|258:293|319:258,1,110.499994941712,0|0,1:2|0:0,0:0:0:0:
312,142,166188,1,0,1:2:0:0:
476,355,166351,1,4,1:3:0:0:
476,355,166432,1,4,1:3:0:0:
476,355,166514,2,0,L|470:296,1,55.2499974708558,4|4,1:3|1:3,0:0:0:0:
457,147,166677,5,0,1:2:0:0:
369,355,166840,1,4,1:3:0:0:
210,189,167003,1,4,1:3:0:0:
210,189,167084,1,4,1:3:0:0:
210,189,167166,2,0,L|197:250,1,55.2499974708558,4|4,1:3|1:3,0:0:0:0:
62,360,167329,6,0,L|22:357,1,29.7499990921021,2|0,1:2|0:0,0:0:0:0:
79,285,167655,2,0,L|39:282,1,29.7499990921021,2|0,0:2|0:0,0:0:0:0:
138,339,167981,2,0,L|178:336,2,29.7499990921021,2|2|2,0:2|0:2|0:2,0:0:0:0:
62,360,168470,1,2,0:2:0:0:
79,285,168633,2,0,L|78:246,1,29.7499990921021,2|0,0:2|0:0,0:0:0:0:
138,339,168959,1,2,0:2:0:0:
62,360,169122,1,2,0:2:0:0:
256,192,169286,5,8,3:2:0:0:
45,30,169449,1,8,3:2:0:0:
45,30,169775,6,0,P|100:46|87:181,1,203.999993774414,4|0,3:2|3:0,0:0:0:0:
354,19,170264,2,0,P|344:73|354:144,1,101.999996887207,10|0,0:2|0:0,0:0:0:0:
144,282,170590,2,0,P|198:300|235:342,1,101.999996887207,2|0,3:2|3:0,0:0:0:0:
488,233,170916,2,0,P|434:251|397:293,1,101.999996887207,10|0,0:2|3:0,0:0:0:0:
217,129,171242,5,2,0:2:0:0:
302,274,171405,1,2,3:2:0:0:
396,140,171568,1,10,0:2:0:0:
304,179,171731,1,0,3:0:0:0:
304,179,171813,1,8,0:0:0:0:
304,179,171894,1,2,3:2:0:0:
446,291,172057,1,2,3:2:0:0:
486,114,172220,2,0,P|491:56|485:6,1,101.999996887207,10|0,0:2|0:0,0:0:0:0:
195,60,172546,6,0,P|253:79|376:36,1,170,4|8,3:2|0:0,0:0:0:0:
355,52,173199,1,0,3:0:0:0:
171,67,173362,2,0,P|158:111|175:175,1,85,0|0,3:0|0:0,0:0:0:0:
400,243,173688,6,0,P|339:229|251:301,1,170,8|0,0:0|3:0,0:0:0:0:
25,251,174177,1,8,0:0:0:0:
144,324,174340,1,0,3:0:0:0:
144,324,174421,1,0,3:0:0:0:
144,324,174503,1,0,3:0:0:0:
145,190,174666,1,0,3:0:0:0:
14,375,174829,1,8,0:0:0:0:
27,378,175155,5,12,0:2:0:0:
48,111,175318,1,0,3:0:0:0:
252,371,175481,1,8,0:0:0:0:
24,241,175644,1,0,3:0:0:0:
349,220,175807,1,8,0:0:0:0:
143,331,175970,1,0,3:0:0:0:
286,49,176133,1,8,0:0:0:0:
287,286,176296,1,0,3:0:0:0:
120,27,176459,5,12,0:2:0:0:
24,241,176622,1,0,3:0:0:0:
303,32,176786,1,8,0:0:0:0:
419,256,176949,1,0,3:0:0:0:
169,102,177112,5,4,3:3:0:0:
163,133,177193,1,4,3:3:0:0:
157,164,177275,1,4,3:3:0:0:
152,196,177356,1,4,3:3:0:0:
146,227,177438,1,0,1:0:0:0:
419,75,177601,1,0,1:0:0:0:
419,75,177682,1,0,1:0:0:0:
419,75,177764,6,0,B|356:73|344:179|271:144,1,159.375,6|0,3:2|0:0,0:0:0:0:
258,155,178090,2,0,B|203:156|194:77|152:111,1,106.25,10|0,0:2|0:0,0:0:0:0:
19,255,178416,5,2,3:2:0:0:
45,75,178579,1,0,3:2:0:0:
32,267,178742,1,10,0:2:0:0:
27,66,178905,1,0,3:2:0:0:
210,264,179068,5,2,0:2:0:0:
163,101,179231,1,2,3:2:0:0:
3,176,179394,1,10,0:2:0:0:
116,191,179557,1,0,3:0:0:0:
116,191,179639,1,0,3:0:0:0:
116,191,179720,1,2,3:2:0:0:
32,75,179883,1,2,3:2:0:0:
32,315,180046,1,10,0:2:0:0:
256,173,180209,6,0,B|357:144|370:256|454:227,1,212.5,4|0,3:2|3:0,0:0:0:0:
448,49,180699,1,8,0:0:0:0:
327,329,180862,1,0,3:0:0:0:
167,44,181025,1,8,0:0:0:0:
214,325,181188,1,0,3:0:0:0:
287,44,181351,1,8,0:0:0:0:
107,328,181514,1,0,3:0:0:0:
38,44,181677,5,4,3:3:0:0:
39,70,181758,1,4,3:3:0:0:
40,97,181840,1,4,3:3:0:0:
42,123,181921,1,4,3:3:0:0:
43,150,182003,1,4,3:3:0:0:
175,143,182166,1,0,1:0:0:0:
170,168,182247,1,0,1:0:0:0:
167,195,182329,1,0,1:0:0:0:
163,221,182410,1,0,1:0:0:0:
159,248,182492,5,0,1:0:0:0:
148,56,182655,1,0,1:0:0:0:
9,328,182818,1,4,1:3:0:0:
256,193,182981,5,8,0:0:0:0:
133,58,183144,2,0,L|67:47,1,63.7500024318696,4|0,3:2|0:0,0:0:0:0:
254,215,183470,1,8,0:0:0:0:
379,58,183633,2,0,L|445:47,1,63.7500024318696,4|0,3:2|0:0,0:0:0:0:
252,237,183959,1,8,0:0:0:0:
133,58,184122,2,0,L|67:47,1,63.7500024318696,4|0,3:2|0:0,0:0:0:0:
250,259,184449,1,0,1:0:0:0:
379,58,184612,5,0,1:0:0:0:
465,165,184775,1,4,1:3:0:0:
386,266,184938,1,0,1:0:0:0:
454,369,185101,1,0,1:0:0:0:
470,151,185264,1,4,1:3:0:0:
250,259,185427,1,0,1:0:0:0:
388,277,185590,5,8,1:2:0:0:
253,94,185753,1,0,3:0:0:0:
96,272,185916,1,0,3:0:0:0:
410,291,186079,5,8,1:2:0:0:
252,77,186242,1,0,3:0:0:0:
69,285,186405,1,0,3:0:0:0:
475,346,186568,5,8,1:2:0:0:
256,0,186731,1,0,3:0:0:0:
6,340,186894,1,4,3:2:0:0:
256,192,186976,12,0,188036,0:0:0:0:
413,91,188199,6,0,P|351:79|254:86,1,127.5,4|0,3:2|0:0,0:0:0:0:
257,79,188525,2,0,P|262:128|255:177,1,85,8|0,0:0|0:0,0:0:0:0:
43,53,188851,1,0,3:0:0:0:
49,214,189014,1,0,3:0:0:0:
171,118,189177,1,10,0:2:0:0:
20,56,189340,6,0,B|13:110|13:110|39:179|39:179|28:238,1,170,2|0,3:2|3:0,0:0:0:0:
146,337,189829,1,10,0:2:0:0:
147,227,189992,1,0,3:0:0:0:
147,227,190074,1,0,3:0:0:0:
147,227,190155,1,2,3:2:0:0:
22,331,190318,1,2,3:2:0:0:
258,342,190481,2,0,P|306:338|367:341,1,85,10|0,0:2|3:0,0:0:0:0:
470,113,190807,6,0,P|460:172|469:244,1,127.5,4|0,3:2|0:0,0:0:0:0:
480,261,191133,2,0,P|413:247|384:255,1,85,8|0,0:0|0:0,0:0:0:0:
235,70,191459,2,0,P|226:112|230:163,2,85,2|0|8,3:2|3:0|0:0,0:0:0:0:
305,204,191949,6,0,P|256:188|125:223,1,170,2|0,3:2|3:0,0:0:0:0:
48,37,192438,1,10,0:2:0:0:
39,140,192601,1,0,3:0:0:0:
39,140,192682,1,8,0:0:0:0:
39,140,192764,1,2,3:2:0:0:
143,99,192927,1,2,3:2:0:0:
26,231,193090,1,10,0:2:0:0:
142,210,193253,1,4,3:0:0:0:
142,210,193334,1,4,3:0:0:0:
142,210,193416,6,0,P|220:210|298:212,1,127.5,4|0,3:2|0:0,0:0:0:0:
293,225,193742,2,0,P|290:173|302:135,1,85,8|0,0:0|0:0,0:0:0:0:
454,32,194068,1,0,3:0:0:0:
446,167,194231,1,0,3:0:0:0:
322,61,194394,1,10,0:2:0:0:
474,20,194557,6,0,B|498:66|498:66|477:186,1,170,2|0,3:2|3:0,0:0:0:0:
371,315,195046,1,10,0:2:0:0:
372,205,195209,1,0,3:0:0:0:
372,205,195291,1,0,3:0:0:0:
372,205,195372,1,2,3:2:0:0:
484,300,195536,1,2,3:2:0:0:
280,360,195699,2,0,L|159:344,1,85,10|0,0:2|0:0,0:0:0:0:
74,133,196025,5,8,1:2:0:0:
242,238,196188,1,0,3:0:0:0:
63,327,196351,1,0,3:0:0:0:
58,123,196514,5,8,1:2:0:0:
261,242,196677,1,0,3:0:0:0:
45,336,196840,1,0,3:0:0:0:
194,126,197003,5,8,1:2:0:0:
257,364,197166,1,0,3:0:0:0:
496,195,197329,1,4,3:2:0:0:
256,192,197411,12,0,198470,0:0:0:0:
467,141,198633,6,0,B|418:149|418:149|381:131|381:131|322:136,1,127.5,4|0,0:0|0:0,0:0:0:0:
303,231,198959,2,0,P|319:192|308:152,1,85,4|0,0:0|0:0,0:0:0:0:
118,44,199285,1,8,3:0:0:0:
24,131,199448,1,8,3:0:0:0:
26,262,199611,1,8,3:0:0:0:
134,319,199774,6,0,L|278:302,1,127.5,4|0,0:0|0:0,0:0:0:0:
285,316,200100,2,0,P|291:265|278:207,1,85,0|0,3:0|0:0,0:0:0:0:
195,95,200426,1,0,3:0:0:0:
480,43,200589,1,8,0:0:0:0:
480,43,201242,6,0,P|428:84|357:64,1,127.5,4|0,0:0|0:0,0:0:0:0:
273,41,201568,2,0,P|313:49|330:87,1,85,4|0,0:0|0:0,0:0:0:0:
133,47,201894,1,8,3:0:0:0:
216,140,202057,1,8,3:0:0:0:
225,263,202220,1,8,3:0:0:0:
129,349,202383,6,0,B|64:372|66:315|-13:352,1,127.5,4|0,0:0|0:0,0:0:0:0:
143,350,202709,2,0,P|186:348|228:352,1,85,0|0,3:0|0:0,0:0:0:0:
379,170,203035,1,0,3:0:0:0:
346,346,203198,5,8,0:0:0:0:
258,149,203361,1,0,3:0:0:0:
470,335,203524,1,8,0:0:0:0:
470,335,203851,6,0,P|477:274|468:182,1,127.5,4|0,0:0|0:0,0:0:0:0:
366,211,204177,2,0,P|412:226|445:195,1,85,4|0,0:0|0:0,0:0:0:0:
350,56,204503,1,8,3:0:0:0:
240,16,204666,1,8,3:0:0:0:
115,13,204829,1,8,3:0:0:0:
27,98,204992,6,0,P|23:155|27:274,2,170,4|0|0,0:0|3:0|3:0,0:0:0:0:
61,343,205807,1,8,0:0:0:0:
61,343,206459,2,0,P|116:330|202:353,1,127.5,4|0,0:0|0:0,0:0:0:0:
46,350,206786,2,0,P|35:298|59:252,1,85,4|0,0:0|0:0,0:0:0:0:
163,105,207112,1,8,3:0:0:0:
283,57,207275,1,8,3:0:0:0:
401,93,207438,1,8,3:0:0:0:
397,211,207601,6,0,P|406:273|400:345,1,127.5,4|0,0:0|0:0,0:0:0:0:
416,354,207927,2,0,P|364:345|324:355,1,85,0|0,3:0|0:0,0:0:0:0:
146,272,208253,1,0,3:0:0:0:
285,133,208416,1,8,0:0:0:0:
239,357,208579,1,0,3:0:0:0:
131,110,208742,1,8,0:0:0:0:
397,211,208905,5,4,0:0:0:0:
256,192,208987,12,0,214286,0:0:0:0:
