osu file format v14

[General]
AudioFilename: audio.mp3
AudioLeadIn: 0
PreviewTime: 167247
Countdown: 0
SampleSet: Soft
StackLeniency: 0.8
Mode: 0
LetterboxInBreaks: 0
WidescreenStoryboard: 1

[Editor]
Bookmarks: 13416,23851,32981,44720,57764,78633,89068,99503,112546,133742,143851,167329,188525,198633,208905,216568
DistanceSpacing: 1.5
BeatDivisor: 4
GridSize: 4
TimelineZoom: 1.5

[Metadata]
Title:Neverland
TitleUnicode:ネバーランド
Artist:the peggies
ArtistUnicode:the peggies
Creator:FuJu
Version:Hard
Source:
Tags:
BeatmapID:2194400
BeatmapSetID:1048732

[Difficulty]
HPDrainRate:5
CircleSize:3.5
OverallDifficulty:6.5
ApproachRate:8
SliderMultiplier:1.35
SliderTickRate:1

[Events]
//Background and Video events
0,0,"bg.jpg",0,0
//Break Periods
2,24051,32081
2,107529,109188
2,167529,168461
//Storyboard Layer 0 (Background)
//Storyboard Layer 1 (Fail)
//Storyboard Layer 2 (Pass)
//Storyboard Layer 3 (Foreground)
//Storyboard Layer 4 (Overlay)
//Storyboard Sound Samples

[TimingPoints]
373,326.086956521739,4,2,1,45,1,0
2981,-105.263157894737,4,2,1,45,0,0
13416,-95.238095238095,4,2,1,65,0,0
32981,-95.2380952380954,4,2,1,55,0,0
34286,-95.2380952380954,4,2,1,65,0,0
44720,-95.2380952380954,4,2,1,55,0,0
52546,-95.2380952380956,4,2,1,45,0,0
55155,-95.2380952380956,4,2,1,65,0,0
57764,-86.9565217391304,4,2,1,75,0,1
77655,-86.9565217391304,4,2,1,45,0,1
78633,-95.2380952380952,4,2,1,65,0,0
89068,-95.2380952380954,4,2,1,55,0,0
99503,-95.2380952380954,4,2,1,65,0,0
107329,-95.238095238095,4,2,1,45,0,0
109938,-95.2380952380954,4,2,1,65,0,0
112546,-86.9565217391304,4,2,1,75,0,1
132112,-86.9565217391304,4,2,1,75,0,1
132275,-86.9565217391304,4,2,1,45,0,1
133742,-95.2380952380952,4,2,1,65,0,0
143851,-105.263157894737,4,2,1,55,0,0
162112,-95.2380952380954,4,2,1,65,0,0
169775,-86.9565217391304,4,2,1,75,0,1
186894,-86.9565217391304,4,2,1,75,0,0
187057,-86.9565217391304,4,2,1,45,0,0
188525,-95.2380952380952,4,2,1,65,0,0
197329,-95.2380952380952,4,2,1,45,0,0
198959,-95.2380952380952,4,2,1,65,0,0
216568,-95.2380952380952,4,2,1,5,0,0

[Colours]
Combo1 : 128,128,128
Combo2 : 255,0,0
Combo3 : 244,250,37
Combo4 : 128,128,192
Combo5 : 255,128,64

[HitObjects]
41,78,2981,6,0,P|102:48|178:63,1,128.249996575356,2|2,0:2|0:2,0:0:0:0:
211,135,3470,1,0,0:2:0:0:
136,196,3633,2,0,L|114:120,1,64.1249982876778,2|2,0:2|0:2,0:0:0:0:
211,135,3959,1,0,0:2:0:0:
282,199,4122,2,0,L|272:350,1,128.249996575356,2|2,0:2|0:2,0:0:0:0:
273,326,4775,2,0,P|337:296|412:310,1,128.249996575356,2|2,0:2|0:2,0:0:0:0:
476,349,5264,2,0,L|481:278,1,64.1249982876778,2|0,0:2|0:2,0:0:0:0:
490,189,5590,6,0,B|415:178|440:232|343:204,1,128.249996575356,2|2,0:2|0:2,0:0:0:0:
366,209,6242,1,0,0:2:0:0:
384,114,6405,2,0,L|375:36,1,64.1249982876778,2|0,0:2|0:2,0:0:0:0:
282,31,6731,2,0,P|215:50|143:29,1,128.249996575356,2|2,0:2|0:2,0:0:0:0:
159,37,7383,2,0,L|146:111,1,64.1249982876778,2|0,0:2|0:2,0:0:0:0:
204,177,7709,1,2,0:2:0:0:
204,177,7791,1,0,0:2:0:0:
204,177,7872,2,0,L|211:250,1,64.1249982876778,6|0,0:2|0:2,0:0:0:0:
152,318,8199,6,0,P|194:287|283:310,1,128.249996575356,2|2,0:2|0:2,0:0:0:0:
266,296,8851,2,0,P|269:333|259:373,2,64.1249982876778,2|2|0,0:2|0:2|0:2,0:0:0:0:
305,208,9340,2,0,B|358:204|358:204|388:224|388:224|455:221,1,128.249996575356,2|2,0:2|0:2,0:0:0:0:
479,141,9829,1,0,0:0:0:0:
412,71,9992,2,0,L|322:75,1,64.1249982876778,2|0,0:2|0:2,0:0:0:0:
257,106,10318,1,2,0:2:0:0:
257,106,10400,1,0,0:2:0:0:
257,106,10481,1,6,0:2:0:0:
412,71,10807,5,4,0:2:0:0:
256,192,10889,12,0,12601,0:0:0:0:
144,117,12927,5,0,1:2:0:0:
144,117,13090,1,8,1:2:0:0:
36,300,13416,6,0,L|113:288,1,70.8749978370667,0|0,1:2|0:2,0:0:0:0:
196,233,13742,2,0,L|273:245,1,70.8749978370667,0|0,1:2|0:2,0:0:0:0:
365,280,14068,2,0,P|370:319|363:358,2,70.8749978370667,8|8|0,0:2|0:2|1:2,0:0:0:0:
342,176,14557,2,0,P|337:140|342:106,1,70.8749978370667,0|0,1:2|0:2,0:0:0:0:
443,70,14883,2,0,P|448:104|443:139,1,70.8749978370667,0|0,1:2|0:2,0:0:0:0:
342,176,15209,1,0,1:2:0:0:
342,176,15372,1,8,0:2:0:0:
342,176,16025,6,0,L|242:166,1,70.8749978370667,0|0,1:2|0:2,0:0:0:0:
197,93,16351,2,0,L|126:100,1,70.8749978370667,0|0,1:2|0:2,0:0:0:0:
21,86,16677,2,0,L|12:13,2,70.8749978370667,8|8|0,0:2|0:2|1:2,0:0:0:0:
68,181,17166,2,0,L|59:254,1,70.8749978370667,0|0,1:2|0:2,0:0:0:0:
32,354,17492,2,0,P|73:331|117:335,1,70.8749978370667,0|0,1:2|0:2,0:0:0:0:
191,375,17818,1,0,1:2:0:0:
219,272,17981,2,0,P|178:249|134:253,1,70.8749978370667,8|0,0:2|1:2,0:0:0:0:
95,159,18307,1,8,0:2:0:0:
95,159,18633,6,0,P|129:154|159:134,1,70.8749978370667,0|0,1:2|0:2,0:0:0:0:
223,50,18959,2,0,P|257:54|287:74,1,70.8749978370667,0|0,1:2|0:2,0:0:0:0:
354,156,19286,2,0,P|324:175|289:180,2,70.8749978370667,8|8|0,0:2|0:2|1:2,0:0:0:0:
416,69,19775,2,0,L|412:-13,1,70.8749978370667,0|0,1:2|0:2,0:0:0:0:
497,61,20101,2,0,L|493:131,1,70.8749978370667,0|0,1:2|0:2,0:0:0:0:
447,227,20427,1,0,1:2:0:0:
447,227,20590,1,8,0:2:0:0:
430,326,21242,6,0,L|342:334,1,70.8749978370667,0|0,1:2|0:2,0:0:0:0:
325,232,21568,2,0,L|331:142,1,70.8749978370667,0|0,1:2|0:2,0:0:0:0:
436,156,21894,2,0,L|446:226,2,70.8749978370667,8|8|0,0:2|0:2|1:2,0:0:0:0:
376,68,22383,2,0,P|331:57|286:63,1,70.8749978370667,0|0,1:2|0:2,0:0:0:0:
232,134,22709,2,0,P|188:145|143:139,1,70.8749978370667,0|0,1:2|0:2,0:0:0:0:
95,62,23036,1,0,1:2:0:0:
23,140,23199,2,0,L|27:223,1,70.8749978370667,8|0,0:2|1:2,0:0:0:0:
128,244,23525,2,0,L|124:327,1,70.8749978370667,8|2,0:2|0:2,0:0:0:0:
19,309,23851,5,6,1:2:0:0:
35,43,32981,6,0,B|129:28|87:88|178:75,1,141.749995674133,0|8,1:2|0:2,0:0:0:0:
258,22,33470,1,8,0:2:0:0:
258,22,33552,1,8,0:2:0:0:
258,22,33633,1,0,1:2:0:0:
266,127,33796,1,0,0:2:0:0:
462,29,34286,6,0,L|469:122,1,70.8749978370667,2|0,1:2|0:2,0:0:0:0:
381,161,34612,2,0,L|374:254,1,70.8749978370667,10|0,0:2|0:2,0:0:0:0:
323,324,34938,1,2,1:2:0:0:
323,324,35101,2,0,P|279:310|235:313,1,70.8749978370667,0|2,1:2|0:2,0:0:0:0:
160,359,35427,6,0,P|176:278|150:199,1,141.749995674133,0|0,1:2|1:2,0:0:0:0:
116,125,35916,2,0,L|202:110,1,70.8749978370667,10|0,0:2|0:2,0:0:0:0:
279,163,36242,1,2,1:2:0:0:
279,163,36405,1,2,1:2:0:0:
362,97,36568,2,0,P|364:53|353:22,1,70.8749978370667,10|2,0:2|0:2,0:0:0:0:
251,10,36894,6,0,L|84:22,1,141.749995674133,2|10,1:2|0:2,0:0:0:0:
109,20,37546,1,2,1:2:0:0:
173,104,37709,2,0,L|168:186,1,70.8749978370667,2|0,1:2|0:2,0:0:0:0:
105,260,38036,2,0,P|152:218|249:236,1,141.749995674133,2|0,1:2|1:2,0:0:0:0:
292,305,38525,1,8,0:2:0:0:
186,297,38688,2,0,L|192:334,2,35.4374989185334,0|0|0,0:2|0:2|1:2,0:0:0:0:
257,218,39014,5,2,1:2:0:0:
257,218,39177,1,8,1:2:0:0:
329,295,39340,2,0,L|409:291,1,70.8749978370667,2|4,0:2|0:2,0:0:0:0:
467,209,39666,1,2,0:2:0:0:
467,209,39829,1,10,0:2:0:0:
384,141,39992,2,0,P|376:175|377:211,1,70.8749978370667,2|0,0:2|1:2,0:0:0:0:
304,288,40318,1,2,0:2:0:0:
304,288,40481,1,2,0:2:0:0:
268,189,40644,6,0,P|193:166|113:195,1,141.749995674133,2|2,1:2|1:2,0:0:0:0:
45,240,41133,1,10,0:2:0:0:
31,134,41296,1,2,0:2:0:0:
31,134,41378,1,0,0:2:0:0:
31,134,41459,2,0,P|35:83|47:52,1,70.8749978370667,0|0,1:2|1:2,0:0:0:0:
133,11,41786,2,0,P|142:45|143:80,1,70.8749978370667,10|2,0:2|0:2,0:0:0:0:
125,185,42112,6,0,P|197:174|248:222,1,141.749995674133,2|10,1:2|0:2,0:0:0:0:
292,312,42601,2,0,L|365:299,1,70.8749978370667,2|0,0:2|1:2,0:0:0:0:
441,229,42927,1,2,1:2:0:0:
441,229,43090,1,10,0:2:0:0:
450,120,43253,2,0,B|364:100|387:163|297:138,1,141.749995674133,2|0,1:2|1:2,0:0:0:0:
245,55,43742,1,8,0:2:0:0:
146,14,43905,1,0,0:2:0:0:
146,14,43987,1,0,1:2:0:0:
146,14,44068,2,0,L|137:98,1,70.8749978370667,8|8,0:2|0:2,0:0:0:0:
57,153,44394,2,0,L|48:69,1,70.8749978370667,0|8,1:2|0:2,0:0:0:0:
167,167,44720,6,0,B|229:164|229:164|266:178|266:178|326:177,1,141.749995674133,2|0,1:2|1:2,0:0:0:0:
421,49,45372,2,0,P|435:98|430:202,1,141.749995674133,10|2,0:2|0:2,0:0:0:0:
308,299,46025,2,0,L|385:313,1,70.8749978370667,2|8,1:2|0:2,0:0:0:0:
475,269,46351,1,0,1:2:0:0:
308,299,46677,1,8,0:2:0:0:
477,353,47329,6,0,P|441:337|402:333,1,70.8749978370667,2|10,1:2|0:2,0:0:0:0:
308,299,47655,2,0,P|271:312|233:319,1,70.8749978370667,2|2,1:2|0:2,0:0:0:0:
144,365,47981,2,0,P|155:315|122:212,1,141.749995674133,10|2,0:2|0:2,0:0:0:0:
46,167,48470,2,0,P|80:137|122:125,1,70.8749978370667,8|2,0:2|1:2,0:0:0:0:
205,157,48796,2,0,L|212:75,1,70.8749978370667,10|10,0:2|0:2,0:0:0:0:
138,8,49122,1,2,0:2:0:0:
138,8,49204,1,0,0:2:0:0:
138,8,49286,2,0,P|179:-5|232:-4,1,70.8749978370667,8|10,0:2|0:2,0:0:0:0:
304,43,49612,2,0,L|310:113,1,70.8749978370667,10|8,0:2|0:2,0:0:0:0:
299,219,49938,6,0,P|340:192|442:202,1,141.749995674133,2|0,1:2|1:2,0:0:0:0:
365,325,50590,2,0,P|289:337|212:305,1,141.749995674133,10|2,0:2|0:2,0:0:0:0:
206,105,51242,2,0,L|206:189,1,70.8749978370667,0|8,1:2|0:2,0:0:0:0:
299,219,51568,1,0,1:2:0:0:
206,105,51894,1,8,0:2:0:0:
256,192,52546,12,2,54829,0:2:0:0:
68,109,55155,6,0,L|61:17,2,70.8749978370667,8|0|0,0:2|1:2|1:2,0:0:0:0:
166,149,55644,2,0,L|159:241,2,70.8749978370667,8|0|0,0:2|1:2|1:2,0:0:0:0:
224,60,56133,2,0,P|185:43|134:49,2,70.8749978370667,8|0|0,0:2|1:2|1:2,0:0:0:0:
282,148,56622,2,0,P|351:149|420:103,1,141.749995674133,0|0,1:2|1:2,0:0:0:0:
479,195,57112,2,0,L|468:293,1,70.8749978370667,8|0,0:2|0:2,0:0:0:0:
422,359,57438,1,8,0:2:0:0:
422,359,57519,1,0,1:2:0:0:
422,359,57601,1,8,0:2:0:0:
330,305,57764,6,0,P|284:293|238:311,1,77.6250014805794,2|2,1:2|0:2,0:0:0:0:
151,352,58090,2,0,P|114:363|76:357,1,77.6250014805794,10|2,0:2|0:2,0:0:0:0:
23,253,58416,2,0,L|31:152,1,77.6250014805794,2|2,1:2|1:2,0:0:0:0:
141,144,58742,2,0,L|134:66,1,77.6250014805794,10|2,0:2|1:2,0:0:0:0:
24,30,59068,1,2,0:2:0:0:
24,30,59394,2,0,P|66:40|105:34,1,77.6250014805794,10|2,0:2|0:2,0:0:0:0:
212,5,59720,2,0,P|254:-5|293:1,1,77.6250014805794,2|2,1:2|1:2,0:0:0:0:
387,59,60046,1,8,0:2:0:0:
320,154,60209,6,0,P|246:169|171:124,1,155.250002961159,2|0,1:2|1:2,0:0:0:0:
105,41,60699,2,0,L|90:136,1,77.6250014805794,10|0,0:2|0:2,0:0:0:0:
33,217,61025,2,0,L|48:312,1,77.6250014805794,2|2,1:2|1:2,0:0:0:0:
158,322,61351,2,0,P|201:302|243:308,1,77.6250014805794,8|0,1:2|0:2,0:0:0:0:
314,383,61677,5,2,1:2:0:0:
250,285,61840,2,0,L|260:183,1,77.6250014805794,2|10,1:2|0:2,0:0:0:0:
371,182,62166,1,2,0:2:0:0:
371,182,62247,1,8,0:2:0:0:
371,182,62329,2,0,L|375:286,1,77.6250014805794,2|2,1:2|1:2,0:0:0:0:
478,207,62655,2,0,L|474:121,1,77.6250014805794,8|0,0:2|0:2,0:0:0:0:
401,41,62981,6,0,B|311:27|330:73|242:60,1,155.250002961159,2|8,1:2|0:2,0:0:0:0:
150,0,63470,1,2,0:2:0:0:
150,0,63633,2,0,B|171:59|171:59|152:169,1,155.250002961159,2|0,1:2|0:2,0:0:0:0:
52,205,64122,1,10,0:2:0:0:
29,320,64286,2,0,P|103:336|186:315,1,155.250002961159,2|8,0:2|0:2,0:0:0:0:
286,364,64775,1,2,0:2:0:0:
286,364,64938,2,0,L|282:284,1,77.6250014805794,2|0,1:2|1:2,0:0:0:0:
212,192,65264,2,0,L|215:114,1,77.6250014805794,10|0,0:2|0:2,0:0:0:0:
262,7,65590,6,0,P|224:-4|186:2,1,77.6250014805794,10|0,0:2|1:2,0:0:0:0:
215,114,65916,2,0,P|253:119|290:109,1,77.6250014805794,10|0,0:2|1:2,0:0:0:0:
366,21,66242,2,0,P|404:15|441:25,1,77.6250014805794,10|0,0:2|1:2,0:0:0:0:
504,123,66568,1,10,0:2:0:0:
504,123,66731,1,2,1:2:0:0:
397,96,66894,1,10,0:2:0:0:
397,96,67057,2,0,L|388:186,1,77.6250014805794,2|8,1:2|0:2,0:0:0:0:
302,250,67383,1,2,1:2:0:0:
231,157,67546,2,0,L|240:77,1,77.6250014805794,10|2,0:2|0:2,0:0:0:0:
137,24,67872,2,0,L|139:85,3,38.8125007402897,8|8|8|8,0:2|0:2|0:2|0:2,0:0:0:0:
142,121,68199,6,0,L|130:225,1,77.6250014805794,2|0,1:2|0:2,0:0:0:0:
28,249,68525,2,0,L|40:353,1,77.6250014805794,2|0,0:2|0:2,0:0:0:0:
145,285,68851,1,2,1:2:0:0:
145,285,69014,1,2,1:2:0:0:
250,333,69177,1,10,0:2:0:0:
250,333,69340,1,0,1:2:0:0:
332,250,69503,2,0,P|382:251|421:270,1,77.6250014805794,2|2,0:2|1:2,0:0:0:0:
506,322,69829,2,0,L|504:226,1,77.6250014805794,10|2,0:2|0:2,0:0:0:0:
439,147,70155,1,2,1:2:0:0:
439,147,70318,1,2,1:2:0:0:
489,41,70481,1,8,0:2:0:0:
410,126,70644,6,0,B|313:108|337:160|252:137,1,155.250002961159,0|0,1:2|1:2,0:0:0:0:
147,104,71133,2,0,L|159:18,1,77.6250014805794,10|0,0:2|1:2,0:0:0:0:
41,24,71459,1,10,0:2:0:0:
41,140,71622,1,0,1:2:0:0:
125,220,71786,2,0,P|172:220|213:195,1,77.6250014805794,2|0,1:2|1:2,0:0:0:0:
255,105,72112,2,0,P|302:106|337:123,1,77.6250014805794,10|8,0:2|0:2,0:0:0:0:
391,216,72438,1,10,0:2:0:0:
287,269,72601,2,0,L|281:191,1,77.6250014805794,10|8,0:2|0:2,0:0:0:0:
391,216,72927,2,0,L|385:294,1,77.6250014805794,2|8,0:2|0:2,0:0:0:0:
309,381,73253,1,0,1:2:0:0:
217,309,73416,5,10,0:2:0:0:
217,309,73579,2,0,P|156:293|124:298,1,77.6250014805794,2|0,1:2|0:2,0:0:0:0:
62,209,73905,1,10,0:2:0:0:
62,209,74068,2,0,P|100:207|136:194,1,77.6250014805794,2|0,1:2|0:2,0:0:0:0:
207,100,74394,1,10,0:2:0:0:
207,100,74557,2,0,L|218:190,1,77.6250014805794,2|0,1:2|0:2,0:0:0:0:
307,252,74883,1,10,0:2:0:0:
307,252,75046,2,0,L|318:162,1,77.6250014805794,2|0,1:2|0:2,0:0:0:0:
342,61,75372,6,0,P|384:46|431:52,1,77.6250014805794,10|2,0:2|1:2,0:0:0:0:
471,151,75699,2,0,P|432:151|396:137,1,77.6250014805794,2|10,1:2|0:2,0:0:0:0:
398,254,76025,1,2,1:2:0:0:
398,254,76188,1,2,1:2:0:0:
316,174,76351,1,2,1:2:0:0:
316,174,76514,2,0,L|307:252,1,77.6250014805794,10|0,0:2|1:2,0:0:0:0:
226,335,76840,1,0,1:2:0:0:
226,335,77003,2,0,P|177:303|136:304,1,77.6250014805794,10|2,0:2|1:2,0:0:0:0:
49,339,77329,1,10,0:2:0:0:
256,192,77411,12,2,78633,1:2:0:0:
124,143,78959,6,0,L|127:242,1,70.8749978370667,0|0,1:2|0:2,0:0:0:0:
71,303,79286,2,0,P|30:301|0:276,2,70.8749978370667,8|8|0,0:2|0:2|1:2,0:0:0:0:
176,315,79775,2,0,P|227:319|273:299,1,70.8749978370667,0|0,1:2|0:2,0:0:0:0:
327,245,80101,2,0,P|329:203|318:168,1,70.8749978370667,0|0,1:2|0:2,0:0:0:0:
223,221,80427,1,0,1:2:0:0:
223,221,80590,1,8,0:2:0:0:
223,221,81242,6,0,L|229:132,1,70.8749978370667,0|0,1:2|0:2,0:0:0:0:
322,101,81568,2,0,L|328:190,1,70.8749978370667,0|0,1:2|0:2,0:0:0:0:
417,226,81894,2,0,L|423:137,2,70.8749978370667,8|8|0,0:2|0:2|1:2,0:0:0:0:
450,326,82383,2,0,P|406:312|378:314,1,70.8749978370667,0|0,1:2|0:2,0:0:0:0:
280,346,82709,2,0,P|236:360|208:358,1,70.8749978370667,0|0,1:2|0:2,0:0:0:0:
154,268,83036,1,0,1:2:0:0:
240,213,83199,2,0,L|231:301,1,70.8749978370667,8|0,0:2|1:2,0:0:0:0:
135,347,83525,1,8,0:2:0:0:
135,347,83851,6,0,P|84:335|47:349,1,70.8749978370667,0|0,1:2|0:2,0:0:0:0:
8,250,84177,2,0,P|42:253|76:241,1,70.8749978370667,0|0,1:2|0:2,0:0:0:0:
121,145,84503,2,0,P|87:133|52:136,2,70.8749978370667,8|8|0,0:2|0:2|1:2,0:0:0:0:
203,211,84992,2,0,L|195:301,1,70.8749978370667,0|0,1:2|0:2,0:0:0:0:
297,247,85318,2,0,L|289:157,1,70.8749978370667,0|0,1:2|0:2,0:0:0:0:
210,107,85644,1,0,1:2:0:0:
210,107,85807,1,8,0:2:0:0:
210,107,86459,6,0,P|260:87|292:90,1,70.8749978370667,0|0,1:2|0:2,0:0:0:0:
371,134,86786,2,0,P|421:154|453:151,1,70.8749978370667,0|0,1:2|0:2,0:0:0:0:
347,210,87112,2,0,P|311:213|280:229,2,70.8749978370667,8|8|0,0:2|0:2|1:2,0:0:0:0:
437,153,87601,2,0,L|441:251,1,70.8749978370667,0|0,1:2|0:2,0:0:0:0:
477,323,87927,2,0,P|426:310|394:313,1,70.8749978370667,0|0,1:2|0:2,0:0:0:0:
304,335,88253,1,0,1:2:0:0:
280,229,88416,2,0,L|286:154,1,70.8749978370667,8|0,0:2|0:0,0:0:0:0:
364,86,88742,1,0,1:2:0:0:
364,86,89068,6,0,L|273:70,1,70.8749978370667,2|0,1:2|0:2,0:0:0:0:
198,26,89394,2,0,L|107:42,1,70.8749978370667,2|0,1:2|0:2,0:0:0:0:
48,108,89720,2,0,P|36:155|37:194,1,70.8749978370667,10|8,0:2|0:2,0:0:0:0:
115,247,90046,2,0,P|127:294|126:333,1,70.8749978370667,2|0,1:2|1:2,0:0:0:0:
233,316,90372,2,0,P|235:280|245:246,1,70.8749978370667,2|8,0:2|0:2,0:0:0:0:
328,179,90699,2,0,P|325:143|315:109,1,70.8749978370667,2|8,0:2|0:2,0:0:0:0:
239,35,91025,1,10,0:2:0:0:
239,35,91677,6,0,L|319:27,1,70.8749978370667,2|0,1:2|0:2,0:0:0:0:
373,112,92003,2,0,L|453:120,1,70.8749978370667,2|0,1:2|0:2,0:0:0:0:
470,221,92329,1,10,0:2:0:0:
470,221,92492,2,0,L|390:229,1,70.8749978370667,2|0,1:2|1:2,0:0:0:0:
293,237,92818,2,0,L|297:160,1,70.8749978370667,2|0,1:2|0:2,0:0:0:0:
236,78,93144,2,0,P|192:67|153:75,1,70.8749978370667,0|0,1:2|0:2,0:0:0:0:
70,114,93470,2,0,P|59:158|67:197,1,70.8749978370667,0|8,1:2|0:2,0:0:0:0:
109,277,93796,5,2,0:2:0:0:
109,277,93959,1,10,0:2:0:0:
182,199,94122,2,0,L|263:190,1,70.8749978370667,2|0,0:2|1:2,0:0:0:0:
318,275,94449,1,2,0:2:0:0:
318,275,94612,1,10,0:2:0:0:
252,191,94775,2,0,P|253:143|260:110,1,70.8749978370667,0|8,1:2|0:2,0:0:0:0:
344,59,95101,2,0,P|349:93|349:129,1,70.8749978370667,10|2,0:2|1:2,0:0:0:0:
324,232,95427,2,0,P|366:237|419:217,1,70.8749978370667,2|0,1:2|0:2,0:0:0:0:
418,130,95753,2,0,P|383:123|348:128,1,70.8749978370667,2|0,1:2|0:2,0:0:0:0:
252,191,96079,1,2,1:2:0:0:
252,191,96242,1,8,0:2:0:0:
252,191,96894,6,0,L|256:96,1,70.8749978370667,2|0,1:2|0:2,0:0:0:0:
152,92,97220,2,0,L|148:-3,1,70.8749978370667,10|2,0:2|0:2,0:0:0:0:
254,9,97546,2,0,B|309:8|309:8|347:27|347:27|396:25,1,141.749995674133,10|2,0:2|0:2,0:0:0:0:
418,130,98036,1,10,0:2:0:0:
35,353,99503,6,0,L|123:332,1,70.8749978370667,2|2,1:2|0:2,0:0:0:0:
192,278,99829,2,0,L|260:294,1,70.8749978370667,0|2,1:2|0:2,0:0:0:0:
344,360,100155,1,2,1:2:0:0:
344,360,100318,1,10,0:2:0:0:
399,269,100481,2,0,P|395:213|379:182,1,70.8749978370667,2|0,0:2|1:2,0:0:0:0:
296,148,100807,6,0,P|349:163|429:125,1,141.749995674133,2|8,0:2|0:2,0:0:0:0:
447,25,101296,1,0,0:2:0:0:
447,25,101378,1,8,0:2:0:0:
447,25,101459,1,0,1:2:0:0:
350,69,101622,1,0,1:2:0:0:
256,17,101786,2,0,L|162:26,1,70.8749978370667,10|0,0:2|0:2,0:0:0:0:
90,70,102112,6,0,P|69:126|66:227,1,141.749995674133,2|10,1:2|0:2,0:0:0:0:
94,308,102601,2,0,P|136:288|165:287,1,70.8749978370667,2|0,0:2|1:2,0:0:0:0:
223,201,102927,2,0,P|181:181|152:180,1,70.8749978370667,2|0,1:2|0:2,0:0:0:0:
181,282,103253,2,0,B|270:271|239:332|338:310,1,141.749995674133,2|0,1:2|1:2,0:0:0:0:
384,234,103742,1,10,0:2:0:0:
449,317,103905,1,0,0:2:0:0:
449,317,103987,1,0,0:2:0:0:
449,317,104068,1,2,1:2:0:0:
384,234,104231,1,0,1:2:0:0:
455,155,104394,2,0,L|461:79,1,70.8749978370667,10|0,0:2|0:2,0:0:0:0:
373,23,104720,6,0,P|322:20|281:44,1,70.8749978370667,2|2,1:2|0:2,0:0:0:0:
237,109,105046,1,8,0:2:0:0:
343,106,105209,1,2,0:2:0:0:
343,106,105536,2,0,L|336:192,1,70.8749978370667,2|2,1:2|0:2,0:0:0:0:
314,280,105862,2,0,P|241:302|166:263,1,141.749995674133,2|2,1:2|1:2,0:0:0:0:
102,209,106351,1,10,0:2:0:0:
169,124,106514,1,2,0:2:0:0:
169,124,106595,1,8,0:2:0:0:
169,124,106677,2,0,P|217:107|254:114,1,70.8749978370667,0|0,1:2|1:2,0:0:0:0:
320,173,107003,2,0,P|352:187|387:188,1,70.8749978370667,10|2,0:2|0:2,0:0:0:0:
479,135,107329,5,2,1:2:0:0:
432,117,109938,6,0,L|440:34,2,70.8749978370667,8|0|0,0:2|1:2|1:2,0:0:0:0:
342,174,110427,2,0,L|350:257,2,70.8749978370667,8|0|0,0:2|1:2|1:2,0:0:0:0:
261,104,110916,2,0,L|269:21,2,70.8749978370667,8|0|0,0:2|1:2|1:2,0:0:0:0:
171,161,111405,2,0,L|179:244,2,70.8749978370667,8|0|0,0:2|1:2|1:2,0:0:0:0:
108,75,111894,1,8,0:2:0:0:
108,75,112057,1,0,0:2:0:0:
42,309,112546,6,0,P|83:295|146:292,1,77.6250014805794,2|0,1:2|0:2,0:0:0:0:
218,347,112872,2,0,P|259:361|322:364,1,77.6250014805794,10|0,0:2|0:2,0:0:0:0:
408,347,113199,2,0,L|401:258,1,77.6250014805794,2|0,1:2|1:2,0:0:0:0:
313,193,113525,2,0,L|320:104,1,77.6250014805794,10|0,0:2|1:2,0:0:0:0:
420,79,113851,1,2,0:2:0:0:
420,79,114177,2,0,P|371:88|340:81,1,77.6250014805794,10|2,0:2|0:2,0:0:0:0:
243,24,114503,2,0,P|194:15|163:22,1,77.6250014805794,2|2,1:2|1:2,0:0:0:0:
91,108,114829,1,8,0:2:0:0:
150,207,114992,6,0,B|248:193|223:249|319:223,1,155.250002961159,2|2,1:2|1:2,0:0:0:0:
393,157,115481,2,0,L|405:242,1,77.6250014805794,10|0,0:2|0:2,0:0:0:0:
501,296,115807,2,0,L|511:219,1,77.6250014805794,2|0,1:2|1:2,0:0:0:0:
497,103,116133,2,0,P|450:83|421:86,1,77.6250014805794,10|2,0:2|0:2,0:0:0:0:
359,182,116459,1,2,1:2:0:0:
298,82,116622,2,0,L|307:2,1,77.6250014805794,2|8,1:2|0:2,0:0:0:0:
399,76,116949,1,2,0:2:0:0:
399,76,117030,1,0,0:0:0:0:
399,76,117112,1,2,1:2:0:0:
334,173,117275,2,0,P|295:175|256:173,1,77.6250014805794,2|8,1:2|0:2,0:0:0:0:
158,236,117601,5,8,0:2:0:0:
158,236,117682,1,8,0:2:0:0:
158,236,117764,2,0,P|138:168|146:83,1,155.250002961159,2|8,1:2|0:2,0:0:0:0:
237,13,118253,1,2,0:2:0:0:
294,114,118416,1,2,1:2:0:0:
294,114,118579,2,0,L|387:99,1,77.6250014805794,0|0,1:2|0:2,0:0:0:0:
389,216,118905,5,10,0:2:0:0:
389,216,119068,2,0,P|322:238|233:207,1,155.250002961159,2|8,0:2|0:2,0:0:0:0:
159,126,119557,1,2,0:2:0:0:
108,231,119720,2,0,P|61:219|24:222,1,77.6250014805794,2|0,1:2|1:2,0:0:0:0:
71,110,120046,2,0,P|109:110|146:99,1,77.6250014805794,10|0,0:2|0:2,0:0:0:0:
262,89,120372,6,0,L|268:-2,1,77.6250014805794,10|2,0:2|1:2,0:0:0:0:
357,86,120699,2,0,L|362:163,1,77.6250014805794,10|2,0:2|1:2,0:0:0:0:
396,274,121025,2,0,P|351:259|310:263,1,77.6250014805794,10|2,0:2|1:2,0:0:0:0:
222,322,121351,2,0,P|177:337|136:333,1,77.6250014805794,10|2,0:2|1:2,0:0:0:0:
59,263,121677,1,10,0:2:0:0:
59,263,121840,2,0,L|69:161,1,77.6250014805794,2|8,1:2|0:2,0:0:0:0:
119,81,122166,1,2,1:2:0:0:
119,81,122329,2,0,P|181:66|206:69,1,77.6250014805794,10|2,0:2|0:2,0:0:0:0:
306,98,122655,2,0,L|316:35,3,38.8125007402897,8|8|8|8,0:2|0:2|0:2|0:2,0:0:0:0:
289,113,122981,6,0,L|276:221,1,77.6250014805794,2|2,1:2|0:2,0:0:0:0:
395,204,123307,2,0,L|408:312,1,77.6250014805794,10|2,0:2|0:2,0:0:0:0:
290,305,123633,2,0,P|243:287|208:287,1,77.6250014805794,2|0,1:2|1:2,0:0:0:0:
110,335,123959,2,0,P|63:353|28:353,1,77.6250014805794,10|2,0:2|1:2,0:0:0:0:
35,236,124286,1,0,0:2:0:0:
35,236,124449,1,2,1:2:0:0:
127,165,124612,2,0,L|136:247,1,77.6250014805794,10|2,0:2|0:2,0:0:0:0:
251,238,124938,1,2,1:2:0:0:
251,238,125101,2,0,L|259:160,1,77.6250014805794,2|8,1:2|0:2,0:0:0:0:
169,86,125427,6,0,B|232:87|232:87|265:107|265:107|335:107,1,155.250002961159,2|0,1:2|0:2,0:0:0:0:
422,55,125916,2,0,L|432:147,1,77.6250014805794,10|2,0:2|1:2,0:0:0:0:
345,211,126242,1,10,0:2:0:0:
345,211,126405,1,2,1:2:0:0:
247,274,126568,1,10,0:2:0:0:
247,274,126731,1,2,1:2:0:0:
132,294,126894,2,0,L|45:280,1,77.6250014805794,10|2,0:2|1:2,0:0:0:0:
26,168,127220,2,0,L|113:154,1,77.6250014805794,10|10,0:2|0:2,0:0:0:0:
203,96,127546,1,2,1:2:0:0:
203,96,127709,2,0,L|211:177,2,77.6250014805794,2|8|0,0:2|0:2|1:2,0:0:0:0:
288,15,128199,5,10,0:2:0:0:
288,15,128362,2,0,P|330:12|369:15,1,77.6250014805794,6|0,1:2|0:2,0:0:0:0:
409,122,128688,1,10,0:2:0:0:
410,122,128851,2,0,P|371:124|332:121,1,77.6250014805794,2|0,1:2|0:2,0:0:0:0:
218,96,129177,1,10,0:2:0:0:
218,96,129340,2,0,L|208:195,1,77.6250014805794,2|0,1:2|0:2,0:0:0:0:
228,288,129666,1,10,0:2:0:0:
228,288,129829,2,0,P|272:269|308:267,1,77.6250014805794,10|0,0:2|1:2,0:0:0:0:
414,293,130155,6,0,L|405:372,2,77.6250014805794,10|2|2,0:2|1:2|1:2,0:0:0:0:
354,192,130644,2,0,L|345:114,1,77.6250014805794,10|8,0:2|0:2,0:0:0:0:
383,4,130970,2,0,P|329:-3|297:3,1,77.6250014805794,2|0,1:2|1:2,0:0:0:0:
224,102,131296,2,0,P|185:109|147:106,2,77.6250014805794,10|0|0,0:2|1:2|1:2,0:0:0:0:
345,114,131786,2,0,L|350:217,1,77.6250014805794,10|2,0:2|1:2,0:0:0:0:
254,260,132112,1,10,0:2:0:0:
256,192,132193,12,2,133416,1:2:0:0:
480,47,133742,6,0,B|391:36|426:88|326:82,1,141.749995674133,8|0,0:2|1:2,0:0:0:0:
266,12,134231,2,0,P|228:8|193:14,1,70.8749978370667,0|8,1:2|0:2,0:0:0:0:
114,81,134557,2,0,P|110:139|118:246,1,141.749995674133,0|0,1:2|1:2,0:0:0:0:
175,309,135046,1,8,0:2:0:0:
245,229,135209,1,0,0:2:0:0:
245,229,135291,1,0,1:2:0:0:
245,229,135372,1,0,1:2:0:0:
330,293,135536,2,0,L|412:284,1,70.8749978370667,0|8,1:2|0:2,0:0:0:0:
482,353,135862,6,0,L|488:197,1,141.749995674133,2|2,1:2|1:2,0:0:0:0:
431,120,136351,2,0,L|352:129,2,70.8749978370667,10|2|2,0:2|0:2|1:2,0:0:0:0:
490,31,136840,1,2,1:2:0:0:
385,14,137003,1,10,0:2:0:0:
290,62,137166,2,0,P|270:93|264:141,1,70.8749978370667,2|0,1:2|0:0,0:0:0:0:
199,210,137492,2,0,P|191:175|172:146,1,70.8749978370667,2|8,1:2|0:2,0:0:0:0:
105,63,137818,1,2,0:2:0:0:
105,63,137900,1,8,0:2:0:0:
105,63,137981,2,0,L|191:44,1,70.8749978370667,0|2,1:2|1:2,0:0:0:0:
149,151,138307,1,10,0:2:0:0:
44,133,138470,5,8,0:2:0:0:
44,133,138552,1,8,0:2:0:0:
44,133,138633,2,0,L|28:285,1,141.749995674133,2|8,1:2|0:2,0:0:0:0:
29,273,139286,2,0,L|102:259,1,70.8749978370667,2|0,1:2|1:2,0:0:0:0:
198,223,139612,2,0,L|271:237,1,70.8749978370667,2|8,0:2|0:2,0:0:0:0:
317,330,139938,2,0,P|316:268|341:180,1,141.749995674133,2|10,0:2|0:2,0:0:0:0:
335,191,140590,2,0,P|336:147|323:114,1,70.8749978370667,2|0,1:2|1:2,0:0:0:0:
254,44,140916,1,10,0:2:0:0:
359,31,141079,5,2,0:2:0:0:
359,31,141161,1,0,0:2:0:0:
359,31,141242,2,0,B|407:31|407:31|456:59|456:59|519:59,1,141.749995674133,2|8,1:2|0:2,0:0:0:0:
463,170,141731,1,2,1:2:0:0:
463,170,141894,2,0,P|398:156|329:198,1,141.749995674133,2|10,1:2|0:2,0:0:0:0:
418,255,142383,5,2,1:2:0:0:
418,255,142546,2,0,L|507:265,1,70.8749978370667,0|2,1:2|0:2,0:0:0:0:
413,338,142872,2,0,L|324:348,1,70.8749978370667,8|2,0:2|0:2,0:0:0:0:
276,261,143199,2,0,L|187:251,1,70.8749978370667,8|10,0:2|0:2,0:0:0:0:
124,321,143525,1,0,1:2:0:0:
124,321,143851,6,0,L|117:241,1,64.1249982876778,2|0,1:2|0:0,0:0:0:0:
44,195,144177,2,0,L|51:115,1,64.1249982876778,2|0,1:2|0:0,0:0:0:0:
110,57,144503,2,0,P|150:43|183:41,1,64.1249982876778,10|0,0:2|0:2,0:0:0:0:
243,104,144829,2,0,P|283:118|316:120,1,64.1249982876778,10|0,0:2|1:2,0:0:0:0:
378,58,145155,2,0,L|393:196,1,128.249996575356,2|2,0:2|0:2,0:0:0:0:
411,279,145644,1,0,1:2:0:0:
411,279,145807,2,0,P|365:261|335:260,1,64.1249982876778,10|0,0:2|1:2,0:0:0:0:
268,310,146133,1,2,0:2:0:0:
268,310,146459,6,0,B|191:299|213:347|120:330,1,128.249996575356,2|0,1:2|0:2,0:0:0:0:
76,265,146949,2,0,L|80:197,1,64.1249982876778,2|8,1:2|0:2,0:0:0:0:
163,154,147275,2,0,L|159:86,1,64.1249982876778,2|8,0:2|0:2,0:0:0:0:
85,27,147601,2,0,P|123:10|153:7,1,64.1249982876778,2|0,0:2|1:2,0:0:0:0:
233,43,147927,1,8,0:2:0:0:
233,43,148090,2,0,P|271:60|301:63,1,64.1249982876778,0|0,1:2|0:2,0:0:0:0:
389,67,148416,2,0,L|380:0,2,64.1249982876778,2|2|2,1:2|0:2|1:2,0:0:0:0:
339,149,148905,1,2,0:2:0:0:
339,149,149068,6,0,L|330:216,1,64.1249982876778,2|0,1:2|0:2,0:0:0:0:
299,303,149394,2,0,P|248:304|218:297,1,64.1249982876778,2|0,1:2|0:2,0:0:0:0:
170,231,149720,1,10,0:2:0:0:
170,231,149883,2,0,P|138:228|106:232,1,64.1249982876778,2|8,0:2|0:2,0:0:0:0:
10,244,150209,2,0,L|12:155,1,64.1249982876778,2|2,1:2|0:2,0:0:0:0:
104,152,150536,2,0,L|102:63,1,64.1249982876778,8|0,0:2|0:2,0:0:0:0:
38,15,150862,1,0,1:2:0:0:
38,15,151025,2,0,B|114:2,1,64.1249982876778,8|0,0:2|1:2,0:0:0:0:
181,56,151351,1,2,0:2:0:0:
181,56,151677,6,0,P|226:22|308:32,1,128.249996575356,2|2,1:2|0:2,0:0:0:0:
339,110,152166,1,0,1:2:0:0:
260,165,152329,2,0,L|256:93,1,64.1249982876778,10|0,0:2|0:2,0:0:0:0:
350,118,152655,1,10,0:2:0:0:
350,118,152818,2,0,L|346:182,1,64.1249982876778,2|0,0:2|1:2,0:0:0:0:
326,276,153144,2,0,P|291:268|256:274,1,64.1249982876778,8|0,0:2|1:2,0:0:0:0:
193,337,153470,1,8,0:2:0:0:
193,337,153552,1,0,0:0:0:0:
193,337,153633,2,0,P|158:345|123:339,1,64.1249982876778,8|8,0:2|0:2,0:0:0:0:
38,311,153959,2,0,L|46:232,1,64.1249982876778,8|8,0:2|0:2,0:0:0:0:
73,154,154286,6,0,L|159:170,1,64.1249982876778,2|2,1:2|0:2,0:0:0:0:
225,201,154612,2,0,L|288:189,1,64.1249982876778,2|2,1:2|0:2,0:0:0:0:
383,176,154938,2,0,P|385:218|376:267,1,64.1249982876778,10|2,0:2|0:2,0:0:0:0:
288,253,155264,2,0,P|285:221|287:189,1,64.1249982876778,10|2,0:2|1:2,0:0:0:0:
328,102,155590,2,0,P|378:85|404:87,1,64.1249982876778,2|8,0:2|0:2,0:0:0:0:
319,18,155916,1,2,0:2:0:0:
319,18,156079,2,0,P|287:14|258:0,1,64.1249982876778,2|8,1:2|0:2,0:0:0:0:
162,9,156405,2,0,B|138:51|138:51|145:150,1,128.249996575356,2|2,1:2|0:2,0:0:0:0:
205,203,156894,6,0,L|199:281,1,64.1249982876778,2|2,1:2|0:2,0:0:0:0:
104,272,157220,2,0,L|110:358,1,64.1249982876778,2|2,0:2|1:2,0:0:0:0:
202,358,157546,2,0,P|252:341|272:323,1,64.1249982876778,10|2,0:2|0:2,0:0:0:0:
328,266,157872,2,0,P|378:283|398:301,1,64.1249982876778,10|2,0:2|0:2,0:0:0:0:
466,343,158199,2,0,L|474:213,1,128.249996575356,2|2,1:2|1:2,0:0:0:0:
495,121,158688,2,0,L|486:49,1,64.1249982876778,2|8,0:2|0:2,0:0:0:0:
393,35,159014,2,0,L|381:118,1,64.1249982876778,2|8,0:2|0:2,0:0:0:0:
318,168,159340,1,0,0:2:0:0:
261,79,159503,6,0,B|190:74|203:110|112:98,1,128.249996575356,2|0,1:2|1:2,0:0:0:0:
135,100,160155,2,0,B|114:134|114:134|121:233,1,128.249996575356,8|8,0:2|0:2,0:0:0:0:
120,221,160807,2,0,P|181:208|238:237,1,128.249996575356,0|0,0:2|0:2,0:0:0:0:
237,236,161459,2,0,P|298:248|354:220,1,128.249996575356,0|0,1:2|0:2,0:0:0:0:
354,219,162112,6,0,L|361:146,2,70.8749978370667,10|0|0,0:2|1:2|1:2,0:0:0:0:
411,308,162601,2,0,P|454:282|483:280,2,70.8749978370667,8|0|0,0:2|1:2|1:2,0:0:0:0:
304,305,163090,2,0,P|261:279|232:277,2,70.8749978370667,10|2|0,0:2|0:2|1:2,0:0:0:0:
354,219,163579,2,0,L|361:146,1,70.8749978370667,8|0,0:2|0:2,0:0:0:0:
454,96,163905,1,0,1:2:0:0:
368,33,164068,2,0,P|327:22|291:23,1,70.8749978370667,8|0,0:2|0:2,0:0:0:0:
238,109,164394,2,0,P|197:120|161:119,1,70.8749978370667,8|0,0:2|0:2,0:0:0:0:
77,66,164720,6,0,L|67:167,1,70.8749978370667,8|0,0:2|0:2,0:0:0:0:
57,188,164965,2,0,L|65:288,1,70.8749978370667,8|0,0:2|0:0,0:0:0:0:
83,307,165209,1,8,0:2:0:0:
173,251,165372,2,0,L|177:188,2,35.4374989185334,8|0|0,0:2|1:2|1:2,0:0:0:0:
262,191,165699,6,0,P|303:197|343:215,1,70.8749978370667,8|0,0:2|0:2,0:0:0:0:
372,239,165943,2,0,P|413:233|453:215,1,70.8749978370667,8|0,0:2|0:0,0:0:0:0:
477,183,166188,1,8,0:2:0:0:
404,105,166351,2,0,P|406:75|401:51,2,35.4374989185334,8|8|8,0:2|0:2|1:2,0:0:0:0:
316,43,166678,6,0,P|275:49|235:67,1,70.8749978370667,8|0,0:2|0:0,0:0:0:0:
168,120,167003,2,0,L|161:171,3,35.4374989185334,8|8|8|8,0:2|1:2|1:2|1:2,0:0:0:0:
155,208,167329,1,2,1:2:0:0:
104,213,169286,5,10,0:2:0:0:
104,213,169449,1,10,0:2:0:0:
19,86,169775,6,0,P|69:56|175:76,1,155.250002961159,2|0,1:2|0:2,0:0:0:0:
225,165,170264,2,0,L|217:248,1,77.6250014805794,10|0,0:2|0:2,0:0:0:0:
104,213,170590,2,0,L|96:135,1,77.6250014805794,2|2,1:2|1:2,0:0:0:0:
201,84,170916,2,0,P|254:84|288:110,1,77.6250014805794,10|0,0:2|1:2,0:0:0:0:
332,196,171242,2,0,P|385:196|419:170,1,77.6250014805794,2|2,0:2|1:2,0:0:0:0:
472,89,171568,1,10,0:2:0:0:
472,89,171731,2,0,P|436:73|398:77,1,77.6250014805794,2|0,0:2|1:2,0:0:0:0:
405,184,172057,1,2,1:2:0:0:
405,184,172220,2,0,L|410:274,1,77.6250014805794,8|0,0:2|0:2,0:0:0:0:
478,355,172546,6,0,P|430:319|316:338,1,155.250002961159,2|8,1:2|0:2,0:0:0:0:
236,380,173036,1,2,0:2:0:0:
142,311,173199,2,0,P|206:264|295:275,1,155.250002961159,2|0,1:2|0:2,0:0:0:0:
394,275,173688,1,10,0:2:0:0:
394,275,173851,2,0,L|401:184,1,77.6250014805794,2|0,0:2|1:2,0:0:0:0:
456,96,174177,1,8,0:2:0:0:
357,34,174340,1,0,0:2:0:0:
357,34,174421,1,8,0:2:0:0:
357,34,174503,2,0,L|264:40,1,77.6250014805794,2|0,1:2|1:2,0:0:0:0:
199,123,174829,2,0,L|106:117,1,77.6250014805794,10|0,0:2|0:2,0:0:0:0:
28,47,175155,6,0,P|8:92|2:140,1,77.6250014805794,10|0,0:2|1:2,0:0:0:0:
110,163,175481,2,0,P|130:208|136:256,1,77.6250014805794,10|0,0:2|1:2,0:0:0:0:
163,349,175807,2,0,P|210:337|250:345,1,77.6250014805794,10|0,0:2|1:2,0:0:0:0:
352,365,176133,2,0,P|399:377|439:369,1,77.6250014805794,10|2,0:2|1:2,0:0:0:0:
475,267,176459,1,10,0:2:0:0:
475,267,176622,2,0,L|465:171,1,77.6250014805794,2|8,1:2|0:2,0:0:0:0:
417,83,176949,1,2,0:2:0:0:
309,37,177112,2,0,L|299:86,3,38.8125007402897,10|0|2|0,0:2|0:2|0:2|0:2,0:0:0:0:
268,123,177438,2,0,L|273:179,3,38.8125007402897,8|0|8|8,0:2|0:2|0:2|0:2,0:0:0:0:
283,218,177764,6,0,P|232:206|176:209,1,77.6250014805794,2|0,1:2|0:2,0:0:0:0:
129,292,178090,2,0,P|91:302|52:304,1,77.6250014805794,10|0,0:2|0:2,0:0:0:0:
13,195,178416,2,0,L|21:106,1,77.6250014805794,2|2,1:2|1:2,0:0:0:0:
111,45,178742,2,0,L|119:134,1,77.6250014805794,8|2,0:2|1:2,0:0:0:0:
202,202,179068,2,0,P|239:175|287:177,1,77.6250014805794,2|2,0:2|1:2,0:0:0:0:
361,244,179394,1,10,0:2:0:0:
389,131,179557,1,2,0:2:0:0:
389,131,179639,1,0,1:2:0:0:
389,131,179720,2,0,L|393:45,1,77.6250014805794,2|2,1:2|1:2,0:0:0:0:
278,78,180046,1,8,0:2:0:0:
174,24,180209,6,0,B|82:10|106:72|18:50,1,155.250002961159,2|0,1:2|1:2,0:0:0:0:
121,120,180699,2,0,P|138:161|139:216,1,77.6250014805794,10|0,0:2|1:2,0:0:0:0:
92,299,181025,2,0,L|181:294,1,77.6250014805794,10|2,0:2|1:2,0:0:0:0:
251,212,181351,2,0,L|340:217,1,77.6250014805794,10|0,0:2|0:2,0:0:0:0:
423,149,181677,2,0,L|416:187,3,38.8125007402897,10|0|0|0,0:2|1:2|1:2|1:2,0:0:0:0:
430,244,182003,1,10,0:2:0:0:
314,255,182166,2,0,L|275:260,3,38.8125007402897,10|0|0|0,0:2|1:2|1:2|1:2,0:0:0:0:
217,267,182492,2,0,L|208:344,2,77.6250014805794,10|8|8,0:2|0:2|0:2,0:0:0:0:
235,152,182981,5,10,0:2:0:0:
235,152,183144,2,0,L|226:74,1,77.6250014805794,6|0,1:2|0:2,0:0:0:0:
128,11,183470,1,10,0:2:0:0:
128,11,183633,2,0,P|74:12|38:32,1,77.6250014805794,2|0,1:2|0:2,0:0:0:0:
2,126,183959,1,10,0:2:0:0:
2,126,184122,2,0,P|38:138|76:136,1,77.6250014805794,6|0,1:2|0:2,0:0:0:0:
141,234,184449,1,10,0:2:0:0:
141,234,184612,2,0,P|177:221|215:223,1,77.6250014805794,10|0,0:2|1:2,0:0:0:0:
319,277,184938,6,0,L|308:373,2,77.6250014805794,10|2|2,0:2|1:2|1:2,0:0:0:0:
338,162,185427,1,10,0:2:0:0:
355,46,185590,1,10,0:2:0:0:
355,46,185671,1,0,0:2:0:0:
355,46,185753,2,0,P|305:37|249:35,1,77.6250014805794,2|0,0:2|1:2,0:0:0:0:
177,92,186079,2,0,L|162:203,2,77.6250014805794,10|0|0,0:2|1:2|1:2,0:0:0:0:
73,38,186568,2,0,L|84:146,1,77.6250014805794,10|2,0:2|1:2,0:0:0:0:
159,201,186894,1,10,0:2:0:0:
256,192,186976,12,12,188199,0:2:0:0:
38,352,188525,6,0,P|90:327|124:329,1,70.8749978370667,8|0,0:2|0:2,0:0:0:0:
203,357,188851,1,0,1:2:0:0:
203,357,189014,1,0,1:2:0:0:
173,254,189177,2,0,P|121:229|87:231,1,70.8749978370667,10|0,0:2|1:2,0:0:0:0:
2,232,189503,2,0,L|10:143,1,70.8749978370667,2|0,0:2|1:2,0:0:0:0:
68,74,189829,1,10,0:2:0:0:
145,146,189992,1,0,0:2:0:0:
145,146,190074,1,8,0:2:0:0:
145,146,190155,2,0,P|200:145|229:134,1,70.8749978370667,2|0,1:2|1:2,0:0:0:0:
281,57,190481,6,0,P|336:58|365:69,1,70.8749978370667,10|2,0:2|0:2,0:0:0:0:
427,136,190807,1,2,1:2:0:0:
427,136,190970,1,2,0:2:0:0:
337,193,191133,2,0,L|334:288,1,70.8749978370667,10|0,0:2|0:2,0:0:0:0:
288,359,191459,2,0,P|241:342|206:344,1,70.8749978370667,2|0,1:2|1:2,0:0:0:0:
182,241,191786,6,0,P|184:168|208:97,1,141.749995674133,10|0,0:2|0:0,0:0:0:0:
162,3,192275,1,0,1:2:0:0:
162,3,192438,1,8,0:2:0:0:
79,70,192601,1,2,0:2:0:0:
79,70,192682,1,8,0:2:0:0:
79,70,192764,2,0,L|66:160,1,70.8749978370667,2|2,1:2|1:2,0:0:0:0:
143,215,193090,1,10,0:2:0:0:
103,313,193253,5,8,0:2:0:0:
103,313,193334,1,8,0:2:0:0:
103,313,193416,2,0,P|45:303|8:310,1,70.8749978370667,2|0,1:2|0:2,0:0:0:0:
2,204,193742,1,10,0:2:0:0:
105,178,193905,2,0,L|110:104,1,70.8749978370667,2|0,0:2|1:2,0:0:0:0:
209,69,194231,2,0,P|244:72|275:88,1,70.8749978370667,0|8,1:2|0:2,0:0:0:0:
306,205,194557,1,2,1:2:0:0:
306,205,194720,2,0,L|299:296,1,70.8749978370667,2|0,0:2|1:2,0:0:0:0:
406,269,195046,1,10,0:2:0:0:
406,269,195209,2,0,L|400:198,1,70.8749978370667,2|0,0:2|1:2,0:0:0:0:
388,92,195536,2,0,P|344:74|310:74,1,70.8749978370667,2|8,1:2|0:2,0:0:0:0:
227,121,195862,1,2,0:2:0:0:
227,121,196025,6,0,L|230:210,2,70.8749978370667,8|0|0,0:2|1:2|1:2,0:0:0:0:
133,70,196514,2,0,L|135:0,2,70.8749978370667,8|0|0,0:2|1:2|1:2,0:0:0:0:
54,142,197003,2,0,L|57:231,1,70.8749978370667,8|2,0:2|1:2,0:0:0:0:
135,283,197329,1,10,0:2:0:0:
467,60,198633,6,0,L|365:45,1,70.8749978370667,0|0,1:2|0:0,0:0:0:0:
295,18,198959,2,0,L|193:33,1,70.8749978370667,0|0,1:2|0:2,0:0:0:0:
126,70,199286,2,0,L|134:-4,2,70.8749978370667,8|8|0,0:2|0:2|1:2,0:0:0:0:
211,133,199775,2,0,L|219:207,1,70.8749978370667,0|0,1:2|0:2,0:0:0:0:
262,300,200101,2,0,P|304:283|345:282,1,70.8749978370667,0|0,1:2|0:2,0:0:0:0:
417,340,200427,1,0,1:2:0:0:
417,340,200590,1,8,0:2:0:0:
417,340,201242,6,0,L|422:252,1,70.8749978370667,0|0,1:2|0:2,0:0:0:0:
478,179,201568,2,0,L|473:91,1,70.8749978370667,0|0,1:2|0:2,0:0:0:0:
367,105,201894,2,0,L|362:175,2,70.8749978370667,8|8|0,0:2|0:2|1:2,0:0:0:0:
316,11,202383,2,0,P|254:2|224:7,1,70.8749978370667,0|0,1:2|0:2,0:0:0:0:
202,99,202709,2,0,P|140:108|110:103,1,70.8749978370667,0|0,1:2|0:2,0:0:0:0:
53,34,203036,1,0,1:2:0:0:
17,134,203199,2,0,P|5:185|3:215,1,70.8749978370667,8|0,0:2|1:2,0:0:0:0:
36,304,203525,1,8,0:2:0:0:
36,304,203851,6,0,L|132:280,1,70.8749978370667,0|0,1:2|0:2,0:0:0:0:
192,226,204177,2,0,L|288:250,1,70.8749978370667,0|0,1:2|0:2,0:0:0:0:
289,345,204503,2,0,L|193:369,2,70.8749978370667,8|8|0,0:2|0:2|1:2,0:0:0:0:
373,280,204992,2,0,P|381:228|374:188,1,70.8749978370667,0|0,1:2|0:2,0:0:0:0:
289,152,205318,2,0,P|281:100|288:60,1,70.8749978370667,0|0,1:2|0:2,0:0:0:0:
359,8,205644,1,0,1:2:0:0:
359,8,205807,1,8,0:2:0:0:
359,8,206459,6,0,P|312:-5|265:0,1,70.8749978370667,0|0,1:2|0:2,0:0:0:0:
210,66,206786,2,0,P|163:79|116:74,1,70.8749978370667,0|0,1:2|0:2,0:0:0:0:
35,70,207112,2,0,L|41:-11,2,70.8749978370667,8|8|0,0:2|0:2|1:2,0:0:0:0:
48,175,207601,6,0,P|95:162|142:167,1,70.8749978370667,0|0,1:2|0:2,0:0:0:0:
197,233,207928,2,0,P|244:246|291:241,1,70.8749978370667,0|0,1:2|0:2,0:0:0:0:
342,173,208253,1,0,1:2:0:0:
249,121,208416,2,0,L|252:23,1,70.8749978370667,8|0,0:2|1:2,0:0:0:0:
353,68,208742,1,8,0:2:0:0:
342,173,208905,5,4,1:2:0:0:
256,192,208987,12,0,216568,0:2:0:0:
