osu file format v14

[General]
AudioFilename: audio.mp3
AudioLeadIn: 0
PreviewTime: 52647
Countdown: 0
SampleSet: Soft
StackLeniency: 0.7
Mode: 0
LetterboxInBreaks: 0
WidescreenStoryboard: 1

[Editor]
DistanceSpacing: 0.8
BeatDivisor: 4
GridSize: 32
TimelineZoom: 2.3

[Metadata]
Title:Kimi no Sei (TV Size)
TitleUnicode:君のせい (TV Size)
Artist:the peggies
ArtistUnicode:the peggies
Creator:Sotarks
Version:Reform's Expert
Source:青春ブタ野郎はバニーガール先輩の夢を見ない
Tags:Seishun Buta Yarō Yarou wa Yumemiru Shōjo Shoujo no Yume o Minai ao-buta Puberty Syndrome: Abnormal experiences during adolescence due to sensitivity and instability. Rascal Does Not Dream of Bunny Girl Senpai opening op akitoshi corinn -laura- ayyri eiri- snownino_ kencho reform kujinn onlybiscuit
BeatmapID:1810188
BeatmapSetID:865746

[Difficulty]
HPDrainRate:5
CircleSize:3.6
OverallDifficulty:8.5
ApproachRate:9
SliderMultiplier:1.7
SliderTickRate:1

[Events]
//Background and Video events
0,0,"bg.jpg",0,0
Video,-350,"video.mp4"
//Break Periods
//Storyboard Layer 0 (Background)
//Storyboard Layer 1 (Fail)
//Storyboard Layer 2 (Pass)
//Storyboard Layer 3 (Foreground)
//Storyboard Sound Samples

[TimingPoints]
-887,344.827586206897,4,2,22,42,1,0
319,-192.307692307692,4,2,22,42,0,0
10147,-98.0392156862744,4,2,22,82,0,0
14285,-81.9672131147541,4,2,22,82,0,0
14400,-81.9672131147541,4,2,22,5,0,0
14515,-81.9672131147541,4,2,22,82,0,0
14630,-81.9672131147541,4,2,22,5,0,0
14745,-81.9672131147541,4,2,22,82,0,0
14860,-81.9672131147541,4,2,22,5,0,0
14975,-138.888888888889,4,2,22,82,0,0
15664,-121.951219512195,4,2,22,62,0,0
18423,-108.695652173913,4,2,22,62,0,0
21181,-98.0392156862745,4,2,22,72,0,0
26699,-121.951219512195,4,2,22,62,0,0
29457,-108.695652173913,4,2,22,62,0,0
32216,-98.0392156862745,4,2,22,72,0,0
37733,-108.695652173913,4,2,22,62,0,0
48768,-161.290322580645,4,2,22,52,0,0
51526,-161.290322580645,4,2,22,62,0,0
52216,-161.290322580645,4,2,22,72,0,0
52733,-89.2857142857143,4,2,22,82,0,1
63078,-89.2857142857143,4,2,22,82,0,0
63768,-89.2857142857143,4,2,22,82,0,1
73595,-89.2857142857143,4,2,22,82,0,0
74975,-89.2857142857143,4,2,22,82,0,1
86009,-192.307692307692,4,2,22,82,0,0
87992,-138.888888888889,4,2,22,82,0,0

[Colours]
Combo1 : 194,94,255
Combo2 : 245,155,255
Combo3 : 148,107,107
Combo4 : 245,109,113

[HitObjects]
316,324,319,6,0,P|272:320|236:292,1,88.3999994604492,2|2,0:0|0:0,0:0:0:0:
163,239,837,1,2,0:0:0:0:
163,239,1009,2,0,P|167:204|168:180,1,44.1999997302246,2|0,0:0|0:0,0:0:0:0:
147,96,1354,2,0,P|116:83|87:79,2,44.1999997302246,2|2|2,0:0|0:0|0:0,0:0:0:0:
255,155,1871,2,0,P|291:153|349:121,1,88.3999994604492,2|2,0:0|0:0,0:0:0:0:
436,70,2388,1,2,0:0:0:0:
436,70,2561,2,0,P|442:98|444:134,2,44.1999997302246,2|2|2,0:0|0:0|0:0,0:0:0:0:
242,12,3078,6,0,P|222:60|218:103,1,88.3999994604492,2|2,0:0|0:0,0:0:0:0:
137,180,3595,1,2,0:0:0:0:
137,180,3768,2,0,P|157:228|161:271,1,88.3999994604492,2|0,0:0|0:0,0:0:0:0:
241,332,4285,1,2,0:0:0:0:
241,332,4457,2,0,P|286:323|340:317,1,88.3999994604492,2|0,0:0|0:0,0:0:0:0:
434,248,4975,2,0,P|390:242|346:233,1,88.3999994604492,0|0,0:0|0:0,0:0:0:0:
278,182,5492,2,0,P|269:152|263:124,1,44.1999997302246,2|2,0:0|0:0,0:0:0:0:
181,22,5837,6,0,P|179:63|161:123,1,88.3999994604492,2|2,0:0|0:0,0:0:0:0:
92,178,6354,2,0,P|94:211|98:231,1,44.1999997302246,2|0,0:0|0:0,0:0:0:0:
158,295,6699,2,0,P|156:328|152:348,1,44.1999997302246,2|2,0:0|0:0,0:0:0:0:
231,239,7044,1,2,0:0:0:0:
231,239,7216,2,0,P|257:216|323:204,1,88.3999994604492,0|2,0:0|0:0,0:0:0:0:
374,271,7733,2,0,P|400:294|466:306,1,88.3999994604492,0|0,0:0|0:0,0:0:0:0:
512,219,8250,1,0,0:0:0:0:
435,143,8423,2,0,P|408:151|383:165,1,44.1999997302246,0|0,0:0|1:0,0:0:0:0:
393,158,8681,1,0,1:0:0:0:
393,158,8768,5,0,1:0:0:0:
126,58,10147,6,0,P|138:111|145:155,1,86.7000005291748,14|0,0:2|1:2,0:0:0:0:
243,284,10492,2,0,P|250:241|260:199,1,86.7000005291748,10|0,0:2|1:2,0:0:0:0:
346,98,10837,2,0,P|395:79|447:80,1,86.7000005291748,10|0,0:2|1:2,0:0:0:0:
503,215,11181,2,0,P|459:211|420:194,1,86.7000005291748,10|0,0:2|1:2,0:0:0:0:
275,52,11526,5,10,0:2:0:0:
320,229,11699,1,0,1:2:0:0:
187,29,11871,1,10,0:2:0:0:
150,243,12044,1,0,1:2:0:0:
285,132,12216,5,10,0:2:0:0:
77,200,12388,1,0,1:2:0:0:
275,299,12561,1,10,0:2:0:0:
184,166,12733,1,0,0:0:0:0:
282,317,12906,6,0,P|238:303|193:303,1,86.7000005291748,14|0,0:2|1:2,0:0:0:0:
34,372,13250,2,0,P|77:370|118:357,1,86.7000005291748,10|0,0:2|1:2,0:0:0:0:
46,189,13595,2,0,P|61:254|67:292,1,86.7000005291748,10|0,0:2|1:2,0:0:0:0:
145,133,13940,1,10,0:2:0:0:
262,225,14113,1,8,0:2:0:0:
262,225,14199,1,8,0:2:0:0:
262,225,14285,6,0,P|308:196|360:196,1,69.1333304851279,6|0,1:2|0:0,0:0:0:0:
359,217,14515,2,0,P|405:246|459:246,1,69.1333304851279,2|0,1:2|0:0,0:0:0:0:
463,231,14745,2,0,P|470:189|476:136,1,69.1333304851279,2|0,1:2|0:0,0:0:0:0:
482,124,14975,6,0,P|457:53|334:21,1,183.600004482422,14|8,0:2|0:2,0:0:0:0:
340,51,15578,1,8,0:2:0:0:
340,51,15664,6,0,P|335:99|328:150,1,69.7000010635376,4|0,1:2|0:2,0:0:0:0:
220,168,16009,2,0,P|225:216|232:267,1,69.7000010635376,2|2,1:2|0:2,0:0:0:0:
317,327,16354,2,0,B|396:310|374:371|470:346,1,139.400002127075,2|0,1:2|1:2,0:0:0:0:
443,246,16871,1,2,0:2:0:0:
443,246,17044,6,0,P|451:199|462:160,1,69.7000010635376,2|2,1:2|0:2,0:0:0:0:
351,31,17388,2,0,P|359:64|364:99,1,69.7000010635376,0|2,1:2|0:2,0:0:0:0:
278,204,17733,1,2,1:2:0:0:
190,104,17906,2,0,P|196:53|204:23,2,69.7000010635376,2|2|2,0:2|1:2|0:2,0:0:0:0:
149,174,18337,1,0,0:2:0:0:
149,174,18423,6,0,P|162:230|164:334,1,156.399994749756,6|2,1:2|1:2,0:0:0:0:
240,234,18940,1,2,1:2:0:0:
123,296,19113,1,8,0:2:0:0:
256,365,19285,2,0,P|300:355|333:331,1,78.199997374878,2|0,0:2|1:2,0:0:0:0:
440,257,19630,6,0,B|411:163|477:204|436:76,1,156.399994749756,10|2,0:2|1:2,0:0:0:0:
324,16,20147,2,0,P|279:28|248:58,1,78.199997374878,8|2,0:2|1:2,0:0:0:0:
255,47,20406,1,8,0:2:0:0:
255,47,20492,1,2,1:2:0:0:
327,186,20664,2,0,P|331:133|335:86,2,78.199997374878,2|10|10,1:2|0:2|0:2,0:0:0:0:
248,344,21181,5,2,1:2:0:0:
248,344,21354,1,2,1:2:0:0:
117,224,21526,2,0,P|109:168|110:122,1,86.7000005291748,14|0,0:2|0:2,0:0:0:0:
137,313,21871,5,2,1:2:0:0:
137,313,22044,1,0,1:2:0:0:
267,193,22216,2,0,P|275:137|274:91,1,86.7000005291748,14|0,0:2|1:2,0:0:0:0:
254,273,22561,5,2,1:2:0:0:
254,273,22734,1,0,1:2:0:0:
124,153,22906,2,0,P|116:97|117:51,1,86.7000005291748,14|0,0:2|0:2,0:0:0:0:
141,237,23250,5,0,1:2:0:0:
141,237,23423,1,0,1:2:0:0:
271,117,23595,2,0,P|279:61|278:15,1,86.7000005291748,14|2,0:2|0:2,0:0:0:0:
91,102,23940,6,0,P|98:170|115:302,1,173.40000105835,6|10,1:2|0:2,0:0:0:0:
85,355,24457,2,0,B|197:364|146:294|272:301,1,173.40000105835,2|2,0:2|1:2,0:0:0:0:
430,353,24975,2,0,P|379:343|340:313,1,86.7000005291748,10|0,0:2|1:2,0:0:0:0:
412,163,25319,6,0,P|417:232|413:271,1,86.7000005291748,2|2,0:2|1:2,0:0:0:0:
347,77,25664,1,10,0:2:0:0:
247,219,25837,1,2,1:2:0:0:
247,219,25923,1,0,1:2:0:0:
247,219,26009,2,0,P|245:175|250:132,1,86.7000005291748,0|0,1:2|1:2,0:0:0:0:
348,281,26354,1,8,0:2:0:0:
150,155,26526,1,8,0:2:0:0:
150,155,26613,1,8,0:2:0:0:
150,154,26699,6,0,P|115:159|81:168,1,69.7000010635376,0|0,1:2|0:2,0:0:0:0:
245,253,27044,2,0,P|278:261|313:266,1,69.7000010635376,2|2,1:2|0:2,0:0:0:0:
150,300,27388,1,10,0:2:0:0:
150,300,27561,1,0,0:2:0:0:
301,147,27733,2,0,P|334:138|369:133,1,69.7000010635376,0|2,1:2|0:2,0:0:0:0:
215,92,28078,5,2,1:2:0:0:
335,230,28250,1,10,0:2:0:0:
150,176,28423,1,2,1:2:0:0:
320,63,28595,1,2,0:2:0:0:
207,282,28768,2,0,P|161:303|88:295,2,104.550001595306,10|10|10,0:2|0:2|0:2,0:0:0:0:
370,192,29457,6,0,P|384:252|387:290,1,78.199997374878,2|0,1:2|0:2,0:0:0:0:
463,161,29802,1,2,1:2:0:0:
287,263,29975,2,0,P|273:323|270:361,1,78.199997374878,2|8,0:2|0:2,0:0:0:0:
237,169,30319,1,2,0:2:0:0:
368,247,30492,1,2,1:2:0:0:
234,334,30664,6,0,B|147:307|172:370|78:343,1,156.399994749756,2|2,3:2|0:2,0:0:0:0:
41,245,31181,2,0,P|35:193|30:158,1,78.199997374878,8|2,0:2|1:2,0:0:0:0:
31,167,31440,1,0,0:0:0:0:
31,167,31526,1,0,0:0:0:0:
156,80,31699,1,2,1:2:0:0:
23,34,31871,1,10,1:2:0:0:
164,164,32044,2,0,P|200:154|220:151,1,39.099998687439,10|8,0:2|0:2,0:0:0:0:
344,173,32216,5,2,1:2:0:0:
344,173,32388,1,2,1:2:0:0:
231,246,32561,2,0,P|216:293|215:352,1,86.7000005291748,14|0,0:2|0:2,0:0:0:0:
250,146,32906,5,2,1:2:0:0:
250,146,33078,1,0,1:2:0:0:
363,219,33251,2,0,P|378:266|379:325,1,86.7000005291748,14|2,0:2|0:2,0:0:0:0:
349,119,33595,5,2,1:2:0:0:
349,119,33767,1,0,1:2:0:0:
236,192,33940,2,0,P|221:239|220:298,1,86.7000005291748,14|0,0:2|0:2,0:0:0:0:
245,72,34285,5,0,1:2:0:0:
245,72,34457,1,0,1:2:0:0:
358,145,34630,2,0,P|373:192|374:251,1,86.7000005291748,14|0,0:2|0:2,0:0:0:0:
139,338,34975,6,0,P|198:321|244:316,1,86.7000005291748,6|0,1:2|0:0,0:0:0:0:
326,353,35319,2,0,P|367:366|410:374,1,86.7000005291748,10|0,0:2|0:0,0:0:0:0:
266,221,35664,2,0,P|271:168|281:115,1,86.7000005291748,2|0,1:2|1:2,0:0:0:0:
427,71,36009,2,0,P|433:113|437:156,1,86.7000005291748,10|0,0:2|1:2,0:0:0:0:
275,256,36354,6,0,P|220:252|174:221,1,86.7000005291748,2|0,1:2|1:2,0:0:0:0:
84,86,36699,1,8,0:2:0:0:
261,133,36871,1,0,1:2:0:0:
261,133,36957,1,0,1:2:0:0:
261,133,37044,1,0,1:2:0:0:
61,243,37216,1,8,0:2:0:0:
214,203,37388,1,4,1:3:0:0:
98,160,37561,1,4,1:3:0:0:
227,327,37733,6,0,B|317:348|295:293|391:315,1,156.399994749756,6|10,1:2|0:2,0:0:0:0:
261,238,38250,1,0,0:0:0:0:
351,142,38423,2,0,P|404:132|443:127,1,78.199997374878,2|0,1:2|1:2,0:0:0:0:
244,59,38768,2,0,P|191:49|152:44,1,78.199997374878,10|0,0:2|0:2,0:0:0:0:
94,241,39113,6,0,P|142:220|165:187,1,78.199997374878,2|0,1:2|1:2,0:0:0:0:
67,55,39457,2,0,P|76:121|80:157,1,78.199997374878,8|0,0:2|0:2,0:0:0:0:
272,64,39802,1,0,1:2:0:0:
223,255,39975,1,2,1:2:0:0:
160,113,40147,1,10,0:2:0:0:
325,214,40319,6,0,P|379:196|402:170,1,78.199997374878,2|0,1:2|0:2,0:0:0:0:
291,64,40664,1,2,1:2:0:0:
448,108,40837,1,8,0:2:0:0:
232,275,41009,2,0,P|226:236|222:197,1,78.199997374878,2|0,1:2|0:2,0:0:0:0:
100,87,41354,1,2,1:2:0:0:
59,222,41526,1,10,0:2:0:0:
206,93,41699,6,0,P|252:85|294:100,1,78.199997374878,2|0,1:2|1:2,0:0:0:0:
394,285,42044,2,0,P|364:249|356:205,1,78.199997374878,2|8,1:2|0:2,0:0:0:0:
445,38,42388,2,0,P|428:81|394:110,1,78.199997374878,2|0,1:2|0:0,0:0:0:0:
207,200,42733,1,0,1:2:0:0:
176,43,42906,2,0,P|189:96|195:137,1,78.199997374878,8|0,0:2|0:0,0:0:0:0:
44,247,43250,6,0,B|134:225|99:289|216:259,1,156.399994749756,6|10,1:2|0:2,0:0:0:0:
78,327,43768,1,0,0:2:0:0:
186,177,43940,2,0,P|226:159|278:158,1,78.199997374878,2|0,1:2|1:2,0:0:0:0:
330,286,44285,2,0,P|370:304|422:305,1,78.199997374878,10|0,0:2|1:2,0:0:0:0:
402,108,44630,6,0,P|394:157|390:200,1,78.199997374878,2|0,0:2|1:2,0:0:0:0:
296,358,44975,2,0,P|291:319|285:280,1,78.199997374878,10|0,0:2|1:2,0:0:0:0:
138,135,45319,1,2,0:2:0:0:
109,269,45492,1,0,1:2:0:0:
275,162,45664,2,0,P|289:116|283:72,1,78.199997374878,10|0,0:2|0:2,0:0:0:0:
81,250,46009,6,0,B|167:271|139:207|249:231,1,156.399994749756,2|10,1:2|0:2,0:0:0:0:
317,302,46526,2,0,P|360:323|403:322,1,78.199997374878,2|0,0:2|1:2,0:0:0:0:
400,130,46871,2,0,P|380:181|373:221,1,78.199997374878,2|8,1:2|0:2,0:0:0:0:
266,74,47216,6,0,P|218:31|123:36,1,156.399994749756,2|0,1:2|1:2,0:0:0:0:
24,140,47733,2,0,P|66:126|102:123,1,78.199997374878,8|2,0:2|1:2,0:0:0:0:
227,266,48078,2,0,P|188:261|151:248,1,78.199997374878,0|2,0:2|1:2,0:0:0:0:
345,183,48423,1,8,0:2:0:0:
226,114,48595,1,2,0:2:0:0:
376,306,48768,6,0,P|386:241|400:185,1,105.399995818482,6|0,1:2|0:0,0:0:0:0:
337,101,49285,1,8,0:0:0:0:
231,184,49457,2,0,P|196:190|171:190,2,52.6999979092408,8|8|4,0:3|0:3|0:3,0:0:0:0:
354,76,50147,6,0,P|305:59|246:56,1,105.399995818482,8|4,0:3|0:3,0:0:0:0:
205,115,50664,2,0,P|156:132|97:135,1,105.399995818482,8|0,0:3|0:0,0:0:0:0:
32,105,51181,1,4,0:3:0:0:
32,105,51526,5,10,0:0:0:0:
252,172,51699,1,0,1:0:0:0:
7,194,51871,5,10,0:0:0:0:
275,77,52044,1,0,1:0:0:0:
94,22,52216,5,10,0:0:0:0:
190,335,52388,1,10,0:0:0:0:
190,335,52733,6,0,B|307:360|258:283|386:309,1,190.400002324219,6|2,1:2|1:2,0:0:0:0:
228,244,53250,1,10,0:2:0:0:
316,175,53423,2,0,P|371:155|420:163,1,95.2000011621094,2|0,0:2|1:2,0:0:0:0:
228,138,53768,1,2,1:2:0:0:
382,265,53940,1,10,0:2:0:0:
360,68,54113,1,2,1:2:0:0:
202,235,54285,6,0,P|178:284|174:339,1,95.2000011621094,2|0,1:2|1:2,0:0:0:0:
282,154,54630,1,10,0:2:0:0:
100,230,54802,1,2,0:2:0:0:
286,306,54975,1,2,1:2:0:0:
162,160,55147,2,0,P|145:112|154:45,1,95.2000011621094,2|10,1:2|0:2,0:0:0:0:
427,92,55492,6,0,B|314:60|362:138|237:97,1,190.400002324219,6|2,1:2|1:2,0:0:0:0:
390,202,56009,1,10,0:2:0:0:
263,297,56181,2,0,P|250:233|261:179,1,95.2000011621094,2|0,0:2|1:2,0:0:0:0:
358,355,56526,1,0,1:2:0:0:
159,278,56699,5,10,0:2:0:0:
362,116,56871,2,0,P|364:163|352:209,1,95.2000011621094,2|0,0:2|1:2,0:0:0:0:
433,52,57216,1,0,1:2:0:0:
253,153,57388,2,0,B|125:149|200:83|61:82,1,190.400002324219,8|0,0:2|1:2,0:0:0:0:
92,173,57906,1,2,1:2:0:0:
241,40,58078,1,10,0:2:0:0:
82,188,58250,6,0,P|66:254|182:333,1,190.400002324219,6|2,1:2|1:2,0:0:0:0:
237,257,58768,2,0,P|289:236|341:235,1,95.2000011621094,10|0,0:2|0:2,0:0:0:0:
484,350,59113,2,0,P|437:346|394:327,1,95.2000011621094,2|2,1:2|1:2,0:0:0:0:
512,201,59457,1,10,0:2:0:0:
395,139,59630,6,0,P|408:208|413:256,1,95.2000011621094,2|0,0:2|1:2,0:0:0:0:
462,53,59975,1,2,1:2:0:0:
251,185,60147,2,0,P|187:151|192:25,1,190.400002324219,8|0,0:2|1:2,0:0:0:0:
377,6,60664,2,0,P|361:66|355:107,1,95.2000011621094,2|8,1:2|0:2,0:0:0:0:
331,263,61009,1,2,1:2:0:0:
208,116,61181,5,2,1:2:0:0:
381,172,61354,1,2,1:2:0:0:
160,217,61526,1,10,0:2:0:0:
280,57,61699,1,2,0:2:0:0:
236,280,61871,1,2,1:2:0:0:
118,83,62044,1,2,1:2:0:0:
45,268,62216,2,0,P|54:315|83:353,1,95.2000011621094,8|2,0:2|1:2,0:0:0:0:
297,155,62561,5,8,0:2:0:0:
150,279,62733,1,8,0:2:0:0:
150,279,62819,1,8,0:2:0:0:
150,279,62906,2,0,P|182:286|213:298,1,47.6000005810547,8|8,0:2|0:2,0:0:0:0:
301,366,63078,2,0,P|366:359|440:320,1,142.800001743164,4|0,1:2|0:2,0:0:0:0:
470,233,63423,2,0,P|476:191|483:165,1,47.6000005810547,8|8,0:2|0:2,0:0:0:0:
353,133,63595,2,0,P|357:156|360:180,1,47.6000005810547,8|8,0:2|0:2,0:0:0:0:
297,286,63768,6,0,B|186:255|224:344|92:300,1,190.400002324219,2|2,1:2|1:2,0:0:0:0:
288,168,64285,1,10,0:2:0:0:
163,115,64457,2,0,P|148:173|163:223,1,95.2000011621094,2|0,0:2|1:2,0:0:0:0:
282,24,64802,1,2,1:2:0:0:
64,106,64975,1,10,0:2:0:0:
268,188,65147,1,2,1:2:0:0:
119,31,65319,6,0,P|66:9|22:15,1,95.2000011621094,0|2,1:2|1:2,0:0:0:0:
157,235,65664,1,10,0:2:0:0:
256,24,65837,1,2,0:2:0:0:
52,124,66009,1,2,1:2:0:0:
265,202,66181,2,0,P|277:154|258:101,1,95.2000011621094,2|10,1:2|0:2,0:0:0:0:
90,284,66526,6,0,B|200:267|157:336|277:324,1,190.400002324219,6|2,1:2|1:2,0:0:0:0:
374,216,67044,1,10,0:2:0:0:
196,61,67216,2,0,P|183:106|195:151,1,95.2000011621094,2|0,0:2|1:2,0:0:0:0:
316,32,67561,1,0,1:2:0:0:
93,110,67733,5,10,0:2:0:0:
294,258,67906,2,0,P|306:212|293:167,1,95.2000011621094,2|0,0:2|1:2,0:0:0:0:
368,353,68250,1,0,1:2:0:0:
206,215,68423,2,0,B|101:193|145:270|15:236,1,190.400002324219,8|0,0:2|1:2,0:0:0:0:
164,77,68940,1,0,0:0:0:0:
248,219,69113,1,10,0:2:0:0:
70,0,69285,6,0,P|34:62|77:169,1,190.400002324219,6|2,1:2|1:2,0:0:0:0:
195,84,69802,1,8,0:2:0:0:
276,218,69975,2,0,P|329:237|380:230,1,95.2000011621094,2|0,0:2|1:2,0:0:0:0:
459,53,70319,2,0,P|411:51|367:69,1,95.2000011621094,2|8,1:2|0:2,0:0:0:0:
425,327,70664,6,0,P|429:243|436:114,1,190.400002324219,2|0,0:2|1:2,0:0:0:0:
317,282,71181,1,10,0:2:0:0:
224,154,71354,2,0,P|172:128|126:125,1,95.2000011621094,2|0,0:2|1:0,0:0:0:0:
304,72,71699,1,2,1:2:0:0:
207,262,71871,1,10,0:2:0:0:
52,74,72044,6,0,B|19:174|100:151|57:280,1,190.400002324219,6|2,1:2|1:2,0:0:0:0:
171,121,72561,1,10,0:2:0:0:
270,248,72733,2,0,P|282:306|283:367,1,95.2000011621094,2|0,0:2|1:2,0:0:0:0:
343,123,73078,1,2,1:2:0:0:
176,207,73250,2,0,P|164:265|163:326,1,95.2000011621094,10|2,0:2|1:2,0:0:0:0:
111,60,73595,5,8,0:2:0:0:
274,155,73768,1,8,0:2:0:0:
274,155,73854,1,8,0:2:0:0:
274,155,73940,2,0,P|310:150|343:138,1,47.6000005810547,8|8,0:2|0:2,0:0:0:0:
446,68,74113,2,0,P|391:45|275:40,1,142.800001743164,4|0,1:2|0:2,0:0:0:0:
228,83,74457,2,0,P|204:92|176:98,1,47.6000005810547,8|8,0:3|0:3,0:0:0:0:
118,171,74630,2,0,P|96:161|73:154,1,47.6000005810547,8|8,0:3|0:3,0:0:0:0:
210,247,74802,1,4,0:3:0:0:
210,247,74888,1,4,0:3:0:0:
210,247,74975,6,0,P|217:303|223:353,1,95.2000011621094,6|0,1:2|0:2,0:0:0:0:
385,158,75319,1,10,0:2:0:0:
354,329,75492,1,2,1:2:0:0:
266,132,75664,2,0,P|203:106|153:112,1,95.2000011621094,10|0,0:2|1:2,0:0:0:0:
166,332,76009,6,0,P|252:322|392:305,1,190.400002324219,14|8,0:2|0:2,0:0:0:0:
146,217,76526,1,0,1:2:0:0:
303,122,76699,1,10,0:2:0:0:
113,74,76871,1,2,1:2:0:0:
271,201,77044,1,10,0:2:0:0:
109,306,77216,1,2,1:2:0:0:
181,134,77388,1,8,0:2:0:0:
420,318,77561,6,0,B|321:275|340:356|231:312,1,190.400002324219,6|2,1:2|1:2,0:0:0:0:
103,178,78078,1,10,0:2:0:0:
277,225,78250,1,2,1:2:0:0:
158,377,78423,2,0,P|137:321|146:265,1,95.2000011621094,10|0,0:2|1:2,0:0:0:0:
279,117,78768,2,0,P|272:177|265:236,1,95.2000011621094,10|2,0:2|1:2,0:0:0:0:
68,124,79113,5,8,0:2:0:0:
167,281,79285,1,0,0:2:0:0:
210,91,79457,1,8,0:2:0:0:
83,274,79630,1,0,1:2:0:0:
31,53,79802,1,8,0:2:0:0:
221,182,79975,1,2,1:2:0:0:
14,203,80147,1,8,0:2:0:0:
258,23,80319,6,0,B|369:40|301:97|440:116,1,190.400002324219,6|2,1:2|1:2,0:0:0:0:
252,128,80837,1,10,0:2:0:0:
338,290,81009,2,0,P|351:231|347:187,1,95.2000011621094,2|8,1:2|0:2,0:0:0:0:
144,110,81354,1,0,0:0:0:0:
199,298,81526,1,10,0:2:0:0:
361,81,81699,6,0,P|301:88|258:130,1,95.2000011621094,2|8,1:2|0:2,0:0:0:0:
475,218,82044,1,2,1:2:0:0:
494,49,82216,1,10,0:2:0:0:
348,196,82388,2,0,P|361:257|375:316,1,95.2000011621094,2|8,1:2|0:2,0:0:0:0:
155,121,82733,1,2,1:2:0:0:
232,308,82906,1,10,0:2:0:0:
297,93,83078,1,10,0:2:0:0:
297,93,83164,1,0,0:2:0:0:
297,93,83250,5,6,1:2:0:0:
343,257,83423,1,0,0:2:0:0:
174,72,83595,5,10,0:2:0:0:
162,267,83768,1,2,1:2:0:0:
324,53,83940,5,10,0:2:0:0:
114,171,84113,1,0,1:2:0:0:
367,169,84285,5,10,0:2:0:0:
136,83,84457,2,0,P|166:73|199:73,1,47.6000005810547,2|0,1:2|1:2,0:0:0:0:
435,102,84630,5,8,0:2:0:0:
221,210,84802,1,2,1:2:0:0:
495,249,84975,5,8,0:2:0:0:
273,137,85147,1,2,1:2:0:0:
356,341,85319,5,8,0:2:0:0:
383,95,85492,1,0,1:2:0:0:
245,373,85664,5,12,0:2:0:0:
180,119,85837,1,0,3:2:0:0:
55,286,86009,6,0,P|101:312|148:310,1,88.3999994604492,6|0,1:2|0:0,0:0:0:0:
165,321,86699,2,0,P|211:295|258:297,1,88.3999994604492,0|0,0:0|0:0,0:0:0:0:
416,73,87388,2,0,P|426:120|434:173,1,88.3999994604492,6|0,1:2|0:0,0:0:0:0:
368,292,87992,6,0,P|366:329|364:350,2,30.6000007470703,4|4|4,0:3|0:3|0:3,0:0:0:0:
