osu file format v14

[General]
AudioFilename: audio.mp3
AudioLeadIn: 0
PreviewTime: 52647
Countdown: 0
SampleSet: Soft
StackLeniency: 0.7
Mode: 0
LetterboxInBreaks: 0
WidescreenStoryboard: 0

[Editor]
Bookmarks: 816,88920
DistanceSpacing: 0.6
BeatDivisor: 4
GridSize: 4
TimelineZoom: 2.3

[Metadata]
Title:Kimi no Sei (TV Size)
TitleUnicode:君のせい (TV Size)
Artist:the peggies
ArtistUnicode:the peggies
Creator:Sotarks
Version:Onlybiscuit's Extra
Source:青春ブタ野郎はバニーガール先輩の夢を見ない
Tags:Seishun Buta Yarō Yarou wa Yumemiru Shōjo Shoujo no Yume o Minai ao-buta Puberty Syndrome: Abnormal experiences during adolescence due to sensitivity and instability. Rascal Does Not Dream of Bunny Girl Senpai opening op akitoshi corinn -laura- ayyri eiri- snownino_ kencho reform kujinn onlybiscuit
BeatmapID:1810372
BeatmapSetID:865746

[Difficulty]
HPDrainRate:5.2
CircleSize:4
OverallDifficulty:8.7
ApproachRate:9
SliderMultiplier:1.72
SliderTickRate:1

[Events]
//Background and Video events
0,0,"bg.jpg",0,0
Video,-350,"video.mp4"
//Break Periods
//Storyboard Layer 0 (Background)
//Storyboard Layer 1 (Fail)
//Storyboard Layer 2 (Pass)
//Storyboard Layer 3 (Foreground)
//Storyboard Sound Samples

[TimingPoints]
-887,344.827586206897,4,2,22,42,1,0
319,-192.307692307692,4,2,22,42,0,0
10147,-98.0392156862744,4,2,22,82,0,0
14285,-81.9672131147541,4,2,22,82,0,0
14400,-81.9672131147541,4,2,22,5,0,0
14515,-81.9672131147541,4,2,22,82,0,0
14630,-81.9672131147541,4,2,22,5,0,0
14745,-81.9672131147541,4,2,22,82,0,0
14860,-81.9672131147541,4,2,22,5,0,0
14975,-138.888888888889,4,2,22,82,0,0
15664,-121.951219512195,4,2,22,62,0,0
18423,-108.695652173913,4,2,22,62,0,0
21181,-138.888888888889,4,2,22,72,0,0
21526,-98.0392156862745,4,2,22,72,0,0
21871,-138.888888888889,4,2,22,72,0,0
22216,-98.0392156862745,4,2,22,72,0,0
22561,-138.888888888889,4,2,22,72,0,0
22906,-98.0392156862745,4,2,22,72,0,0
23250,-138.888888888889,4,2,22,72,0,0
23595,-98.0392156862745,4,2,22,72,0,0
26699,-121.951219512195,4,2,22,62,0,0
29457,-108.695652173913,4,2,22,62,0,0
32216,-138.888888888889,4,2,22,72,0,0
32561,-98.0392156862745,4,2,22,72,0,0
32906,-138.888888888889,4,2,22,72,0,0
33251,-98.0392156862745,4,2,22,72,0,0
33595,-138.888888888889,4,2,22,72,0,0
33940,-98.0392156862745,4,2,22,72,0,0
34285,-138.888888888889,4,2,22,72,0,0
34630,-98.0392156862745,4,2,22,72,0,0
37733,-108.695652173913,4,2,22,62,0,0
48768,-161.290322580645,4,2,22,52,0,0
51526,-161.290322580645,4,2,22,62,0,0
52216,-161.290322580645,4,2,22,72,0,0
52733,-89.2857142857143,4,2,22,72,0,1
63078,-89.2857142857143,4,2,22,82,0,0
63768,-89.2857142857143,4,2,22,82,0,1
73595,-89.2857142857143,4,2,22,82,0,0
74975,-89.2857142857143,4,2,22,82,0,1
86009,-192.307692307692,4,2,22,82,0,0
87992,-138.888888888889,4,2,22,82,0,0

[Colours]
Combo1 : 194,94,255
Combo2 : 245,155,255
Combo3 : 148,107,107
Combo4 : 245,109,113

[HitObjects]
46,103,319,6,0,P|95:92|150:94,1,89.4399994541016,2|2,0:0|0:0,0:0:0:0:
214,149,837,1,2,0:0:0:0:
214,149,1009,2,0,P|248:152|277:148,1,44.7199997270508,2|0,0:0|0:0,0:0:0:0:
330,86,1354,2,0,P|326:62|317:38,2,44.7199997270508,2|2|2,0:0|0:0|0:0,0:0:0:0:
394,158,1871,6,0,P|389:184|387:213,1,44.7199997270508,2|0,0:0|0:0,0:0:0:0:
438,273,2216,2,0,P|464:269|493:258,2,44.7199997270508,2|2|2,0:0|0:0|0:0,0:0:0:0:
373,322,2733,2,0,P|350:332|322:339,1,44.7199997270508,2|0,0:0|0:0,0:0:0:0:
230,239,3078,6,0,P|274:242|318:252,1,89.4399994541016,2|2,0:0|0:0,0:0:0:0:
171,355,3595,1,2,0:0:0:0:
171,355,3768,2,0,P|166:302|155:264,1,89.4399994541016,2|0,0:0|0:0,0:0:0:0:
83,150,4285,1,2,0:0:0:0:
83,150,4457,6,0,P|116:178|159:184,1,89.4399994541016,2|0,0:0|0:0,0:0:0:0:
238,82,4975,2,0,L|150:94,1,89.4399994541016,0|0,0:0|0:0,0:0:0:0:
246,172,5492,2,0,P|277:168|301:152,1,44.7199997270508,2|2,0:0|0:0,0:0:0:0:
385,77,5837,6,0,P|375:119|371:181,1,89.4399994541016,2|2,0:0|0:0,0:0:0:0:
458,258,6354,2,0,P|434:245|413:237,1,44.7199997270508,2|0,0:0|0:0,0:0:0:0:
341,302,6699,2,0,P|317:315|296:323,1,44.7199997270508,2|2,0:0|0:0,0:0:0:0:
186,218,7044,1,2,0:0:0:0:
186,218,7216,6,0,P|234:222|280:246,1,89.4399994541016,0|2,0:0|0:0,0:0:0:0:
201,307,7733,2,0,P|160:325|116:328,1,89.4399994541016,0|0,0:0|0:0,0:0:0:0:
31,246,8250,1,0,0:0:0:0:
31,246,8423,2,0,L|46:186,1,44.7199997270508,0|0,0:0|1:0,0:0:0:0:
62,163,8681,1,0,1:0:0:0:
62,163,8768,5,0,1:0:0:0:
317,84,10147,6,0,L|413:66,1,87.7200005354004,14|0,0:2|1:2,0:0:0:0:
252,226,10492,2,0,L|165:209,1,87.7200005354004,10|0,0:2|1:2,0:0:0:0:
372,341,10837,5,10,0:2:0:0:
443,152,11009,1,0,1:2:0:0:
340,334,11181,5,10,0:2:0:0:
266,141,11354,1,0,1:2:0:0:
124,333,11526,5,10,0:2:0:0:
288,233,11699,1,0,1:2:0:0:
76,164,11871,5,10,0:2:0:0:
265,251,12044,1,0,1:2:0:0:
37,349,12216,6,0,L|24:259,1,87.7200005354004,10|0,0:2|1:2,0:0:0:0:
178,123,12561,2,0,L|165:209,1,87.7200005354004,10|0,0:2|0:0,0:0:0:0:
0,71,12906,6,0,P|44:51|91:39,1,87.7200005354004,14|0,0:2|1:2,0:0:0:0:
259,153,13250,2,0,P|216:141|177:122,1,87.7200005354004,10|0,0:2|1:2,0:0:0:0:
373,204,13595,5,10,0:2:0:0:
164,209,13768,1,0,1:2:0:0:
363,43,13940,5,10,0:2:0:0:
251,217,14113,1,8,0:2:0:0:
251,217,14199,1,8,0:2:0:0:
251,217,14285,6,0,P|243:257|237:302,1,69.9466637849529,6|0,1:2|0:2,0:0:0:0:
144,352,14515,6,0,P|138:317|132:283,1,69.9466637849529,2|0,1:2|0:0,0:0:0:0:
37,223,14745,6,0,P|30:257|25:291,1,69.9466637849529,2|0,1:2|0:0,0:0:0:0:
155,176,14975,6,0,P|223:122|323:144,1,185.760004535156,14|8,0:2|0:2,0:0:0:0:
345,157,15578,1,8,0:2:0:0:
345,157,15664,6,0,P|337:195|334:231,1,70.5200010760498,4|0,1:2|0:2,0:0:0:0:
435,320,16009,2,0,P|400:306|353:298,1,70.5200010760498,2|2,1:2|0:2,0:0:0:0:
251,217,16354,2,0,B|248:298|299:274|286:364,1,141.0400021521,2|0,1:2|1:2,0:0:0:0:
175,282,16871,1,2,0:2:0:0:
175,282,17044,6,0,P|164:325|155:371,1,70.5200010760498,2|2,1:2|0:2,0:0:0:0:
72,298,17388,2,0,P|64:263|55:229,1,70.5200010760498,0|2,1:2|0:2,0:0:0:0:
187,145,17733,2,0,P|162:177|120:196,1,70.5200010760498,2|2,1:2|0:2,0:0:0:0:
44,140,18078,2,0,P|79:142|110:159,1,70.5200010760498,2|2,1:2|0:2,0:0:0:0:
136,191,18337,1,0,0:2:0:0:
136,191,18423,6,0,B|229:188|196:241|297:226,1,158.239994687988,6|2,1:2|1:2,0:0:0:0:
363,144,18940,1,2,1:2:0:0:
330,301,19113,1,8,0:2:0:0:
428,213,19285,2,0,P|454:169|457:140,1,79.1199973439942,2|0,0:2|1:2,0:0:0:0:
268,70,19630,6,0,P|280:145|286:242,1,158.239994687988,10|2,0:2|1:2,0:0:0:0:
173,75,20147,1,8,0:2:0:0:
126,212,20319,1,2,1:2:0:0:
126,212,20406,1,8,0:2:0:0:
126,212,20492,1,2,1:2:0:0:
249,150,20664,1,2,1:2:0:0:
71,133,20837,1,10,0:2:0:0:
218,244,21009,1,10,0:2:0:0:
34,352,21181,6,0,L|80:341,1,30.9600007558594,2|0,1:2|0:0,0:0:0:0:
167,311,21354,2,0,L|121:300,1,30.9600007558594,2|0,1:2|0:0,0:0:0:0:
52,177,21526,2,0,L|69:275,1,87.7200005354004,14|0,0:2|0:2,0:0:0:0:
157,340,21871,2,0,L|166:310,1,30.9600007558594,2|0,1:2|0:0,0:0:0:0:
242,225,22044,2,0,L|251:254,1,30.9600007558594,0|0,1:2|0:0,0:0:0:0:
353,365,22216,2,0,L|253:351,1,87.7200005354004,14|0,0:2|1:2,0:0:0:0:
370,243,22561,6,0,L|347:286,1,30.9600007558594,2|0,1:2|0:0,0:0:0:0:
461,331,22733,2,0,L|446:303,1,30.9600007558594,0|0,1:2|0:0,0:0:0:0:
397,159,22906,2,0,P|441:185|459:229,1,87.7200005354004,14|0,0:2|0:2,0:0:0:0:
341,231,23250,2,0,L|369:242,1,30.9600007558594,0|0,1:2|0:0,0:0:0:0:
425,147,23423,2,0,L|396:158,1,30.9600007558594,0|0,1:2|0:0,0:0:0:0:
267,67,23595,2,0,P|291:104|305:149,1,87.7200005354004,14|2,0:2|0:2,0:0:0:0:
434,35,23940,6,0,B|332:20|365:84|254:65,1,175.440001070801,6|10,1:2|0:2,0:0:0:0:
143,102,24457,2,0,P|166:65|180:23,1,87.7200005354004,2|0,0:2|1:2,0:0:0:0:
222,148,24802,1,2,1:2:0:0:
90,33,24975,2,0,P|46:23|-10:25,1,87.7200005354004,10|0,0:2|1:2,0:0:0:0:
129,187,25319,6,0,P|142:145|142:99,1,87.7200005354004,2|2,0:2|1:2,0:0:0:0:
45,291,25664,1,10,0:2:0:0:
29,121,25837,1,2,1:2:0:0:
29,121,25923,1,0,1:2:0:0:
29,121,26009,1,0,1:2:0:0:
130,221,26181,1,0,1:2:0:0:
247,128,26354,2,0,P|290:120|333:132,1,87.7200005354004,8|8,0:2|0:2,0:0:0:0:
364,154,26613,1,8,0:2:0:0:
364,154,26699,6,0,P|355:191|351:238,1,70.5200010760498,0|0,1:2|0:2,0:0:0:0:
443,365,27044,2,0,P|452:328|456:281,1,70.5200010760498,2|2,1:2|0:2,0:0:0:0:
263,240,27388,2,0,P|291:292|379:308,1,141.0400021521,10|0,0:2|1:2,0:0:0:0:
351,223,27906,1,2,0:2:0:0:
255,367,28078,5,2,1:2:0:0:
133,219,28250,1,10,0:2:0:0:
263,240,28423,1,2,1:2:0:0:
195,293,28595,1,2,0:2:0:0:
301,147,28768,2,0,P|348:133|402:154,2,105.780001614075,10|10|10,0:2|0:2|0:2,0:0:0:0:
138,193,29457,6,0,P|188:188|226:166,1,79.1199973439942,2|0,1:2|0:2,0:0:0:0:
251,83,29802,1,2,1:2:0:0:
74,92,29975,2,0,P|113:93|149:109,1,79.1199973439942,2|8,0:2|0:2,0:0:0:0:
99,183,30319,1,2,0:2:0:0:
251,83,30492,1,2,1:2:0:0:
387,191,30664,2,0,P|350:175|311:173,1,79.1199973439942,2|0,3:2|1:2,0:0:0:0:
233,103,31009,1,2,0:2:0:0:
404,11,31181,6,0,P|419:49|418:101,1,79.1199973439942,8|2,0:2|1:2,0:0:0:0:
403,115,31440,1,0,1:2:0:0:
403,115,31526,2,0,P|388:151|386:190,1,79.1199973439942,2|2,1:2|1:2,0:0:0:0:
236,360,31871,1,10,0:2:0:0:
170,200,32044,2,0,L|154:257,1,39.5599986719971,10|8,0:2|0:2,0:0:0:0:
50,351,32216,6,0,L|80:347,1,30.9600007558594,2|0,1:2|0:0,0:0:0:0:
207,283,32388,2,0,L|177:279,1,30.9600007558594,2|0,1:2|0:0,0:0:0:0:
56,172,32561,2,0,P|70:216|79:267,1,87.7200005354004,14|0,0:2|0:2,0:0:0:0:
169,118,32906,2,0,L|137:111,1,30.9600007558594,2|0,1:2|0:0,0:0:0:0:
19,72,33078,2,0,L|51:65,1,30.9600007558594,0|0,1:2|0:0,0:0:0:0:
204,11,33250,2,0,P|166:13|128:29,1,61.9200015117188,14|2,0:2|0:2,0:0:0:0:
269,158,33595,6,0,L|256:116,1,30.9600007558594,2|0,1:2|0:0,0:0:0:0:
351,29,33768,2,0,L|341:58,1,30.9600007558594,0|0,1:2|0:0,0:0:0:0:
443,202,33940,2,0,P|406:169|363:158,1,87.7200005354004,14|0,0:2|0:2,0:0:0:0:
215,189,34285,2,0,L|260:183,1,30.9600007558594,0|0,1:2|0:0,0:0:0:0:
367,245,34457,2,0,L|322:239,1,30.9600007558594,0|0,1:2|0:0,0:0:0:0:
257,360,34630,2,0,P|252:305|242:258,1,87.7200005354004,14|0,0:2|0:2,0:0:0:0:
87,360,34975,6,0,P|126:340|176:333,1,87.7200005354004,6|0,1:2|0:0,0:0:0:0:
327,300,35319,2,0,P|288:280|245:272,1,87.7200005354004,10|0,0:2|0:0,0:0:0:0:
117,162,35664,2,0,P|140:207|152:262,1,87.7200005354004,2|0,1:2|1:2,0:0:0:0:
288,133,36009,1,10,0:2:0:0:
245,272,36181,1,0,1:2:0:0:
401,164,36354,6,0,P|439:144|482:136,1,87.7200005354004,2|0,1:2|1:2,0:0:0:0:
320,52,36699,2,0,P|297:97|285:152,1,87.7200005354004,8|0,0:2|1:2,0:0:0:0:
295,176,36957,1,0,1:2:0:0:
295,176,37044,1,0,1:2:0:0:
416,43,37216,1,8,0:2:0:0:
218,110,37388,1,4,1:3:0:0:
401,164,37561,1,4,1:3:0:0:
289,282,37733,6,0,P|283:238|269:201,1,79.1199973439942,6|0,1:2|0:2,0:0:0:0:
405,265,38078,2,0,P|392:302|387:341,1,79.1199973439942,10|0,0:2|0:0,0:0:0:0:
216,309,38423,2,0,P|253:288|298:281,1,79.1199973439942,2|0,1:2|1:2,0:0:0:0:
477,292,38768,2,0,P|440:271|395:264,1,79.1199973439942,10|0,0:2|0:2,0:0:0:0:
314,369,39113,6,0,P|352:360|386:341,1,79.1199973439942,2|0,1:2|1:2,0:0:0:0:
271,205,39457,1,8,0:2:0:0:
134,274,39630,2,0,P|129:235|116:198,1,79.1199973439942,0|0,0:2|1:2,0:0:0:0:
216,309,39974,1,2,1:2:0:0:
160,123,40147,1,10,0:2:0:0:
51,257,40319,6,0,P|37:294|33:334,1,79.1199973439942,2|0,1:2|0:2,0:0:0:0:
134,274,40664,1,2,1:2:0:0:
0,171,40837,1,10,0:2:0:0:
148,99,41009,2,0,P|113:79|75:70,1,79.1199973439942,2|0,1:2|0:2,0:0:0:0:
207,18,41354,1,2,1:2:0:0:
177,196,41526,1,10,0:2:0:0:
306,76,41699,6,0,P|340:56|378:47,1,79.1199973439942,2|0,1:2|1:2,0:0:0:0:
278,235,42044,2,0,P|239:225|205:206,1,79.1199973439942,2|8,1:2|0:2,0:0:0:0:
388,142,42388,2,0,P|376:213|369:303,1,158.239994687988,2|0,1:2|1:2,0:0:0:0:
237,128,42906,1,8,0:2:0:0:
237,128,43250,6,0,P|194:124|152:138,1,79.1199973439942,6|0,1:2|0:2,0:0:0:0:
5,223,43595,2,0,P|43:212|82:217,1,79.1199973439942,10|0,0:2|0:2,0:0:0:0:
155,340,43940,1,2,1:2:0:0:
205,206,44113,1,0,1:2:0:0:
349,375,44285,2,0,L|370:294,1,79.1199973439942,10|0,0:2|1:2,0:0:0:0:
205,206,44630,6,0,L|224:282,1,79.1199973439942,2|0,0:2|1:2,0:0:0:0:
380,204,44975,2,0,P|341:211|299:239,1,79.1199973439942,10|0,0:2|1:2,0:0:0:0:
152,342,45319,2,0,P|185:362|224:368,1,79.1199973439942,2|0,0:2|1:2,0:0:0:0:
81,216,45664,1,10,0:2:0:0:
81,216,46009,6,0,P|95:129|102:52,1,158.239994687988,2|10,1:2|0:2,0:0:0:0:
251,0,46526,2,0,P|209:-1|165:20,1,79.1199973439942,2|0,0:2|1:2,0:0:0:0:
200,135,46871,1,2,1:2:0:0:
65,42,47044,1,8,0:2:0:0:
81,216,47216,6,0,P|89:170|94:133,1,79.1199973439942,2|0,1:2|0:0,0:0:0:0:
170,262,47561,1,0,1:2:0:0:
281,87,47733,2,0,P|285:126|293:165,1,79.1199973439942,8|2,0:2|1:2,0:0:0:0:
202,266,48078,1,0,0:2:0:0:
371,207,48251,2,0,P|409:215|443:237,1,79.1199973439942,2|8,1:2|0:2,0:0:0:0:
212,181,48595,1,2,0:2:0:0:
327,347,48768,6,0,P|378:334|432:333,1,106.639995769287,6|0,1:2|0:0,0:0:0:0:
300,261,49285,1,8,0:0:0:0:
443,237,49457,1,8,0:3:0:0:
296,165,49630,1,8,0:3:0:0:
396,104,49802,1,4,0:3:0:0:
396,104,50147,6,0,P|349:62|302:54,1,106.639995769287,8|4,0:3|0:3,0:0:0:0:
207,214,50664,1,8,0:3:0:0:
207,214,50837,2,0,P|258:201|295:164,1,106.639995769287,0|4,0:0|0:3,0:0:0:0:
44,101,51526,5,10,0:0:0:0:
152,300,51699,1,0,1:0:0:0:
240,65,51871,5,10,0:0:0:0:
17,221,52044,1,0,1:0:0:0:
309,357,52216,5,10,0:0:0:0:
142,81,52388,1,10,0:0:0:0:
142,81,52733,6,0,B|248:64|212:142|331:121,1,192.640002351563,6|2,1:2|1:2,0:0:0:0:
129,153,53250,1,10,0:2:0:0:
339,293,53423,2,0,L|354:195,1,96.3200011757813,2|0,0:2|1:2,0:0:0:0:
222,360,53768,1,2,1:2:0:0:
141,133,53940,1,10,0:2:0:0:
353,197,54113,1,2,1:2:0:0:
153,295,54285,6,0,L|54:275,1,96.3200011757813,2|0,1:2|1:2,0:0:0:0:
153,119,54630,1,10,0:2:0:0:
259,334,54802,1,2,0:2:0:0:
408,120,54975,1,2,1:2:0:0:
230,242,55147,1,2,1:2:0:0:
453,342,55319,1,10,0:2:0:0:
205,141,55492,6,0,B|157:115|157:115|18:140,1,192.640002351563,6|2,1:2|1:2,0:0:0:0:
238,40,56009,1,10,0:2:0:0:
127,204,56181,2,0,P|112:241|98:303,1,96.3200011757813,2|0,0:2|1:2,0:0:0:0:
205,132,56526,1,0,1:2:0:0:
292,354,56699,1,10,0:2:0:0:
405,169,56871,6,0,P|452:147|502:144,1,96.3200011757813,2|0,0:2|1:2,0:0:0:0:
375,292,57216,1,0,1:2:0:0:
205,132,57388,2,0,P|140:134|104:247,1,192.640002351563,8|0,0:2|1:2,0:0:0:0:
293,166,57906,1,2,1:2:0:0:
200,376,58078,1,10,0:2:0:0:
405,169,58250,6,0,P|394:256|392:375,1,192.640002351563,6|2,1:2|1:2,0:0:0:0:
293,166,58768,1,10,0:2:0:0:
501,238,58940,1,0,0:2:0:0:
250,275,59113,1,2,1:2:0:0:
468,113,59285,1,2,1:2:0:0:
200,82,59457,1,10,0:2:0:0:
364,268,59630,6,0,P|382:315|392:372,1,96.3200011757813,2|0,0:2|1:2,0:0:0:0:
293,166,59975,1,2,1:2:0:0:
203,357,60147,2,0,B|102:312|128:383|7:337,1,192.640002351563,8|0,0:2|1:2,0:0:0:0:
226,268,60664,1,2,1:2:0:0:
6,152,60837,1,8,0:2:0:0:
72,266,61009,1,2,1:2:0:0:
259,85,61181,5,2,1:2:0:0:
89,183,61354,1,2,1:2:0:0:
343,160,61526,1,10,0:2:0:0:
162,11,61699,1,2,0:2:0:0:
260,259,61871,1,2,1:2:0:0:
399,77,62044,1,2,1:2:0:0:
424,323,62216,2,0,P|438:269|445:222,1,96.3200011757813,8|2,0:2|1:2,0:0:0:0:
314,56,62561,5,8,0:2:0:0:
226,268,62733,1,8,0:2:0:0:
226,268,62819,1,8,0:2:0:0:
226,268,62906,2,0,L|180:303,1,48.1600005878906,8|8,0:2|0:2,0:0:0:0:
4,162,63078,2,0,P|25:226|43:304,1,144.480001763672,4|0,1:2|0:2,0:0:0:0:
104,384,63423,2,0,P|111:351|124:327,1,48.1600005878906,8|8,0:2|0:2,0:0:0:0:
137,161,63595,2,0,P|145:183|150:206,1,48.1600005878906,8|8,0:2|0:2,0:0:0:0:
280,374,63768,6,0,B|307:265|240:288|261:185,1,192.640002351563,2|2,1:2|1:2,0:0:0:0:
395,52,64285,1,10,0:2:0:0:
440,241,64457,2,0,P|397:219|339:218,1,96.3200011757813,2|0,0:2|1:2,0:0:0:0:
208,116,64802,1,2,1:2:0:0:
460,120,64975,1,10,0:2:0:0:
226,230,65147,1,2,1:2:0:0:
416,333,65319,6,0,P|423:285|439:240,1,96.3200011757813,0|2,1:2|1:2,0:0:0:0:
280,374,65664,1,10,0:2:0:0:
133,200,65837,1,2,0:2:0:0:
388,331,66009,1,2,1:2:0:0:
107,347,66181,1,2,1:2:0:0:
349,216,66354,1,10,0:2:0:0:
113,187,66526,6,0,P|67:248|116:352,1,192.640002351563,6|2,1:2|1:2,0:0:0:0:
210,168,67044,1,10,0:2:0:0:
280,374,67216,2,0,P|267:321|250:275,1,96.3200011757813,2|0,0:2|1:2,0:0:0:0:
94,173,67561,1,0,1:2:0:0:
311,103,67733,1,10,0:2:0:0:
105,38,67906,6,0,P|50:35|1:49,1,96.3200011757813,2|0,0:2|1:2,0:0:0:0:
199,192,68250,1,0,1:2:0:0:
400,31,68423,2,0,P|394:121|377:238,1,192.640002351563,8|0,0:2|1:2,0:0:0:0:
240,40,68940,1,2,1:2:0:0:
173,277,69113,1,10,0:2:0:0:
19,144,69285,6,0,B|133:138|83:202|208:192,1,192.640002351563,6|2,1:2|1:2,0:0:0:0:
19,247,69802,1,8,0:2:0:0:
167,112,69975,2,0,P|192:67|197:16,1,96.3200011757813,2|0,0:2|1:2,0:0:0:0:
19,144,70319,2,0,P|25:191|49:232,1,96.3200011757813,2|8,1:2|0:2,0:0:0:0:
266,268,70664,6,0,P|207:263|135:377,1,192.640002351563,2|0,0:2|1:2,0:0:0:0:
328,200,71181,1,10,0:2:0:0:
323,379,71354,2,0,P|276:365|229:360,1,96.3200011757813,2|0,0:2|1:0,0:0:0:0:
164,176,71699,1,2,1:2:0:0:
358,293,71871,1,10,0:2:0:0:
512,123,72044,6,0,B|406:111|447:178|308:153,1,192.640002351563,6|2,1:2|1:2,0:0:0:0:
146,3,72561,1,10,0:2:0:0:
369,71,72733,1,2,0:2:0:0:
164,176,72906,1,0,1:2:0:0:
281,0,73078,1,2,1:2:0:0:
266,268,73250,1,10,0:2:0:0:
158,89,73423,1,2,1:2:0:0:
93,342,73595,5,8,0:2:0:0:
264,178,73768,1,8,0:2:0:0:
264,178,73854,1,8,0:2:0:0:
264,178,73940,2,0,P|288:179|323:199,1,48.1600005878906,8|8,0:2|0:2,0:0:0:0:
363,318,74113,2,0,P|310:369|226:366,1,144.480001763672,4|0,1:2|0:2,0:0:0:0:
207,346,74457,2,0,P|182:321|173:303,1,48.1600005878906,8|8,0:3|0:3,0:0:0:0:
169,152,74630,1,8,0:3:0:0:
180,125,74716,1,8,0:3:0:0:
203,107,74802,1,4,0:3:0:0:
230,97,74888,1,4,0:3:0:0:
259,97,74975,6,0,B|372:94|309:167|450:152,1,192.640002351563,6|10,1:2|0:2,0:0:0:0:
178,31,75492,1,2,1:2:0:0:
228,273,75664,2,0,P|257:225|269:174,1,96.3200011757813,10|0,0:2|1:2,0:0:0:0:
51,61,76009,2,0,P|64:147|73:260,1,192.640002351563,14|8,0:2|0:2,0:0:0:0:
203,107,76526,1,0,1:2:0:0:
147,346,76699,1,10,0:2:0:0:
31,161,76871,1,2,1:2:0:0:
248,292,77044,1,10,0:2:0:0:
72,252,77216,1,2,1:2:0:0:
316,118,77388,1,8,0:2:0:0:
53,65,77561,6,0,P|120:36|203:107,1,192.640002351563,6|2,1:2|1:2,0:0:0:0:
161,333,78078,1,10,0:2:0:0:
119,122,78250,1,2,1:2:0:0:
312,339,78423,1,10,0:2:0:0:
388,102,78595,1,0,1:2:0:0:
143,213,78768,1,10,0:2:0:0:
414,255,78940,1,2,1:2:0:0:
150,315,79113,6,0,P|102:305|59:264,1,96.3200011757813,8|0,0:2|0:2,0:0:0:0:
267,157,79457,2,0,P|303:126|350:117,1,96.3200011757813,8|0,0:2|1:2,0:0:0:0:
268,321,79802,1,8,0:2:0:0:
206,83,79975,1,2,1:2:0:0:
367,254,80147,1,8,0:2:0:0:
121,124,80319,6,0,P|140:218|150:321,1,192.640002351563,6|2,1:2|1:2,0:0:0:0:
218,104,80837,1,10,0:2:0:0:
60,206,81009,2,0,P|43:258|40:316,1,96.3200011757813,2|8,1:2|0:2,0:0:0:0:
121,124,81354,1,0,0:0:0:0:
268,321,81526,1,10,0:2:0:0:
349,116,81699,1,2,1:2:0:0:
186,259,81871,5,8,0:2:0:0:
422,338,82044,1,2,1:2:0:0:
221,95,82216,1,10,0:2:0:0:
268,321,82388,1,2,1:2:0:0:
369,93,82561,1,8,0:2:0:0:
205,247,82733,1,2,1:2:0:0:
441,332,82906,1,10,0:2:0:0:
269,157,83078,1,10,0:2:0:0:
269,157,83164,1,0,0:2:0:0:
269,157,83250,6,0,P|340:111|445:159,1,192.640002351563,6|10,1:2|0:2,0:0:0:0:
283,284,83768,1,2,1:2:0:0:
186,89,83940,5,10,0:2:0:0:
166,300,84113,1,0,1:2:0:0:
286,44,84285,5,10,0:2:0:0:
79,195,84457,1,2,1:2:0:0:
79,195,84544,1,0,1:2:0:0:
79,195,84630,5,8,0:2:0:0:
299,263,84802,1,2,1:2:0:0:
25,309,84975,5,8,0:2:0:0:
254,167,85147,1,2,1:2:0:0:
0,91,85319,5,8,0:2:0:0:
244,198,85492,1,0,1:2:0:0:
55,332,85664,5,12,0:2:0:0:
202,68,85837,1,0,3:2:0:0:
428,268,86009,6,0,B|250:225|340:352|156:313|136:238|161:171,1,357.759997816406,6|6,1:2|1:2,0:0:0:0:
248,133,87992,6,0,L|287:118,2,30.9600007558594,4|4|4,0:3|0:3|0:3,0:0:0:0:
