osu file format v14

[General]
AudioFilename: audio.mp3
AudioLeadIn: 0
PreviewTime: 52647
Countdown: 0
SampleSet: Soft
StackLeniency: 0.2
Mode: 0
LetterboxInBreaks: 0
WidescreenStoryboard: 0

[Editor]
DistanceSpacing: 1
BeatDivisor: 4
GridSize: 32
TimelineZoom: 2.3

[Metadata]
Title:Kimi no Sei (TV Size)
TitleUnicode:君のせい (TV Size)
Artist:the peggies
ArtistUnicode:the peggies
Creator:Sotarks
Version:NiNo's Insane
Source:青春ブタ野郎はバニーガール先輩の夢を見ない
Tags:Seishun Buta Yarō Yarou wa Yumemiru Shōjo Shoujo no Yume o Minai ao-buta Puberty Syndrome: Abnormal experiences during adolescence due to sensitivity and instability. Rascal Does Not Dream of Bunny Girl Senpai opening op akitoshi corinn -laura- ayyri eiri- snownino_ kencho reform kujinn onlybiscuit
BeatmapID:1810299
BeatmapSetID:865746

[Difficulty]
HPDrainRate:5
CircleSize:4
OverallDifficulty:8
ApproachRate:9
SliderMultiplier:1.8
SliderTickRate:1

[Events]
//Background and Video events
0,0,"bg.jpg",0,0
Video,-350,"video.mp4"
//Break Periods
//Storyboard Layer 0 (Background)
//Storyboard Layer 1 (Fail)
//Storyboard Layer 2 (Pass)
//Storyboard Layer 3 (Foreground)
//Storyboard Sound Samples

[TimingPoints]
-887,344.827586206897,4,2,22,42,1,0
319,-133.333333333333,4,2,22,42,0,0
10147,-100,4,2,22,62,0,0
15664,-100,4,2,22,52,0,0
18423,-133.333333333333,4,2,22,52,0,0
51526,-100,4,2,22,62,0,0
52733,-100,4,2,22,82,0,1
86009,-100,4,2,22,72,0,0
86095,-100,4,2,22,62,0,0
87906,-100,4,2,22,5,0,0
87992,-100,4,2,22,62,0,0

[Colours]
Combo1 : 194,94,255
Combo2 : 245,155,255
Combo3 : 148,107,107
Combo4 : 245,109,113

[HitObjects]
289,111,320,6,0,L|145:102,1,135.000005149842,2|2,0:0|0:0,0:0:0:0:
82,141,838,1,2,0:0:0:0:
82,141,1010,2,0,P|94:187|92:224,1,67.5000025749208,2|0,0:0|0:0,0:0:0:0:
160,253,1355,2,0,P|148:299|150:336,2,67.5000025749208,2|2|2,0:0|0:0|0:0,0:0:0:0:
222,201,1872,2,0,P|219:167|209:135,1,67.5000025749208,2|0,0:0|0:0,0:0:0:0:
287,247,2217,2,0,P|275:293|277:330,2,67.5000025749208,2|2|2,0:0|0:0|0:0,0:0:0:0:
349,195,2734,2,0,P|346:161|336:129,1,67.5000025749208,2|2,0:0|0:0,0:0:0:0:
301,55,3079,6,0,P|338:95|437:88,1,135.000005149842,2|2,0:0|0:0,0:0:0:0:
487,63,3596,1,2,0:0:0:0:
487,63,3769,2,0,P|463:92|485:197,1,135.000005149842,2|0,0:0|0:0,0:0:0:0:
490,262,4286,1,2,0:0:0:0:
490,262,4458,2,0,L|331:251,1,135.000005149842,2|0,0:0|0:0,0:0:0:0:
273,244,4976,2,0,L|193:238,1,67.5000025749208,0|0,0:0|0:0,0:0:0:0:
125,234,5320,2,0,L|45:228,2,67.5000025749208,0|2|2,0:0|0:0|0:0,0:0:0:0:
206,239,5838,6,0,P|226:193|199:106,1,135.000005149842,2|2,0:0|0:0,0:0:0:0:
209,32,6355,2,0,L|297:38,1,67.5000025749208,2|0,0:0|0:0,0:0:0:0:
316,107,6700,2,0,L|404:101,1,67.5000025749208,2|2,0:0|0:0,0:0:0:0:
464,93,7045,1,2,0:0:0:0:
431,167,7217,2,0,P|420:205|428:247,1,67.5000025749208,0|0,0:0|0:0,0:0:0:0:
411,312,7562,1,2,0:0:0:0:
411,312,7734,2,0,P|358:311|327:299,1,67.5000025749208,0|0,0:0|0:0,0:0:0:0:
291,245,8079,2,0,P|238:246|207:258,1,67.5000025749208,0|0,0:0|0:0,0:0:0:0:
173,313,8424,2,0,P|120:312|89:300,1,67.5000025749208,0|0,0:0|1:0,0:0:0:0:
224,250,8769,5,0,1:0:0:0:
224,250,10148,6,0,L|219:132,1,90,14|0,0:2|1:2,0:0:0:0:
313,6,10493,1,10,0:2:0:0:
267,83,10665,1,0,1:2:0:0:
445,85,10838,1,10,0:2:0:0:
356,84,11010,1,0,1:2:0:0:
442,240,11182,1,10,0:2:0:0:
399,162,11355,1,0,1:2:0:0:
307,316,11527,6,0,L|217:315,1,90,10|0,0:2|1:2,0:0:0:0:
353,239,11872,2,0,L|444:240,1,90,10|0,0:2|1:2,0:0:0:0:
310,161,12217,1,10,0:2:0:0:
264,238,12389,1,0,1:2:0:0:
267,83,12562,1,10,0:2:0:0:
221,160,12734,1,0,0:0:0:0:
224,5,12907,6,0,L|315:6,1,90,14|0,0:2|1:2,0:0:0:0:
178,82,13251,2,0,L|88:81,1,90,10|0,0:2|1:2,0:0:0:0:
175,237,13596,1,10,0:2:0:0:
275,91,13768,1,0,1:2:0:0:
272,246,13941,1,10,0:2:0:0:
178,82,14114,1,8,0:2:0:0:
178,82,14199,1,8,0:2:0:0:
178,82,14285,5,6,1:2:0:0:
356,84,14516,5,2,1:2:0:0:
175,237,14746,5,2,1:2:0:0:
399,318,14976,5,14,0:2:0:0:
399,318,15493,1,8,0:2:0:0:
399,318,15579,1,8,0:2:0:0:
399,318,15665,5,4,1:2:0:0:
392,282,16010,1,2,1:2:0:0:
385,246,16355,1,2,1:2:0:0:
378,210,16700,1,0,1:2:0:0:
302,163,17045,5,2,1:2:0:0:
309,127,17388,1,0,1:2:0:0:
316,91,17733,1,2,1:2:0:0:
323,55,18078,1,2,1:2:0:0:
237,20,18424,6,0,L|145:26,1,67.5000025749208,6|0,1:2|0:0,0:0:0:0:
88,30,18769,1,2,1:2:0:0:
88,30,18941,2,0,P|97:74|91:108,1,67.5000025749208,2|8,1:2|0:2,0:0:0:0:
27,142,19286,2,0,P|18:174|20:208,1,67.5000025749208,2|0,0:2|1:2,0:0:0:0:
68,273,19631,1,10,0:2:0:0:
68,273,19803,6,0,L|212:260,1,135.000005149842,0|8,0:2|0:2,0:0:0:0:
253,197,20320,1,2,1:2:0:0:
253,197,20407,1,8,0:2:0:0:
253,197,20493,2,0,L|325:203,1,67.5000025749208,2|2,1:2|1:2,0:0:0:0:
395,173,20838,1,10,0:2:0:0:
331,123,21010,1,10,0:2:0:0:
406,93,21182,5,2,1:2:0:0:
406,93,21355,1,2,1:2:0:0:
384,253,21527,2,0,L|373:337,1,67.5000025749208,14|0,0:2|0:2,0:0:0:0:
320,203,21872,1,2,1:2:0:0:
320,203,22217,2,0,L|253:197,1,67.5000025749208,14|0,0:2|1:2,0:0:0:0:
203,132,22562,6,0,L|135:138,1,67.5000025749208,2|0,1:2|1:2,0:0:0:0:
259,70,22907,2,0,L|400:82,1,135.000005149842,14|0,0:2|1:2,0:0:0:0:
419,159,23424,1,0,1:2:0:0:
320,203,23596,2,0,L|253:197,1,67.5000025749208,14|2,0:2|0:2,0:0:0:0:
203,132,23941,6,0,P|222:171|171:254,1,135.000005149842,6|10,1:2|0:2,0:0:0:0:
110,281,24458,2,0,P|157:274|215:348,1,135.000005149842,2|2,0:2|1:2,0:0:0:0:
289,363,24976,2,0,P|341:359|368:343,1,67.5000025749208,10|0,0:2|1:2,0:0:0:0:
375,274,25320,6,0,P|323:278|296:294,2,67.5000025749208,2|2|10,0:2|1:2|0:2,0:0:0:0:
432,331,25838,2,0,P|409:289|439:205,1,135.000005149842,2|0,1:2|1:2,0:0:0:0:
496,158,26355,2,0,P|503:123|494:86,1,67.5000025749208,8|8,0:2|0:2,0:0:0:0:
479,55,26614,1,8,0:2:0:0:
479,55,26700,6,0,L|402:60,1,67.5000025749208,0|0,1:2|0:2,0:0:0:0:
341,100,27045,1,2,1:2:0:0:
411,139,27217,1,2,0:2:0:0:
271,61,27389,1,10,0:2:0:0:
271,61,27907,1,2,0:2:0:0:
272,141,28079,5,2,1:2:0:0:
340,20,28251,1,10,0:2:0:0:
271,61,28423,1,2,1:2:0:0:
341,100,28596,1,2,0:2:0:0:
411,139,28769,2,0,L|526:143,2,101.250003862381,10|10|10,0:2|0:2|0:2,0:0:0:0:
341,100,29458,6,0,P|331:142|340:178,1,67.5000025749208,2|0,1:2|0:2,0:0:0:0:
398,216,29803,1,2,1:2:0:0:
398,216,29976,2,0,P|408:258|399:294,1,67.5000025749208,2|8,0:2|0:2,0:0:0:0:
338,329,30320,2,0,L|250:325,2,67.5000025749208,2|2|2,0:2|1:2|3:2,0:0:0:0:
404,281,30838,5,0,1:2:0:0:
413,363,31010,1,2,0:2:0:0:
329,247,31182,2,0,L|241:243,1,67.5000025749208,8|2,0:2|1:2,0:0:0:0:
245,281,31441,1,0,1:2:0:0:
245,281,31527,2,0,L|157:285,1,67.5000025749208,2|2,1:2|1:2,0:0:0:0:
98,266,31872,1,10,0:2:0:0:
153,207,32045,1,10,0:2:0:0:
153,207,32131,1,8,0:2:0:0:
153,207,32217,5,2,1:2:0:0:
177,284,32389,1,2,1:2:0:0:
208,148,32562,2,0,L|204:70,1,67.5000025749208,14|0,0:2|0:2,0:0:0:0:
232,225,32907,5,2,1:2:0:0:
287,166,33079,1,0,1:2:0:0:
153,207,33251,2,0,L|75:202,1,67.5000025749208,14|2,0:2|0:2,0:0:0:0:
208,148,33596,5,2,1:2:0:0:
232,225,33769,1,0,1:2:0:0:
129,130,33941,2,0,L|125:52,1,67.5000025749208,14|0,0:2|0:2,0:0:0:0:
153,207,34286,5,0,1:2:0:0:
208,148,34458,1,0,1:2:0:0:
74,188,34631,2,0,L|-4:183,1,67.5000025749208,14|0,0:2|0:2,0:0:0:0:
176,285,34976,6,0,L|243:289,1,67.5000025749208,6|0,1:2|0:0,0:0:0:0:
301,345,35320,2,0,L|368:340,1,67.5000025749208,10|0,0:2|0:0,0:0:0:0:
449,336,35665,2,0,P|441:298|452:252,1,67.5000025749208,2|0,1:2|1:2,0:0:0:0:
493,205,36010,2,0,P|501:167|490:121,1,67.5000025749208,10|0,0:2|1:2,0:0:0:0:
470,62,36355,6,0,L|327:71,1,135.000005149842,2|8,1:2|0:2,0:0:0:0:
280,130,36872,1,0,1:2:0:0:
280,130,36958,1,0,1:2:0:0:
280,130,37045,1,0,1:2:0:0:
358,148,37217,1,8,0:2:0:0:
303,208,37389,1,4,1:3:0:0:
381,226,37562,1,4,1:3:0:0:
326,286,37734,6,0,L|186:278,1,135.000005149842,6|10,1:2|0:2,0:0:0:0:
110,272,38251,1,0,0:0:0:0:
110,272,38424,2,0,P|120:234|114:189,1,67.5000025749208,2|0,1:2|1:2,0:0:0:0:
46,167,38769,2,0,P|45:133|54:101,1,67.5000025749208,10|0,0:2|0:2,0:0:0:0:
118,50,39114,6,0,L|263:62,1,135.000005149842,2|8,1:2|0:2,0:0:0:0:
280,137,39631,2,0,L|352:130,1,67.5000025749208,0|0,0:2|1:2,0:0:0:0:
409,79,39976,1,10,0:0:0:0:
409,79,40148,1,8,0:0:0:0:
457,143,40320,6,0,P|431:178|450:274,1,135.000005149842,2|2,1:2|1:2,0:0:0:0:
497,324,40838,1,10,0:2:0:0:
418,343,41010,2,0,L|261:336,1,135.000005149842,2|2,1:2|1:2,0:0:0:0:
209,302,41527,1,10,0:2:0:0:
276,255,41700,6,0,P|282:211|272:172,1,67.5000025749208,2|0,1:2|1:2,0:0:0:0:
207,148,42045,2,0,P|202:114|209:81,1,67.5000025749208,2|8,1:2|0:2,0:0:0:0:
270,28,42389,2,0,P|326:50|419:44,1,135.000005149842,2|0,1:2|1:2,0:0:0:0:
479,28,42907,2,0,L|484:112,1,67.5000025749208,8|0,0:2|0:0,0:0:0:0:
413,136,43251,6,0,L|408:220,1,67.5000025749208,6|0,1:2|0:2,0:0:0:0:
477,246,43596,2,0,L|482:330,1,67.5000025749208,10|0,0:2|0:2,0:0:0:0:
428,375,43941,2,0,P|391:341|285:346,1,135.000005149842,2|10,1:2|0:2,0:0:0:0:
231,357,44458,1,0,1:2:0:0:
231,357,44631,6,0,L|226:280,1,67.5000025749208,2|0,0:2|1:2,0:0:0:0:
160,242,44976,2,0,L|165:165,1,67.5000025749208,10|0,0:2|1:2,0:0:0:0:
166,93,45320,2,0,P|202:85|244:92,1,67.5000025749208,2|0,0:2|1:2,0:0:0:0:
291,144,45665,2,0,P|327:152|369:145,1,67.5000025749208,10|0,0:2|0:2,0:0:0:0:
430,113,46010,6,0,P|394:145|414:240,1,135.000005149842,2|10,1:2|0:2,0:0:0:0:
421,304,46527,2,0,L|352:308,1,67.5000025749208,2|0,0:2|1:2,0:0:0:0:
296,366,46872,2,0,L|227:361,1,67.5000025749208,2|8,1:2|0:2,0:0:0:0:
147,366,47217,6,0,P|195:340|192:240,1,135.000005149842,2|0,1:2|1:2,0:0:0:0:
147,210,47734,1,8,0:2:0:0:
224,186,47907,2,0,L|319:193,1,67.5000025749208,2|0,1:2|0:2,0:0:0:0:
349,247,48251,2,0,L|444:240,2,67.5000025749208,2|8|2,1:2|0:2|0:2,0:0:0:0:
270,268,48769,6,0,L|120:256,1,135.000005149842,6|0,1:2|0:0,0:0:0:0:
57,281,49286,1,8,0:0:0:0:
57,281,49458,2,0,P|96:258|92:153,1,135.000005149842,8|4,0:3|0:3,0:0:0:0:
222,60,50148,6,0,L|384:74,1,135.000005149842,8|4,0:3|0:3,0:0:0:0:
434,50,50665,2,0,B|391:83|391:83|397:179,1,135.000005149842,8|0,0:3|0:0,0:0:0:0:
400,244,51182,1,4,0:3:0:0:
400,244,51527,6,0,L|305:237,1,90,10|0,0:0|1:0,0:0:0:0:
285,150,51872,2,0,L|190:157,1,90,10|0,0:0|1:0,0:0:0:0:
260,63,52217,1,10,0:0:0:0:
310,237,52389,1,10,0:0:0:0:
310,237,52734,6,0,L|114:251,1,180,6|2,1:2|1:2,0:0:0:0:
285,150,53251,1,10,0:2:0:0:
373,172,53424,2,0,P|399:218|397:263,1,90,2|0,0:2|1:2,0:0:0:0:
335,324,53769,1,2,1:2:0:0:
310,237,53941,1,10,0:2:0:0:
285,150,54114,1,2,1:2:0:0:
373,172,54286,6,0,P|399:218|397:263,1,90,2|0,1:2|1:2,0:0:0:0:
335,324,54631,1,10,0:2:0:0:
310,237,54803,1,2,0:2:0:0:
285,150,54976,1,2,1:2:0:0:
373,172,55148,2,0,P|399:218|397:263,1,90,2|10,1:2|0:2,0:0:0:0:
247,302,55493,6,0,P|221:256|223:211,1,90,6|0,1:2|0:0,0:0:0:0:
285,150,55838,1,2,1:2:0:0:
310,237,56009,1,10,0:2:0:0:
373,172,56181,2,0,P|370:121|244:67,1,180,2|0,0:2|1:2,0:0:0:0:
202,120,56699,2,0,P|240:144|285:150,1,90,10|2,0:2|0:2,0:0:0:0:
181,33,57044,5,0,1:2:0:0:
116,94,57217,1,0,1:2:0:0:
202,120,57389,1,8,0:2:0:0:
137,181,57561,1,0,0:0:0:0:
223,207,57734,1,0,1:2:0:0:
158,268,57907,1,2,1:2:0:0:
244,294,58078,1,10,0:2:0:0:
137,181,58250,6,0,P|101:198|91:330,1,180,6|2,1:2|1:2,0:0:0:0:
157,267,58768,2,0,L|244:293,1,90,10|0,0:2|0:2,0:0:0:0:
265,380,59113,2,0,P|301:363|311:231,1,180,2|10,1:2|0:2,0:0:0:0:
243,185,59631,6,0,P|237:128|252:95,1,90,2|0,0:2|1:2,0:0:0:0:
260,9,59976,1,2,1:2:0:0:
332,62,60148,2,0,P|338:119|323:152,1,90,8|0,0:2|0:0,0:0:0:0:
243,185,60493,1,0,1:2:0:0:
316,237,60665,1,2,1:2:0:0:
234,274,60838,1,8,0:2:0:0:
307,326,61010,1,2,1:2:0:0:
389,289,61182,6,0,L|486:286,1,90,2|2,1:2|1:2,0:0:0:0:
316,237,61527,1,10,0:2:0:0:
234,274,61700,2,0,L|144:276,1,90,2|2,0:2|1:2,0:0:0:0:
53,274,62045,2,0,P|70:220|58:169,1,90,2|8,1:2|0:2,0:0:0:0:
12,115,62389,1,2,1:2:0:0:
101,106,62562,5,8,0:2:0:0:
155,179,62734,1,8,0:2:0:0:
177,179,62820,1,8,0:2:0:0:
199,180,62907,2,0,L|251:181,1,45,8|0,0:2|0:0,0:0:0:0:
332,184,63079,2,0,L|437:188,1,90,4|0,1:2|0:0,0:0:0:0:
332,275,63424,1,8,0:2:0:0:
310,274,63510,1,8,0:2:0:0:
287,273,63596,1,8,0:2:0:0:
265,272,63682,1,8,0:2:0:0:
242,271,63769,6,0,L|35:263,1,180,2|2,1:2|1:2,0:0:0:0:
13,188,64286,1,10,0:2:0:0:
104,184,64458,2,0,P|141:221|151:279,1,90,2|0,0:2|1:2,0:0:0:0:
111,340,64803,1,2,1:2:0:0:
62,264,64976,1,10,0:2:0:0:
13,188,65148,1,2,1:2:0:0:
104,184,65320,6,0,P|141:221|151:279,1,90,0|2,1:2|1:2,0:0:0:0:
111,340,65665,1,10,0:2:0:0:
62,264,65838,1,2,0:2:0:0:
13,188,66010,1,2,1:2:0:0:
104,184,66182,2,0,P|141:221|151:279,1,90,2|10,1:2|0:2,0:0:0:0:
13,188,66527,6,0,P|42:117|163:115,1,180,6|2,1:2|1:2,0:0:0:0:
194,168,67045,1,10,0:2:0:0:
104,184,67217,2,0,P|126:230|254:240,1,180,2|0,0:2|1:2,0:0:0:0:
287,166,67734,1,10,0:2:0:0:
194,168,67907,1,2,0:2:0:0:
335,245,68079,5,0,1:2:0:0:
242,247,68250,1,0,1:2:0:0:
380,164,68423,2,0,L|485:160,1,90,8|0,0:2|0:0,0:0:0:0:
332,85,68769,2,0,L|242:88,1,90,0|2,1:2|1:2,0:0:0:0:
152,91,69114,1,10,0:2:0:0:
287,166,69286,6,0,P|312:208|308:269,1,90,6|0,1:2|0:0,0:0:0:0:
224,231,69631,2,0,L|135:238,1,90,2|8,1:2|0:2,0:0:0:0:
72,303,69976,2,0,P|49:266|45:221,1,90,2|0,0:2|1:2,0:0:0:0:
103,151,70320,2,0,P|126:113|130:68,1,90,2|8,1:2|0:2,0:0:0:0:
40,83,70665,1,2,0:2:0:0:
103,151,70838,6,0,L|211:145,1,90,0|0,0:0|1:2,0:0:0:0:
243,71,71182,1,10,0:2:0:0:
332,75,71355,2,0,L|440:81,1,90,2|0,0:2|1:0,0:0:0:0:
511,84,71699,1,2,1:2:0:0:
506,172,71872,1,10,0:2:0:0:
501,261,72045,6,0,L|495:369,1,90,6|0,1:2|0:0,0:0:0:0:
406,345,72389,1,2,1:2:0:0:
410,255,72562,1,10,0:2:0:0:
320,250,72734,2,0,L|212:244,1,90,2|0,0:2|1:2,0:0:0:0:
183,167,73079,2,0,L|75:173,1,90,2|10,1:2|0:2,0:0:0:0:
19,119,73424,1,2,1:2:0:0:
61,39,73596,5,8,0:2:0:0:
144,78,73768,1,8,0:2:0:0:
167,77,73854,1,8,0:2:0:0:
189,76,73940,1,8,0:2:0:0:
211,75,74027,1,8,0:2:0:0:
239,39,74114,2,0,L|328:43,1,90,4|0,1:2|0:0,0:0:0:0:
436,28,74458,1,8,0:3:0:0:
423,46,74544,1,8,0:3:0:0:
414,67,74630,1,8,0:3:0:0:
410,89,74716,1,8,0:3:0:0:
410,111,74802,1,4,0:3:0:0:
416,133,74889,1,4,0:3:0:0:
426,153,74976,6,0,P|441:200|428:250,1,90,6|0,1:2|0:2,0:0:0:0:
279,256,75320,5,10,0:2:0:0:
351,203,75493,1,2,1:2:0:0:
189,131,75664,5,8,1:2:0:0:
270,167,75838,1,2,0:2:0:0:
126,273,76010,5,14,0:2:0:0:
198,220,76181,1,0,0:0:0:0:
36,148,76355,6,0,L|136:192,1,90,8|0,0:2|1:2,0:0:0:0:
270,167,76700,5,10,0:2:0:0:
198,220,76872,1,2,1:2:0:0:
351,203,77045,5,10,0:2:0:0:
279,256,77216,1,2,1:2:0:0:
432,239,77389,1,8,0:2:0:0:
270,167,77562,6,0,P|189:130|110:197,1,180,6|2,1:2|1:2,0:0:0:0:
279,256,78079,5,10,0:2:0:0:
198,220,78251,1,2,1:2:0:0:
351,203,78424,5,10,0:2:0:0:
270,167,78596,1,0,1:2:0:0:
423,150,78769,5,10,0:2:0:0:
342,114,78941,1,2,1:2:0:0:
495,97,79114,5,8,0:2:0:0:
504,186,79286,1,0,0:2:0:0:
414,61,79458,5,8,0:2:0:0:
495,97,79630,1,0,1:2:0:0:
342,114,79803,5,8,0:2:0:0:
414,61,79976,1,2,1:2:0:0:
351,203,80148,1,8,0:2:0:0:
504,186,80320,6,0,L|496:93,1,90,6|0,1:2|0:0,0:0:0:0:
414,61,80665,1,2,1:2:0:0:
432,239,80838,5,10,0:2:0:0:
423,150,81010,1,2,1:2:0:0:
360,292,81182,5,8,0:2:0:0:
351,203,81354,1,0,0:0:0:0:
288,345,81526,5,10,0:2:0:0:
279,256,81700,1,2,1:2:0:0:
441,328,81872,5,8,0:2:0:0:
360,292,82045,1,2,1:2:0:0:
504,186,82217,5,10,0:2:0:0:
432,239,82389,1,2,1:2:0:0:
414,61,82562,5,8,0:2:0:0:
423,150,82734,1,2,1:2:0:0:
261,78,82907,6,0,L|139:73,1,90,10|10,0:2|0:2,0:0:0:0:
130,94,83165,1,0,0:2:0:0:
130,94,83251,5,6,1:2:0:0:
58,149,83424,1,0,0:2:0:0:
226,219,83596,5,10,0:2:0:0:
142,184,83769,1,2,1:2:0:0:
286,74,83941,5,10,0:2:0:0:
214,129,84114,1,0,1:2:0:0:
382,199,84286,5,10,0:2:0:0:
305,171,84457,1,2,1:2:0:0:
305,171,84545,1,0,1:2:0:0:
305,171,84631,5,8,0:2:0:0:
322,344,84803,1,2,1:2:0:0:
382,199,84976,5,8,0:2:0:0:
238,309,85148,1,2,1:2:0:0:
370,109,85320,5,8,0:2:0:0:
394,289,85493,1,0,1:2:0:0:
454,144,85665,5,12,0:2:0:0:
310,254,85838,1,0,3:2:0:0:
466,234,86010,6,0,P|427:375|305:271,1,360,6|0,1:2|0:0,0:0:0:0:
46,150,87389,6,0,P|77:34|183:113,1,270,6|0,1:2|0:0,0:0:0:0:
213,131,87992,2,0,L|208:199,2,45,4|4|4,0:3|0:3|0:3,0:0:0:0:
