osu file format v14

[General]
AudioFilename: audio.mp3
AudioLeadIn: 0
PreviewTime: 52647
Countdown: 0
SampleSet: Soft
StackLeniency: 0.5
Mode: 0
LetterboxInBreaks: 0
WidescreenStoryboard: 0

[Editor]
Bookmarks: 969,6486,10624,16141,21658,27176,32693,38210,43727,49245,52995,58900,64417,69934,75452,80969,86486,89245
DistanceSpacing: 2
BeatDivisor: 4
GridSize: 16
TimelineZoom: 1.74

[Metadata]
Title:Kimi no Sei (TV Size)
TitleUnicode:君のせい (TV Size)
Artist:the peggies
ArtistUnicode:the peggies
Creator:Sotarks
Version:Kencho's Insane
Source:青春ブタ野郎はバニーガール先輩の夢を見ない
Tags:Seishun Buta Yarō Yarou wa Yumemiru Shōjo Shoujo no Yume o Minai ao-buta Puberty Syndrome: Abnormal experiences during adolescence due to sensitivity and instability. Rascal Does Not Dream of Bunny Girl Senpai opening op akitoshi corinn -laura- ayyri eiri- snownino_ kencho reform kujinn onlybiscuit
BeatmapID:1815491
BeatmapSetID:865746

[Difficulty]
HPDrainRate:5.5
CircleSize:4
OverallDifficulty:8.3
ApproachRate:9
SliderMultiplier:1.6
SliderTickRate:1

[Events]
//Background and Video events
0,0,"bg.jpg",0,0
Video,-350,"video.mp4"
//Break Periods
//Storyboard Layer 0 (Background)
//Storyboard Layer 1 (Fail)
//Storyboard Layer 2 (Pass)
//Storyboard Layer 3 (Foreground)
//Storyboard Sound Samples

[TimingPoints]
-887,344.827586206897,4,2,2,50,1,0
319,-125,4,2,2,50,0,0
8768,-125,4,2,2,80,0,0
10147,-83.3333333333333,4,2,2,80,0,0
14285,-83.3333333333333,4,2,2,85,0,0
14457,-83.3333333333333,4,2,2,5,0,0
14515,-83.3333333333333,4,2,2,85,0,0
14687,-83.3333333333333,4,2,2,5,0,0
14745,-83.3333333333333,4,2,2,85,0,0
14917,-83.3333333333333,4,2,2,5,0,0
14975,-83.3333333333333,4,2,2,90,0,0
15492,-83.3333333333333,4,2,2,50,0,0
15664,-166.666666666667,4,2,2,50,0,0
18423,-125,4,2,2,60,0,0
21181,-83.3333333333333,4,2,2,70,0,0
23940,-100,4,2,2,60,0,0
26699,-166.666666666667,4,2,2,50,0,0
28768,-83.3333333333333,4,2,2,70,0,0
29457,-125,4,2,2,60,0,0
32216,-83.3333333333333,4,2,2,70,0,0
34975,-100,4,2,2,60,0,0
37733,-100,4,2,2,70,0,0
48768,-125,4,2,2,60,0,0
51526,-100,4,2,2,80,0,0
52216,-100,4,2,2,90,0,0
52733,-83.3333333333333,4,2,2,80,0,1
63681,-83.3333333333333,4,2,2,80,0,0
63768,-83.3333333333333,4,2,2,80,0,1
74888,-83.3333333333333,4,2,2,80,0,0
74975,-83.3333333333333,4,2,2,80,0,1
86009,-166.666666666667,4,2,2,80,0,0

[Colours]
Combo1 : 194,94,255
Combo2 : 245,155,255
Combo3 : 148,107,107
Combo4 : 245,109,113

[HitObjects]
100,100,319,6,0,L|107:228,1,128,0|0,3:2|0:0,0:0:0:0:
112,324,837,1,0,3:2:0:0:
192,272,1009,2,0,P|224:268|255:275,1,64,0|0,0:0|3:2,0:0:0:0:
326,339,1354,6,0,L|388:324,1,64,0|2,0:0|0:3,0:0:0:0:
482,301,1699,1,0,3:2:0:0:
416,232,1871,2,0,P|417:199|428:171,1,64,0|0,0:0|0:0,0:0:0:0:
509,118,2216,6,0,L|465:71,1,64,0|0,3:2|0:0,0:0:0:0:
398,1,2561,1,0,3:2:0:0:
371,93,2733,2,0,P|341:108|312:113,1,64,0|2,0:0|0:3,0:0:0:0:
221,22,3078,6,0,B|237:88|205:80|221:148,1,128,0|0,3:2|0:0,0:0:0:0:
267,233,3595,1,0,3:2:0:0:
173,213,3768,2,0,L|110:222,1,64,0|0,0:0|3:2,0:0:0:0:
25,267,4113,1,0,0:0:0:0:
45,174,4285,1,2,0:3:0:0:
5,360,4457,6,0,L|131:342,1,128,0|0,3:2|0:0,0:0:0:0:
220,382,4975,2,0,P|178:337|178:273,1,128,0|0,3:2|3:0,0:0:0:0:
220,187,5492,1,0,0:0:0:0:
273,267,5664,1,2,0:3:0:0:
308,143,5837,6,0,P|356:102|419:100,1,128,0|0,3:2|0:0,0:0:0:0:
391,192,6354,2,0,P|389:223|399:254,1,64,0|0,3:2|0:0,0:0:0:0:
426,294,6613,1,2,0:3:0:0:
426,294,6699,2,0,L|419:357,1,64,0|0,3:2|0:0,0:0:0:0:
475,213,7044,1,2,0:3:0:0:
323,295,7216,6,0,B|283:304|283:304|199:284,1,128,0|0,3:2|0:0,0:0:0:0:
119,184,7733,2,0,B|128:214|128:214|125:247,1,64,0|0,3:2|0:0,0:0:0:0:
117,294,7992,1,2,0:3:0:0:
117,294,8078,1,0,3:2:0:0:
42,223,8250,1,0,0:0:0:0:
0,371,8423,2,0,P|28:358|63:356,1,64,2|0,0:3|3:2,0:0:0:0:
186,384,8768,5,2,0:0:0:0:
186,384,10147,6,0,L|178:288,1,95.9999970703126,8|2,3:2|3:2,0:0:0:0:
107,138,10492,2,0,L|99:234,1,95.9999970703126,8|2,3:2|3:2,0:0:0:0:
91,329,10837,1,8,3:2:0:0:
20,178,11009,1,2,3:2:0:0:
178,288,11181,2,0,P|226:294|272:279,1,95.9999970703126,8|2,3:2|3:2,0:0:0:0:
224,93,11526,6,0,L|216:189,1,95.9999970703126,8|2,3:2|3:2,0:0:0:0:
358,320,11871,2,0,L|350:224,1,95.9999970703126,8|2,3:2|3:2,0:0:0:0:
342,129,12216,1,8,3:2:0:0:
271,280,12388,1,2,3:2:0:0:
429,170,12561,2,0,P|437:123|423:78,1,95.9999970703126,8|0,3:2|0:0,0:0:0:0:
246,0,12906,6,0,L|238:96,1,95.9999970703126,8|2,3:2|3:2,0:0:0:0:
167,246,13250,2,0,L|159:150,1,95.9999970703126,8|2,3:2|3:2,0:0:0:0:
151,55,13595,1,8,3:2:0:0:
80,206,13768,1,2,3:2:0:0:
238,96,13940,2,0,P|286:90|332:105,1,95.9999970703126,8|8,3:2|3:2,0:0:0:0:
408,163,14199,1,8,0:0:0:0:
408,163,14285,6,0,B|414:210|414:210|398:255,1,95.9999970703126,12|0,3:2|0:0,0:0:0:0:
309,293,14515,2,0,B|303:246|303:246|319:201,1,95.9999970703126,8|0,3:2|0:0,0:0:0:0:
398,256,14745,2,0,B|404:303|404:303|388:348,1,95.9999970703126,8|0,3:2|0:0,0:0:0:0:
220,330,14975,6,0,B|207:235|207:235|239:145|239:145|226:50,1,287.999991210938,12|8,3:2|0:0,0:0:0:0:
249,54,15578,1,8,0:0:0:0:
272,60,15664,5,2,0:0:0:0:
272,60,16009,2,0,L|320:54,1,47.9999985351563,2|0,0:0|0:0,0:0:0:0:
396,29,16354,2,0,B|400:60|400:60|392:92|392:92|396:123,1,95.9999970703126,2|2,0:0|0:0,0:0:0:0:
409,203,16871,1,0,0:0:0:0:
336,238,17044,6,0,P|313:238|290:230,1,47.9999985351563,2|0,0:0|0:0,0:0:0:0:
237,169,17388,2,0,P|214:169|191:177,1,47.9999985351563,2|0,0:0|0:0,0:0:0:0:
144,243,17733,2,0,L|150:291,1,47.9999985351563,2|0,0:0|3:2,0:0:0:0:
82,192,18078,2,0,L|88:144,1,47.9999985351563,2|0,3:2|3:2,0:0:0:0:
93,104,18337,1,0,0:0:0:0:
93,104,18423,6,0,B|62:108|62:108|32:96,2,64,2|0|2,3:2|3:2|3:2,0:0:0:0:
73,26,18940,1,2,3:2:0:0:
170,126,19113,1,8,0:0:0:0:
227,70,19285,2,0,P|258:68|288:78,1,64,0|2,3:2|0:0,0:0:0:0:
150,48,19630,1,8,3:2:0:0:
93,104,19802,6,0,P|62:106|32:96,1,64,2|0,0:0|3:2,0:0:0:0:
150,48,20147,1,8,0:0:0:0:
117,197,20319,1,0,3:2:0:0:
117,197,20406,1,2,0:0:0:0:
117,197,20492,1,2,0:0:0:0:
93,104,20664,1,2,0:0:0:0:
210,223,20837,1,8,0:0:0:0:
49,264,21009,1,8,0:0:0:0:
184,130,21181,6,0,P|232:128|273:151,1,95.9999970703126,2|2,0:0|0:0,0:0:0:0:
345,275,21526,1,8,0:0:0:0:
434,6,21871,6,0,P|386:4|345:27,1,95.9999970703126,2|2,0:0|0:0,0:0:0:0:
273,151,22216,2,0,P|321:153|362:130,1,95.9999970703126,8|0,0:0|0:0,0:0:0:0:
392,92,22475,1,2,0:0:0:0:
392,92,22561,6,0,L|380:187,1,95.9999970703126,2|2,0:0|0:0,0:0:0:0:
362,330,22906,1,8,0:0:0:0:
176,44,23250,6,0,L|188:139,1,95.9999970703126,2|2,0:0|0:0,0:0:0:0:
206,282,23595,1,8,0:0:0:0:
108,177,23768,1,0,0:0:0:0:
249,204,23940,6,0,L|329:194,1,80,2|0,3:2|0:0,0:0:0:0:
428,67,24285,1,8,0:0:0:0:
488,215,24457,1,0,3:2:0:0:
415,158,24630,1,2,0:0:0:0:
474,324,24802,1,2,0:0:0:0:
301,291,24975,2,0,L|381:281,1,80,8|2,3:2|0:0,0:0:0:0:
207,248,25319,5,0,0:0:0:0:
146,343,25492,1,2,0:0:0:0:
112,187,25664,1,8,0:0:0:0:
51,282,25837,1,2,3:2:0:0:
51,282,25923,1,2,0:0:0:0:
51,282,26009,2,0,P|21:256|4:220,1,80,2|2,0:0|0:0,0:0:0:0:
173,92,26354,2,0,P|203:118|220:154,1,80,8|0,3:2|0:0,0:0:0:0:
214,173,26612,1,8,0:0:0:0:
208,192,26699,5,2,3:2:0:0:
208,192,27044,1,2,0:0:0:0:
286,174,27216,1,0,0:0:0:0:
263,251,27388,1,8,0:0:0:0:
341,233,27561,2,0,P|365:232|388:239,1,47.9999985351563,0|0,3:2|3:2,0:0:0:0:
459,276,27906,1,0,3:2:0:0:
318,337,28078,5,2,3:2:0:0:
459,276,28250,1,8,0:0:0:0:
341,262,28423,1,2,0:0:0:0:
388,372,28595,1,0,3:2:0:0:
341,262,28768,6,0,P|334:214|351:171,1,95.9999970703126,8|0,0:0|0:0,0:0:0:0:
438,132,29026,2,0,P|445:84|428:41,1,95.9999970703126,8|0,0:0|0:0,0:0:0:0:
340,0,29285,1,8,0:0:0:0:
262,57,29457,6,0,L|198:63,2,64,2|0|2,3:2|3:2|3:2,0:0:0:0:
350,96,29975,1,0,3:2:0:0:
272,153,30147,2,0,L|208:159,1,64,8|0,0:0|3:2,0:0:0:0:
87,204,30492,2,0,P|80:172|81:140,1,64,2|2,0:0|3:3,0:0:0:0:
207,254,30837,6,0,P|208:286|201:317,1,64,2|0,0:0|3:2,0:0:0:0:
175,164,31181,1,8,0:0:0:0:
267,200,31354,1,0,3:2:0:0:
267,200,31440,1,2,0:0:0:0:
267,200,31526,1,2,0:0:0:0:
180,66,31699,1,2,0:0:0:0:
329,123,31871,1,8,0:0:0:0:
276,40,32044,2,0,L|278:7,1,32,8|2,0:0|0:0,0:0:0:0:
329,123,32216,5,2,0:0:0:0:
391,26,32388,1,2,0:0:0:0:
332,147,32561,2,0,L|344:244,1,95.9999970703126,8|0,0:0|0:0,0:0:0:0:
183,177,32906,5,2,0:0:0:0:
121,80,33078,1,2,0:0:0:0:
180,201,33250,2,0,L|168:298,1,95.9999970703126,8|2,0:0|0:0,0:0:0:0:
162,344,33509,1,2,0:0:0:0:
162,344,33595,5,2,0:0:0:0:
279,260,33768,1,2,0:0:0:0:
396,344,33940,2,0,P|349:354|302:354,1,95.9999970703126,8|0,0:0|0:0,0:0:0:0:
321,160,34285,5,2,0:0:0:0:
202,242,34457,1,2,0:0:0:0:
87,160,34630,2,0,P|134:150|181:150,1,95.9999970703126,8|0,0:0|0:0,0:0:0:0:
22,297,34975,6,0,L|14:217,1,80,2|0,3:2|0:0,0:0:0:0:
95,80,35319,2,0,L|87:160,1,80,8|0,0:0|3:2,0:0:0:0:
143,266,35664,1,2,0:0:0:0:
210,120,35837,1,2,0:0:0:0:
302,250,36009,2,0,P|341:256|378:242,1,80,8|2,3:2|0:0,0:0:0:0:
364,106,36354,6,0,P|339:137|333:176,1,80,0|2,3:2|0:0,0:0:0:0:
462,232,36699,1,8,0:0:0:0:
443,95,36871,1,8,3:2:0:0:
441,79,36957,1,8,0:0:0:0:
439,63,37044,1,8,0:0:0:0:
285,117,37216,1,8,0:0:0:0:
413,169,37388,1,2,3:2:0:0:
315,43,37561,1,2,0:0:0:0:
255,191,37733,6,0,P|251:230|262:268,1,80,6|0,0:0|3:2,0:0:0:0:
409,255,38078,2,0,P|378:232|339:223,1,80,8|0,3:2|3:2,0:0:0:0:
264,357,38423,1,2,0:0:0:0:
340,311,38595,1,2,3:2:0:0:
179,237,38768,2,0,L|173:317,1,80,8|2,0:0|0:0,0:0:0:0:
42,367,39113,5,2,0:3:0:0:
173,317,39285,1,2,0:0:0:0:
51,248,39457,1,8,0:0:0:0:
197,315,39630,2,0,L|277:309,1,80,0|2,3:0|0:0,0:0:0:0:
358,220,39975,5,2,3:2:0:0:
435,341,40147,1,8,0:0:0:0:
367,197,40319,2,0,P|367:158|385:122,1,80,0|0,3:2|0:0,0:0:0:0:
441,245,40664,5,2,0:0:0:0:
297,251,40837,1,8,0:0:0:0:
456,264,41009,2,0,P|490:284|512:317,1,80,0|2,3:2|3:3,0:0:0:0:
377,304,41354,5,0,3:2:0:0:
444,176,41526,1,8,0:0:0:0:
353,307,41699,2,0,P|319:327|280:329,1,80,2|2,3:2|0:3,0:0:0:0:
221,134,42044,6,0,P|231:173|229:212,1,80,2|8,3:2|0:0,0:0:0:0:
93,384,42388,2,0,L|101:304,1,80,2|2,3:2|0:3,0:0:0:0:
114,185,42733,1,2,3:2:0:0:
200,337,42906,2,0,L|279:328,1,80,8|0,0:0|0:0,0:0:0:0:
368,196,43250,6,0,P|331:209|305:239,1,80,6|0,0:0|3:2,0:0:0:0:
449,309,43595,2,0,P|486:296|512:266,1,80,8|0,3:2|3:2,0:0:0:0:
433,149,43940,1,2,3:2:0:0:
374,276,44113,1,2,3:2:0:0:
506,182,44285,2,0,P|513:144|500:105,1,80,8|2,0:0|3:2,0:0:0:0:
323,21,44630,5,2,0:3:0:0:
425,69,44802,1,2,3:2:0:0:
275,123,44975,2,0,L|196:115,1,80,8|2,3:2|3:2,0:0:0:0:
46,169,45319,5,2,0:3:0:0:
94,67,45492,1,2,3:2:0:0:
148,217,45664,2,0,L|140:296,1,80,8|0,0:0|0:0,0:0:0:0:
49,370,46009,6,0,B|88:367|88:367|127:382|127:382|166:379,1,120,2|0,0:0|0:0,0:0:0:0:
206,376,46354,2,0,L|214:297,1,80,8|0,0:0|3:2,0:0:0:0:
226,177,46699,1,2,0:0:0:0:
328,272,46871,1,2,3:2:0:0:
310,92,47044,1,8,0:0:0:0:
426,202,47216,6,0,P|465:196|500:176,1,80,2|0,3:2|0:0,0:0:0:0:
426,82,47561,1,2,3:2:0:0:
500,176,47733,1,8,0:0:0:0:
500,56,47906,2,0,P|461:62|426:82,1,80,2|2,3:2|0:3,0:0:0:0:
362,158,48250,1,2,3:2:0:0:
327,65,48423,1,8,0:0:0:0:
461,175,48595,1,0,3:2:0:0:
298,234,48768,6,0,P|264:287|278:347,1,128,6|0,0:0|0:0,0:0:0:0:
343,300,49285,1,8,0:0:0:0:
279,205,49457,2,0,L|152:227,1,128,2|0,0:0|0:0,0:0:0:0:
0,82,50147,6,0,L|127:104,1,128,2|2,0:0|0:0,0:0:0:0:
190,55,50664,1,2,0:0:0:0:
210,168,50837,2,0,P|176:115|190:55,1,128,0|2,0:0|0:0,0:0:0:0:
190,55,51526,5,8,3:2:0:0:
359,143,51699,1,2,0:0:0:0:
130,213,51871,1,8,3:2:0:0:
375,118,52044,1,2,0:0:0:0:
246,320,52216,5,8,3:2:0:0:
282,34,52388,1,2,3:2:0:0:
282,34,52733,6,0,L|270:130,1,95.9999970703126,6|0,0:0|0:0,0:0:0:0:
246,320,53078,1,2,0:0:0:0:
377,180,53250,1,10,0:3:0:0:
189,216,53423,2,0,L|95:234,1,95.9999970703126,0|2,0:0|0:0,0:0:0:0:
246,320,53768,5,2,0:0:0:0:
377,180,53940,1,10,0:3:0:0:
189,216,54113,1,2,0:3:0:0:
363,297,54285,2,0,L|457:279,1,95.9999970703126,2|2,0:0|0:0,0:0:0:0:
270,129,54630,5,10,0:3:0:0:
246,320,54802,1,0,0:0:0:0:
377,180,54975,1,2,0:0:0:0:
189,216,55147,1,2,0:0:0:0:
363,297,55319,1,10,0:3:0:0:
189,216,55492,6,0,L|1:252,1,191.999994140625,6|2,0:0|0:0,0:0:0:0:
126,143,56009,1,10,0:3:0:0:
157,307,56181,1,0,0:0:0:0:
32,161,56354,5,2,3:2:0:0:
189,216,56526,1,2,0:0:0:0:
63,325,56699,1,10,0:3:0:0:
108,49,56871,6,0,L|126:143,1,95.9999970703126,2|2,0:3|3:2,0:0:0:0:
157,307,57216,1,2,0:0:0:0:
301,104,57388,2,0,L|283:198,1,95.9999970703126,10|0,0:3|0:0,0:0:0:0:
252,362,57733,1,2,3:2:0:0:
189,216,57906,5,2,0:0:0:0:
346,344,58078,1,10,0:3:0:0:
379,145,58250,6,0,P|454:107|478:188,1,191.999994140625,6|2,0:0|0:0,0:0:0:0:
283,198,58768,2,0,P|269:152|276:106,1,95.9999970703126,10|0,0:3|0:0,0:0:0:0:
377,254,59113,1,2,0:0:0:0:
187,196,59285,1,2,0:0:0:0:
379,145,59457,1,10,0:3:0:0:
187,196,59630,6,0,P|139:195|99:172,1,95.9999970703126,2|2,0:3|0:0,0:0:0:0:
52,87,59975,1,2,0:0:0:0:
165,290,60147,2,0,P|213:289|253:266,1,95.9999970703126,10|0,0:3|0:0,0:0:0:0:
300,181,60492,1,2,0:0:0:0:
187,196,60664,5,2,0:0:0:0:
371,271,60837,1,10,0:3:0:0:
345,75,61009,1,2,0:3:0:0:
165,290,61181,5,2,3:2:0:0:
209,102,61354,1,2,3:2:0:0:
281,218,61526,1,10,0:3:0:0:
93,174,61699,1,0,3:0:0:0:
231,8,61871,5,2,0:0:0:0:
187,196,62044,1,2,3:2:0:0:
303,124,62216,1,10,0:3:0:0:
259,312,62388,1,2,0:3:0:0:
93,174,62561,5,2,3:2:0:0:
397,146,62733,1,2,0:0:0:0:
397,146,62819,1,2,0:0:0:0:
397,146,62906,2,0,L|403:98,1,47.9999985351563,10|8,0:3|0:0,0:0:0:0:
330,216,63078,6,0,L|342:312,1,95.9999970703126,6|2,0:0|0:3,0:0:0:0:
242,255,63423,2,0,L|248:207,1,47.9999985351563,12|8,0:0|0:0,0:0:0:0:
342,311,63595,2,0,L|348:359,1,47.9999985351563,10|8,0:3|0:0,0:0:0:0:
230,350,63768,6,0,L|242:254,1,95.9999970703126,6|0,0:0|0:0,0:0:0:0:
266,64,64113,1,2,0:0:0:0:
135,204,64285,1,10,0:3:0:0:
323,168,64457,2,0,L|417:150,1,95.9999970703126,0|2,0:0|0:0,0:0:0:0:
266,64,64802,5,2,0:0:0:0:
135,204,64975,1,10,0:3:0:0:
323,168,65147,1,2,0:3:0:0:
149,87,65319,2,0,L|55:105,1,95.9999970703126,2|2,0:0|0:0,0:0:0:0:
242,255,65664,5,10,0:3:0:0:
266,64,65837,1,0,0:0:0:0:
135,204,66009,1,2,0:0:0:0:
323,168,66181,1,2,0:0:0:0:
149,87,66354,1,10,0:3:0:0:
323,168,66526,6,0,L|511:132,1,191.999994140625,6|2,0:0|0:0,0:0:0:0:
386,241,67044,1,10,0:3:0:0:
355,77,67216,1,0,0:0:0:0:
480,223,67388,5,2,3:2:0:0:
323,168,67561,1,2,0:0:0:0:
449,59,67733,1,10,0:3:0:0:
292,259,67906,6,0,P|252:234|230:192,1,95.9999970703126,2|2,0:3|3:2,0:0:0:0:
243,77,68250,1,2,0:0:0:0:
85,246,68423,2,0,P|125:221|147:179,1,95.9999970703126,10|0,0:3|0:0,0:0:0:0:
134,64,68768,1,2,3:2:0:0:
230,191,68940,5,2,0:0:0:0:
54,155,69113,1,10,0:3:0:0:
292,259,69285,6,0,B|325:263|354:247|354:247|415:263|415:263|444:247|477:251,1,191.999994140625,6|2,0:0|0:0,0:0:0:0:
426,84,69802,2,0,P|404:125|409:173,1,95.9999970703126,10|0,0:3|0:0,0:0:0:0:
460,335,70147,1,2,0:0:0:0:
310,175,70319,1,2,0:0:0:0:
478,251,70492,1,10,0:3:0:0:
292,259,70664,6,0,P|264:298|258:344,1,95.9999970703126,0|2,3:2|0:0,0:0:0:0:
385,255,71009,1,2,0:0:0:0:
234,95,71181,2,0,P|206:134|200:180,1,95.9999970703126,10|0,0:3|0:0,0:0:0:0:
328,91,71526,1,2,0:0:0:0:
159,15,71699,5,2,0:0:0:0:
310,175,71871,1,10,0:3:0:0:
67,267,72044,6,0,B|129:259|129:259|192:279|192:279|254:271,1,191.999994140625,6|2,3:2|3:2,0:0:0:0:
200,181,72561,1,10,0:3:0:0:
122,357,72733,1,0,3:0:0:0:
143,104,72906,5,2,0:0:0:0:
314,336,73078,1,2,3:2:0:0:
105,192,73250,1,10,0:3:0:0:
334,82,73423,1,0,3:0:0:0:
86,27,73595,5,2,3:2:0:0:
391,160,73768,1,2,0:0:0:0:
391,160,73854,1,2,0:0:0:0:
391,160,73940,2,0,L|438:154,1,47.9999985351563,10|2,0:3|0:0,0:0:0:0:
353,248,74113,6,0,L|257:236,1,95.9999970703126,2|2,0:0|0:3,0:0:0:0:
175,131,74457,2,0,P|183:154|182:178,1,47.9999985351563,8|8,0:0|0:0,0:0:0:0:
170,273,74630,2,0,P|146:268|126:256,1,47.9999985351563,10|2,0:3|0:0,0:0:0:0:
49,197,74802,2,0,P|65:179|86:168,1,47.9999985351563,2|2,0:0|0:0,0:0:0:0:
258,236,74975,6,0,P|264:285|248:328,1,95.9999970703126,6|2,0:0|0:0,0:0:0:0:
170,273,75319,1,8,3:2:0:0:
182,177,75492,1,2,0:0:0:0:
258,236,75664,1,8,0:0:0:0:
106,118,75837,1,2,0:0:0:0:
346,199,76009,2,0,P|395:193|431:165,1,95.9999970703126,12|0,3:2|0:0,0:0:0:0:
371,13,76354,6,0,P|351:58|357:103,1,95.9999970703126,8|0,0:0|0:0,0:0:0:0:
431,165,76699,1,8,0:0:0:0:
448,71,76871,1,2,0:0:0:0:
266,135,77044,1,8,0:0:0:0:
414,259,77216,1,2,0:0:0:0:
357,103,77388,1,8,0:0:0:0:
249,229,77561,6,0,P|178:171|189:79,1,191.999994140625,6|2,0:0|0:0,0:0:0:0:
340,197,78078,1,8,0:0:0:0:
323,291,78250,1,2,0:0:0:0:
266,135,78423,1,8,0:0:0:0:
232,323,78595,1,2,0:0:0:0:
175,167,78768,1,8,0:0:0:0:
249,229,78940,1,2,0:0:0:0:
158,261,79113,6,0,L|64:244,1,95.9999970703126,8|0,0:0|0:0,0:0:0:0:
49,58,79457,1,8,0:0:0:0:
175,167,79630,1,2,0:0:0:0:
81,149,79802,1,8,0:0:0:0:
237,94,79975,5,2,0:0:0:0:
207,258,80147,1,8,0:0:0:0:
306,154,80319,2,0,P|353:147|397:163,1,95.9999970703126,6|0,0:0|0:0,0:0:0:0:
336,318,80664,5,2,0:0:0:0:
306,154,80837,1,8,0:0:0:0:
405,258,81009,2,0,P|452:265|496:249,1,95.9999970703126,2|8,0:0|0:0,0:0:0:0:
435,94,81354,5,2,0:0:0:0:
405,258,81526,1,8,0:0:0:0:
279,149,81699,2,0,L|185:132,1,95.9999970703126,2|8,0:0|0:0,0:0:0:0:
155,296,82044,5,2,0:0:0:0:
185,132,82216,1,8,0:0:0:0:
311,241,82388,2,0,L|405:258,1,95.9999970703126,0|8,0:0|0:0,0:0:0:0:
435,94,82733,5,2,0:0:0:0:
405,258,82906,1,8,0:0:0:0:
279,149,83078,1,8,0:0:0:0:
279,149,83164,1,8,0:0:0:0:
279,149,83250,6,0,L|296:55,1,95.9999970703126,12|0,3:2|0:0,0:0:0:0:
233,235,83595,2,0,L|250:329,1,95.9999970703126,8|2,3:2|0:0,0:0:0:0:
377,146,83940,2,0,L|394:52,1,95.9999970703126,8|2,3:2|0:0,0:0:0:0:
135,238,84285,2,0,L|152:332,1,95.9999970703126,8|2,3:2|0:0,0:0:0:0:
118,367,84544,1,2,0:0:0:0:
118,367,84630,6,0,P|166:364|209:382,1,95.9999970703126,8|2,3:2|0:0,0:0:0:0:
394,257,84975,2,0,P|346:254|303:272,1,95.9999970703126,8|2,3:2|0:0,0:0:0:0:
118,147,85319,2,0,P|166:144|209:162,1,95.9999970703126,8|2,3:2|0:0,0:0:0:0:
394,37,85664,2,0,P|346:34|303:52,1,95.9999970703126,8|2,3:2|0:0,0:0:0:0:
318,196,86009,6,0,P|422:189|325:150,1,287.999991210938,6|0,3:2|0:0,0:0:0:0:
490,249,87388,2,0,P|506:204|506:157,1,95.9999970703126,6|0,3:2|0:0,0:0:0:0:
397,62,87992,6,0,L|402:97,2,23.9999992675781,2|2|2,0:0|0:0|0:0,0:0:0:0:
