osu file format v14

[General]
AudioFilename: audio.mp3
AudioLeadIn: 0
PreviewTime: 52647
Countdown: 0
SampleSet: Soft
StackLeniency: 0.7
Mode: 0
LetterboxInBreaks: 0
WidescreenStoryboard: 0

[Editor]
DistanceSpacing: 1
BeatDivisor: 4
GridSize: 32
TimelineZoom: 1.4

[Metadata]
Title:Kimi no Sei (TV Size)
TitleUnicode:君のせい (TV Size)
Artist:the peggies
ArtistUnicode:the peggies
Creator:Sotarks
Version:Akitoshi's Normal
Source:青春ブタ野郎はバニーガール先輩の夢を見ない
Tags:Seishun Buta Yarō Yarou wa Yumemiru Shōjo Shoujo no Yume o Minai ao-buta Puberty Syndrome: Abnormal experiences during adolescence due to sensitivity and instability. Rascal Does Not Dream of Bunny Girl Senpai opening op akitoshi corinn -laura- ayyri eiri- snownino_ kencho reform kujinn onlybiscuit
BeatmapID:1818777
BeatmapSetID:865746

[Difficulty]
HPDrainRate:4
CircleSize:3.2
OverallDifficulty:4
ApproachRate:5
SliderMultiplier:0.999999999999999
SliderTickRate:1

[Events]
//Background and Video events
0,0,"bg.jpg",0,0
Video,-350,"video.mp4"
//Break Periods
//Storyboard Layer 0 (Background)
//Storyboard Layer 1 (Fail)
//Storyboard Layer 2 (Pass)
//Storyboard Layer 3 (Foreground)
//Storyboard Sound Samples

[TimingPoints]
-887,344.827586206897,4,2,22,42,1,0
319,-100,4,2,22,42,0,0
10147,-100,4,2,22,82,0,0
14285,-100,4,2,22,82,0,0
14975,-100,4,2,22,82,0,0
15664,-100,4,2,22,62,0,0
18423,-100,4,2,22,62,0,0
21181,-100,4,2,22,72,0,0
26699,-100,4,2,22,62,0,0
29457,-100,4,2,22,62,0,0
32216,-100,4,2,22,72,0,0
37733,-100,4,2,22,62,0,0
48768,-100,4,2,22,52,0,0
51526,-100,4,2,22,62,0,0
52216,-100,4,2,22,72,0,0
52733,-100,4,2,22,82,0,1
63078,-100,4,2,22,82,0,0
63768,-100,4,2,22,82,0,1
73595,-100,4,2,22,82,0,0
74975,-100,4,2,22,82,0,1
86009,-100,4,2,22,82,0,0
87992,-100,4,2,22,82,0,0

[Colours]
Combo1 : 194,94,255
Combo2 : 245,155,255
Combo3 : 148,107,107
Combo4 : 245,109,113

[HitObjects]
112,359,319,6,0,P|93:318|99:242,1,99.9999999999999,2|0,0:0|0:0,0:0:0:0:
113,218,837,2,0,P|132:177|126:101,1,99.9999999999999,2|0,0:0|0:0,0:0:0:0:
188,39,1526,1,2,0:0:0:0:
256,111,1871,1,2,0:0:0:0:
338,54,2216,2,0,P|407:42|444:55,1,99.9999999999999,2|2,0:0|0:0,0:0:0:0:
478,146,2906,1,2,0:0:0:0:
478,146,3078,2,0,P|450:208|442:302,1,150,2|2,0:0|0:0,0:0:0:0:
360,349,3940,1,0,0:0:0:0:
272,312,4285,5,2,0:0:0:0:
272,312,4457,2,0,L|108:329,1,150,2|0,0:0|0:0,0:0:0:0:
34,278,5319,2,0,P|23:232|32:182,1,99.9999999999999,0|2,0:0|0:0,0:0:0:0:
54,136,5837,2,0,B|96:164|96:164|209:142,1,150,2|2,0:0|0:0,0:0:0:0:
291,124,6699,1,2,0:0:0:0:
376,186,7044,1,2,0:0:0:0:
376,186,7216,6,0,P|438:189|500:111,1,150,0|0,0:0|0:0,0:0:0:0:
454,38,8078,2,0,L|337:31,1,99.9999999999999,0|0,0:0|0:0,0:0:0:0:
253,27,8768,1,0,1:0:0:0:
253,27,10147,6,0,P|192:21|130:16,2,99.9999999999999,14|10|10,0:2|0:2|0:2,0:0:0:0:
352,38,11181,1,10,0:2:0:0:
409,119,11526,2,0,P|423:177|411:222,1,99.9999999999999,10|10,0:2|0:2,0:0:0:0:
355,296,12216,1,10,0:2:0:0:
258,323,12561,1,10,0:2:0:0:
171,271,12906,6,0,L|59:281,2,99.9999999999999,14|10|10,0:2|0:2|0:2,0:0:0:0:
246,205,13940,1,10,0:2:0:0:
202,114,14285,2,0,B|164:127|164:127|121:123,2,66.6666666666666,6|2|2,1:2|1:2|1:2,0:0:0:0:
247,91,14975,2,0,B|378:77|378:77|410:104|388:142,1,200,14|4,0:2|1:2,0:0:0:0:
321,210,16009,6,0,P|334:256|343:323,2,99.9999999999999,2|2|0,1:2|1:2|1:2,0:0:0:0:
220,210,17044,2,0,P|206:258|199:307,1,99.9999999999999,2|0,1:2|1:2,0:0:0:0:
114,361,17733,1,2,1:2:0:0:
22,321,18078,2,0,L|19:262,1,50,2|2,1:2|0:2,0:0:0:0:
8,222,18423,6,0,P|14:148|22:55,1,150,6|2,1:2|1:2,0:0:0:0:
27,22,19113,2,0,P|78:15|140:32,1,99.9999999999999,8|0,0:2|1:2,0:0:0:0:
169,60,19630,1,10,0:2:0:0:
169,60,19802,2,0,P|173:116|177:166,1,99.9999999999999,0|8,0:2|0:2,0:0:0:0:
186,259,20492,1,2,1:2:0:0:
275,303,20837,2,0,L|336:294,1,50,10|10,0:2|0:2,0:0:0:0:
372,282,21181,6,0,P|385:234|392:185,1,99.9999999999999,2|14,1:2|0:2,0:0:0:0:
307,131,21871,2,0,P|294:85|286:22,1,99.9999999999999,2|14,1:2|0:2,0:0:0:0:
186,33,22561,2,0,P|179:82|165:130,1,99.9999999999999,2|14,1:2|0:2,0:0:0:0:
81,185,23250,2,0,P|87:234|101:282,1,99.9999999999999,0|14,1:2|0:2,0:0:0:0:
171,354,23940,6,0,P|224:338|274:344,1,99.9999999999999,6|10,1:2|0:2,0:0:0:0:
316,352,24457,2,0,P|332:299|326:249,1,99.9999999999999,2|2,0:2|1:2,0:0:0:0:
311,207,24975,1,10,0:2:0:0:
239,137,25319,2,0,L|244:78,1,50,2|2,0:2|1:2,0:0:0:0:
249,41,25664,1,10,0:2:0:0:
249,41,25837,2,0,P|296:26|359:37,1,99.9999999999999,2|0,1:2|1:2,0:0:0:0:
388,58,26354,1,8,0:2:0:0:
447,138,26699,6,0,P|462:185|451:248,1,99.9999999999999,0|2,1:2|1:2,0:0:0:0:
375,292,27388,2,0,P|328:277|265:288,1,99.9999999999999,10|0,0:2|1:2,0:0:0:0:
235,305,27906,1,2,0:2:0:0:
235,305,28078,2,0,L|243:372,2,50,2|10|2,1:2|0:2|1:2,0:0:0:0:
210,207,28768,2,0,L|219:122,2,74.9999999999999,10|10|10,0:2|0:0|0:0,0:0:0:0:
166,230,29457,6,0,P|119:217|64:231,1,99.9999999999999,2|2,1:2|1:2,0:0:0:0:
5,294,30147,1,8,0:2:0:0:
68,371,30492,2,0,L|123:365,1,50,2|2,1:2|3:2,0:0:0:0:
162,343,30837,2,0,P|211:349|257:332,1,99.9999999999999,0|8,1:2|0:2,0:0:0:0:
293,238,31526,2,0,L|287:188,2,50,2|2|10,1:2|1:2|0:2,0:0:0:0:
367,305,32216,6,0,P|427:294|483:290,1,99.9999999999999,2|14,1:2|0:2,0:0:0:0:
504,198,32906,2,0,P|444:187|388:183,1,99.9999999999999,2|14,1:2|0:2,0:0:0:0:
319,131,33595,2,0,P|329:83|316:21,1,99.9999999999999,2|14,1:2|0:2,0:0:0:0:
220,33,34285,2,0,P|210:81|223:143,1,99.9999999999999,0|14,1:2|0:2,0:0:0:0:
257,222,34975,5,6,1:2:0:0:
355,236,35319,1,10,0:2:0:0:
426,166,35664,2,0,P|472:191|502:236,1,99.9999999999999,2|10,1:2|0:2,0:0:0:0:
499,323,36354,1,2,1:2:0:0:
415,377,36699,1,8,0:2:0:0:
323,337,37044,2,0,L|266:341,1,50,0|8,1:2|0:2,0:0:0:0:
230,366,37388,2,0,L|173:362,1,50,4|4,1:3|1:3,0:0:0:0:
130,356,37733,6,0,P|119:307|130:259,1,99.9999999999999,6|10,1:2|0:2,0:0:0:0:
195,183,38423,1,2,1:2:0:0:
291,155,38768,1,10,0:2:0:0:
390,159,39113,2,0,P|401:110|390:62,1,99.9999999999999,2|8,1:2|0:2,0:0:0:0:
298,22,39802,2,0,L|226:20,1,50,0|2,1:2|1:2,0:0:0:0:
202,28,40147,1,8,0:0:0:0:
202,28,40319,6,0,P|195:94|192:134,1,99.9999999999999,2|2,1:2|1:2,0:0:0:0:
110,185,41009,2,0,P|117:251|120:291,1,99.9999999999999,2|2,1:2|1:2,0:0:0:0:
158,377,41699,2,0,P|200:354|268:356,1,99.9999999999999,2|2,1:2|1:2,0:0:0:0:
350,336,42388,2,0,P|343:245|336:180,1,150,2|8,1:2|0:2,0:0:0:0:
275,107,43250,6,0,P|323:88|389:98,1,99.9999999999999,6|10,1:2|0:2,0:0:0:0:
462,129,43940,1,2,1:2:0:0:
497,223,44285,1,10,0:2:0:0:
446,309,44630,2,0,P|393:303|342:300,1,99.9999999999999,2|10,0:2|0:2,0:0:0:0:
246,289,45319,1,2,0:2:0:0:
191,205,45664,1,10,0:2:0:0:
202,105,46009,6,0,P|152:90|95:97,1,99.9999999999999,2|10,1:2|0:2,0:0:0:0:
59,114,46526,2,0,P|62:163|47:211,1,99.9999999999999,2|2,0:2|1:2,0:0:0:0:
29,260,47044,1,8,0:2:0:0:
29,260,47216,2,0,L|45:364,1,99.9999999999999,2|0,1:2|1:2,0:0:0:0:
143,375,47906,2,0,P|189:376|243:350,1,99.9999999999999,2|2,1:2|1:2,0:0:0:0:
271,317,48423,1,8,0:2:0:0:
199,247,48768,6,0,L|206:129,1,99.9999999999999,6|0,1:2|0:0,0:0:0:0:
218,48,49457,1,8,0:3:0:0:
312,15,49802,1,4,0:3:0:0:
398,64,50147,2,0,P|426:135|406:220,2,150,8|8|4,0:3|0:3|0:3,0:0:0:0:
312,15,51526,5,10,0:0:0:0:
218,48,51871,1,10,0:0:0:0:
185,142,52216,2,0,L|116:136,1,50,10|10,0:0|0:0,0:0:0:0:
35,129,52733,6,0,P|17:180|26:245,1,99.9999999999999,6|2,1:2|1:2,0:0:0:0:
35,272,53250,1,10,0:2:0:0:
104,343,53595,1,0,1:2:0:0:
203,350,53940,1,10,0:2:0:0:
291,303,54285,1,2,1:2:0:0:
304,203,54630,2,0,P|350:188|405:191,1,99.9999999999999,10|2,0:2|1:2,0:0:0:0:
498,224,55319,1,10,0:2:0:0:
498,224,55492,6,0,L|488:329,1,99.9999999999999,6|2,1:2|1:2,0:0:0:0:
486,377,56009,1,10,0:2:0:0:
486,377,56181,2,0,P|427:355|380:356,1,99.9999999999999,2|0,0:2|1:2,0:0:0:0:
340,363,56699,1,10,0:2:0:0:
255,310,57044,2,0,L|250:193,1,99.9999999999999,0|8,1:2|0:2,0:0:0:0:
201,123,57733,2,0,L|137:114,1,50,0|2,1:2|1:2,0:0:0:0:
106,112,58078,1,10,0:2:0:0:
106,112,58250,6,0,P|85:164|92:213,1,99.9999999999999,6|2,1:2|1:2,0:0:0:0:
106,254,58768,1,10,0:2:0:0:
182,318,59113,2,0,P|232:313|288:306,1,99.9999999999999,2|10,1:2|0:2,0:0:0:0:
317,271,59630,2,0,P|367:276|423:283,1,99.9999999999999,2|2,0:2|1:2,0:0:0:0:
465,291,60147,1,8,0:2:0:0:
500,197,60492,2,0,P|496:146|489:81,1,99.9999999999999,0|8,1:2|0:2,0:0:0:0:
489,51,61009,1,2,1:2:0:0:
489,51,61181,6,0,P|442:66|379:49,1,99.9999999999999,2|10,1:2|0:2,0:0:0:0:
296,30,61871,2,0,L|238:32,1,50,2|2,1:2|1:2,0:0:0:0:
202,57,62216,2,0,L|144:55,1,50,8|2,0:2|1:2,0:0:0:0:
101,55,62561,2,0,P|83:111|92:162,1,99.9999999999999,8|8,0:2|0:2,0:0:0:0:
108,196,63078,1,4,1:2:0:0:
189,253,63423,2,0,L|252:248,1,50,8|8,0:2|0:2,0:0:0:0:
288,247,63768,6,0,P|294:201|301:144,1,99.9999999999999,2|2,1:2|1:2,0:0:0:0:
306,97,64285,1,10,0:2:0:0:
385,36,64630,1,0,1:2:0:0:
483,56,64975,1,10,0:2:0:0:
509,152,65319,1,0,1:2:0:0:
459,238,65664,2,0,P|398:231|353:228,1,99.9999999999999,10|2,0:2|1:2,0:0:0:0:
267,198,66354,1,10,0:2:0:0:
267,198,66526,6,0,P|206:205|161:208,1,99.9999999999999,6|2,1:2|1:2,0:0:0:0:
121,218,67044,1,10,0:2:0:0:
121,218,67216,2,0,P|108:273|119:328,1,99.9999999999999,2|0,0:2|1:2,0:0:0:0:
138,359,67733,1,10,0:2:0:0:
237,364,68078,2,0,P|290:346|346:352,1,99.9999999999999,0|8,1:2|0:2,0:0:0:0:
433,360,68768,2,0,L|439:304,1,50,0|2,1:2|1:2,0:0:0:0:
471,273,69113,1,10,0:2:0:0:
471,273,69285,6,0,P|487:215|475:160,1,99.9999999999999,6|2,1:2|1:2,0:0:0:0:
463,134,69802,1,8,0:2:0:0:
463,134,69975,2,0,P|388:125|356:122,1,99.9999999999999,2|2,0:2|1:2,0:0:0:0:
284,61,70664,2,0,P|209:70|177:73,1,99.9999999999999,2|0,0:2|1:2,0:0:0:0:
138,82,71181,1,10,0:2:0:0:
138,82,71354,2,0,P|126:139|138:182,1,99.9999999999999,2|2,0:2|1:2,0:0:0:0:
165,226,71871,1,10,0:2:0:0:
165,226,72044,6,0,P|222:214|265:226,1,99.9999999999999,6|2,1:2|1:2,0:0:0:0:
304,250,72561,1,10,0:2:0:0:
304,350,72906,2,0,P|247:362|204:350,1,99.9999999999999,0|10,1:2|0:2,0:0:0:0:
118,306,73595,2,0,L|52:314,2,50,8|8|8,0:2|0:2|0:2,0:0:0:0:
160,279,74113,2,0,P|172:230|159:173,1,99.9999999999999,4|8,1:2|0:3,0:0:0:0:
134,140,74630,1,8,0:3:0:0:
193,59,74975,6,0,P|272:53|315:51,1,99.9999999999999,6|10,1:2|0:2,0:0:0:0:
338,27,75492,1,2,1:2:0:0:
338,27,75664,2,0,P|417:33|460:35,1,99.9999999999999,10|14,0:2|0:2,0:0:0:0:
508,105,76354,1,8,0:2:0:0:
508,205,76699,1,10,0:2:0:0:
437,275,77044,2,0,L|376:278,1,50,10|2,0:2|1:2,0:0:0:0:
341,281,77388,1,8,0:2:0:0:
341,281,77561,6,0,P|299:259|232:257,1,99.9999999999999,6|2,1:2|1:2,0:0:0:0:
197,261,78078,1,10,0:2:0:0:
101,292,78423,2,0,P|95:241|91:188,1,99.9999999999999,10|10,0:2|0:2,0:0:0:0:
63,159,78940,1,2,1:2:0:0:
63,159,79113,2,0,P|49:106|66:48,1,99.9999999999999,8|8,0:2|0:2,0:0:0:0:
153,31,79802,2,0,L|216:35,1,50,8|2,0:2|1:2,0:0:0:0:
257,43,80147,1,8,0:2:0:0:
257,43,80319,6,0,P|270:90|261:139,1,99.9999999999999,6|2,1:2|1:2,0:0:0:0:
233,181,80837,1,10,0:2:0:0:
288,263,81181,2,0,L|355:256,1,50,8|0,0:2|0:0,0:0:0:0:
392,256,81526,1,10,0:2:0:0:
392,256,81699,2,0,P|396:208|404:148,1,99.9999999999999,2|2,1:2|1:2,0:0:0:0:
407,106,82216,1,10,0:2:0:0:
337,34,82561,1,8,0:2:0:0:
246,77,82906,2,0,L|188:72,1,50,10|10,0:2|0:2,0:0:0:0:
152,49,83250,6,0,P|100:38|50:50,1,99.9999999999999,6|10,1:2|0:2,0:0:0:0:
1,133,83940,1,10,0:2:0:0:
43,223,84285,1,10,0:2:0:0:
142,234,84630,2,0,P|200:227|257:223,1,99.9999999999999,8|8,0:2|0:2,0:0:0:0:
341,219,85319,1,8,0:2:0:0:
413,150,85664,1,12,0:2:0:0:
380,55,86009,5,6,1:2:0:0:
256,192,86181,12,4,87992,0:3:0:0:
