osu file format v14

[General]
AudioFilename: audio.mp3
AudioLeadIn: 0
PreviewTime: 52647
Countdown: 0
SampleSet: Soft
StackLeniency: 0.7
Mode: 3
LetterboxInBreaks: 0
SpecialStyle: 0
WidescreenStoryboard: 1

[Editor]
DistanceSpacing: 2
BeatDivisor: 4
GridSize: 16
TimelineZoom: 2

[Metadata]
Title:Kimi no Sei (TV Size)
TitleUnicode:君のせい (TV Size)
Artist:the peggies
ArtistUnicode:the peggies
Creator:Shoko84
Version:EZ
Source:青春ブタ野郎はバニーガール先輩の夢を見ない
Tags:Seishun Buta Yarō Yarou wa Yumemiru Shōjo Shoujo no Yume o Minai ao-buta envory Puberty Syndrome: Abnormal experiences during adolescence due to sensitivity and instability. Rascal Does Not Dream of Bunny Girl Senpai opening op
BeatmapID:1834912
BeatmapSetID:877623

[Difficulty]
HPDrainRate:7
CircleSize:4
OverallDifficulty:8
ApproachRate:5
SliderMultiplier:1.4
SliderTickRate:1

[Events]
//Background and Video events
Video,0,"video.mp4"
0,0,"KogaTomoe.jpg",0,0
//Break Periods
//Storyboard Layer 0 (Background)
//Storyboard Layer 1 (Fail)
//Storyboard Layer 2 (Pass)
//Storyboard Layer 3 (Foreground)
//Storyboard Layer 4 (Overlay)
//Storyboard Sound Samples

[TimingPoints]
-887,344.827586206897,4,2,1,45,1,0
52733,344.827586206897,4,2,1,45,1,1
74974,344.827586206897,4,2,1,45,1,0

[HitObjects]
192,192,319,5,0,0:0:0:0:
64,192,664,1,0,0:0:0:0:
192,192,837,1,0,0:0:0:0:
448,192,1009,1,0,0:0:0:0:
64,192,1354,1,0,0:0:0:0:
320,192,1526,1,0,0:0:0:0:
192,192,1699,1,0,0:0:0:0:
448,192,1871,1,0,0:0:0:0:
192,192,2216,1,0,0:0:0:0:
320,192,2388,1,0,0:0:0:0:
192,192,2561,1,0,0:0:0:0:
448,192,2733,1,0,0:0:0:0:
320,192,3078,1,0,0:0:0:0:
448,192,3423,1,0,0:0:0:0:
320,192,3595,1,0,0:0:0:0:
64,192,3768,1,0,0:0:0:0:
192,192,4285,1,0,0:0:0:0:
448,192,4457,1,0,0:0:0:0:
320,192,4975,1,0,0:0:0:0:
64,192,5319,1,0,0:0:0:0:
320,192,5492,1,0,0:0:0:0:
192,192,5664,1,0,0:0:0:0:
448,192,5837,128,0,6181:0:0:0:0:
64,192,6181,1,0,0:0:0:0:
320,192,6354,1,0,0:0:0:0:
192,192,6699,1,0,0:0:0:0:
64,192,7044,1,0,0:0:0:0:
192,192,7216,1,0,0:0:0:0:
448,192,7561,1,0,0:0:0:0:
320,192,7733,1,0,0:0:0:0:
192,192,8078,1,0,0:0:0:0:
320,192,8423,1,0,0:0:0:0:
64,192,8768,1,0,0:0:0:70:Tom3.wav
320,192,8940,1,0,0:0:0:0:
448,192,9113,1,0,0:0:0:0:
64,192,9285,1,0,0:0:0:0:
320,192,9457,128,0,9802:0:0:0:0:
64,192,9802,1,0,0:0:0:0:
448,192,9975,1,0,0:0:0:0:
192,192,10147,1,8,0:0:0:0:
320,192,10147,1,4,0:0:0:0:
448,192,10492,1,12,0:0:0:0:
64,192,10837,1,12,0:0:0:0:
320,192,11181,1,12,0:0:0:0:
192,192,11526,1,12,0:0:0:0:
448,192,11871,1,12,0:0:0:0:
192,192,12216,1,12,0:0:0:0:
64,192,12561,1,8,0:0:0:0:
320,192,12906,1,8,0:0:0:0:
448,192,12906,1,4,0:0:0:0:
192,192,13250,1,12,0:0:0:0:
448,192,13595,1,12,0:0:0:0:
192,192,13940,1,8,0:0:0:0:
320,192,14285,1,8,0:0:0:70:CrashRight.mp3
192,192,14515,1,0,0:0:0:70:Tom1.wav
448,192,14745,1,0,0:0:0:70:Tom2.wav
64,192,14975,1,0,0:0:0:70:CrashRight.mp3
448,192,15492,1,8,0:0:0:0:
320,192,15664,1,8,0:0:0:70:CrashLeft.mp3
192,192,16009,1,2,0:0:0:70:HHClose.wav
320,192,16354,1,2,0:0:0:0:
64,192,16699,1,2,0:0:0:70:HHClose.wav
192,192,17044,1,2,0:0:0:0:
448,192,17388,1,2,0:0:0:70:HHClose.wav
192,192,17733,1,2,0:0:0:0:
64,192,17906,1,0,0:0:0:0:
320,192,18078,1,2,0:0:0:70:HHClose.wav
448,192,18250,1,0,0:0:0:70:HHClose.wav
192,192,18423,1,2,0:0:0:70:CrashRight.mp3
448,192,18768,1,2,0:0:0:70:HHClose.wav
64,192,19113,1,8,0:0:0:0:
320,192,19630,1,8,0:0:0:0:
448,192,20147,1,8,0:0:0:0:
192,192,20492,1,8,0:0:0:0:
320,192,20837,1,0,0:0:0:70:CrashRight.mp3
64,192,21009,1,8,0:0:0:70:CrashRight.mp3
448,192,21181,1,2,0:0:0:0:
192,192,21354,1,2,0:0:0:0:
320,192,21526,128,8,21871:0:0:0:70:CrashLeft.mp3
448,192,21871,1,2,0:0:0:0:
64,192,22044,1,2,0:0:0:0:
192,192,22216,128,0,22561:0:0:0:70:CrashLeft.mp3
320,192,22561,1,2,0:0:0:0:
64,192,22733,1,2,0:0:0:0:
448,192,22906,128,8,23250:0:0:0:70:CrashLeft.mp3
192,192,23250,1,2,0:0:0:0:
320,192,23423,1,2,0:0:0:0:
64,192,23595,128,8,23940:0:0:0:70:CrashLeft.mp3
448,192,23940,1,2,0:0:0:70:CrashRight.mp3
192,192,24285,1,8,0:0:0:0:
448,192,24630,1,2,0:0:0:0:
320,192,24975,1,8,0:0:0:0:
64,192,25319,1,4,0:0:0:0:
192,192,25664,1,12,0:0:0:0:
448,192,26009,1,4,0:0:0:0:
320,192,26181,1,0,0:0:0:0:
192,192,26354,1,12,0:0:0:0:
64,192,26699,1,2,0:0:0:70:CrashLeft.mp3
320,192,27044,1,2,0:0:0:0:
448,192,27388,1,8,0:0:0:0:
192,192,27733,1,0,0:0:0:70:HHClose.wav
320,192,28078,1,0,0:0:0:0:
64,192,28250,1,8,0:0:0:0:
448,192,28423,1,2,0:0:0:70:HHClose.wav
64,192,28768,1,8,0:0:0:0:
192,192,29026,1,8,0:0:0:0:
320,192,29285,1,8,0:0:0:0:
448,192,29457,1,0,0:0:0:70:HHClose.wav
320,192,29802,1,2,0:0:0:70:HHClose.wav
192,192,30147,1,8,0:0:0:0:
320,192,30492,1,0,0:0:0:70:HHClose.wav
64,192,30664,1,4,0:0:0:0:
448,192,30837,1,2,0:0:0:0:
320,192,31181,1,8,0:0:0:0:
448,192,31526,1,2,0:0:0:0:
320,192,31699,1,2,0:0:0:0:
64,192,31871,1,8,0:0:0:0:
448,192,32216,1,2,0:0:0:0:
192,192,32388,1,2,0:0:0:0:
320,192,32561,128,8,32906:0:0:0:70:CrashLeft.mp3
448,192,32906,1,2,0:0:0:0:
64,192,33078,1,2,0:0:0:0:
192,192,33250,128,8,33595:0:0:0:70:CrashLeft.mp3
320,192,33595,1,2,0:0:0:0:
64,192,33768,1,2,0:0:0:0:
448,192,33940,128,8,34285:0:0:0:70:CrashLeft.mp3
320,192,34285,1,2,0:0:0:0:
192,192,34457,1,2,0:0:0:0:
448,192,34630,128,8,34975:0:0:0:70:CrashLeft.mp3
64,192,34975,128,2,35319:0:0:0:70:CrashRight.mp3
192,192,35319,128,8,35664:0:0:0:0:
320,192,35664,128,2,36009:0:0:0:0:
64,192,36009,128,12,36354:0:0:0:0:
448,192,36354,1,0,0:0:0:0:
192,192,36699,1,12,0:0:0:0:
320,192,37044,1,2,0:0:0:0:
192,192,37216,1,8,0:0:0:0:
448,192,37388,1,2,0:0:0:70:Tom1.wav
64,192,37561,1,0,0:0:0:70:Tom2.wav
320,192,37733,1,0,0:0:0:70:CrashLeft.mp3
192,192,38078,1,8,0:0:0:0:
448,192,38423,1,2,0:0:0:0:
320,192,38768,1,8,0:0:0:0:
64,192,39113,1,0,0:0:0:0:
448,192,39457,1,8,0:0:0:0:
192,192,39802,1,2,0:0:0:0:
64,192,39975,1,2,0:0:0:0:
448,192,40147,1,8,0:0:0:0:
192,192,40319,1,2,0:0:0:0:
320,192,40664,1,2,0:0:0:0:
448,192,40837,1,8,0:0:0:0:
64,192,41009,1,2,0:0:0:0:
192,192,41354,1,2,0:0:0:0:
448,192,41526,1,8,0:0:0:0:
320,192,41699,1,2,0:0:0:0:
192,192,42044,1,2,0:0:0:0:
320,192,42216,1,8,0:0:0:0:
64,192,42388,1,2,0:0:0:0:
448,192,42733,1,2,0:0:0:0:
192,192,42906,1,8,0:0:0:70:CrashLeft.mp3
320,192,43250,1,2,0:0:0:70:CrashRight.mp3
64,192,43595,1,8,0:0:0:0:
320,192,43940,1,2,0:0:0:0:
192,192,44285,1,8,0:0:0:0:
448,192,44630,1,0,0:0:0:0:
320,192,44975,1,8,0:0:0:0:
64,192,45319,1,0,0:0:0:0:
192,192,45664,1,8,0:0:0:0:
448,192,46009,1,2,0:0:0:0:
192,192,46354,1,8,0:0:0:0:
320,192,46526,1,0,0:0:0:0:
64,192,46871,1,2,0:0:0:0:
448,192,47216,1,2,0:0:0:0:
192,192,47561,1,2,0:0:0:0:
448,192,47733,1,8,0:0:0:0:
64,192,47906,1,2,0:0:0:0:
192,192,48250,1,2,0:0:0:0:
448,192,48423,1,8,0:0:0:0:
320,192,48595,1,0,0:0:0:0:
64,192,48768,1,2,0:0:0:70:CrashRight.mp3
448,192,49113,1,0,0:0:0:0:
192,192,49457,1,0,0:0:0:70:Tom1.wav
448,192,49630,1,0,0:0:0:70:Tom2.wav
320,192,49802,1,0,0:0:0:0:
64,192,50147,1,0,0:0:0:70:Tom1.wav
448,192,50492,1,0,0:0:0:70:Tom1.wav
320,192,50664,1,0,0:0:0:70:Tom2.wav
64,192,50837,1,0,0:0:0:0:
448,192,51181,1,0,0:0:0:0:
192,192,51526,1,8,0:0:0:0:
320,192,51699,1,2,0:0:0:0:
64,192,51871,1,8,0:0:0:0:
192,192,52044,1,2,0:0:0:0:
448,192,52216,1,8,0:0:0:0:
64,192,52388,1,6,0:0:0:0:
320,192,52733,1,2,0:0:0:70:CrashRight.mp3
448,192,53250,1,12,0:0:0:0:
320,192,53595,1,6,0:0:0:0:
64,192,53939,1,12,0:0:0:0:
448,192,54284,1,6,0:0:0:0:
320,192,54629,1,12,0:0:0:0:
448,192,54974,1,6,0:0:0:0:
192,192,55146,1,2,0:0:0:0:
64,192,55319,1,8,0:0:0:0:
320,192,55491,1,2,0:0:0:70:CrashRight.mp3
448,192,56008,1,12,0:0:0:0:
64,192,56353,1,6,0:0:0:0:
320,192,56698,1,12,0:0:0:0:
192,192,57043,1,6,0:0:0:0:
448,192,57388,1,12,0:0:0:0:
64,192,57733,1,6,0:0:0:0:
320,192,57905,1,2,0:0:0:0:
448,192,58077,1,8,0:0:0:0:
192,192,58250,1,2,0:0:0:70:CrashRight.mp3
320,192,58767,1,12,0:0:0:0:
64,192,59112,1,6,0:0:0:0:
320,192,59457,1,12,0:0:0:0:
448,192,59801,1,6,0:0:0:0:
64,192,60146,1,12,0:0:0:0:
320,192,60491,1,6,0:0:0:0:
192,192,60836,1,12,0:0:0:0:
64,192,61181,1,6,0:0:0:0:
320,192,61353,1,2,0:0:0:0:
192,192,61526,1,12,0:0:0:0:
448,192,61698,1,0,0:0:0:0:
64,192,61870,1,6,0:0:0:0:
320,192,62215,1,12,0:0:0:0:
448,192,62560,1,0,0:0:0:70:Tom2.wav
64,192,62905,1,8,0:0:0:0:
320,192,63077,1,8,0:0:0:0:
64,192,63422,1,8,0:0:0:0:
448,192,63767,1,2,0:0:0:70:CrashRight.mp3
64,192,64284,1,12,0:0:0:0:
320,192,64629,1,6,0:0:0:0:
192,192,64974,1,12,0:0:0:0:
448,192,65319,1,6,0:0:0:0:
320,192,65664,1,12,0:0:0:0:
192,192,66008,1,6,0:0:0:0:
64,192,66181,1,2,0:0:0:0:
320,192,66353,1,8,0:0:0:0:
448,192,66526,1,2,0:0:0:70:CrashRight.mp3
192,192,67043,1,12,0:0:0:0:
448,192,67388,1,6,0:0:0:0:
64,192,67733,1,12,0:0:0:0:
320,192,68077,1,6,0:0:0:0:
192,192,68422,1,12,0:0:0:0:
320,192,68767,1,6,0:0:0:0:
448,192,68939,1,2,0:0:0:0:
192,192,69112,1,8,0:0:0:0:
64,192,69284,1,2,0:0:0:70:CrashRight.mp3
192,192,69801,1,12,0:0:0:0:
64,192,70146,1,6,0:0:0:0:
320,192,70491,1,12,0:0:0:0:
192,192,70836,1,6,0:0:0:0:
448,192,71181,1,12,0:0:0:0:
192,192,71526,1,6,0:0:0:0:
320,192,71870,1,8,0:0:0:0:
64,192,72043,1,2,0:0:0:70:CrashRight.mp3
192,192,72388,1,2,0:0:0:0:
448,192,72560,1,12,0:0:0:0:
320,192,72733,1,0,0:0:0:0:
192,192,73077,1,2,0:0:0:0:
64,192,73250,1,12,0:0:0:0:
448,192,73422,1,0,0:0:0:0:
320,192,73595,1,6,0:0:0:0:
64,192,74112,1,2,0:0:0:70:Tom1.wav
320,192,74457,1,8,0:0:0:0:
448,192,74629,1,8,0:0:0:0:
192,192,74974,1,0,0:0:0:70:CrashRight.mp3
448,192,75318,1,12,0:0:0:0:
320,192,75663,1,12,0:0:0:0:
64,192,76008,1,8,0:0:0:70:CrashRight.mp3
448,192,76353,1,12,0:0:0:0:
320,192,76698,1,12,0:0:0:0:
192,192,77042,1,12,0:0:0:0:
448,192,77387,1,12,0:0:0:0:
64,192,77560,1,2,0:0:0:0:
448,192,78077,1,12,0:0:0:0:
64,192,78422,1,12,0:0:0:0:
320,192,78767,1,12,0:0:0:0:
192,192,79111,1,12,0:0:0:0:
448,192,79456,1,12,0:0:0:0:
320,192,79801,1,12,0:0:0:0:
448,192,80146,1,12,0:0:0:0:
192,192,80318,1,0,0:0:0:0:
448,192,80836,1,12,0:0:0:0:
320,192,81180,1,12,0:0:0:0:
448,192,81525,1,12,0:0:0:0:
192,192,81870,1,12,0:0:0:0:
64,192,82215,1,12,0:0:0:0:
448,192,82560,1,12,0:0:0:0:
192,192,82905,1,12,0:0:0:0:
448,192,83077,1,8,0:0:0:0:
320,192,83249,1,2,0:0:0:70:CrashRight.mp3
64,192,83594,1,8,0:0:0:0:
448,192,83939,1,8,0:0:0:0:
192,192,84284,1,8,0:0:0:0:
320,192,84629,1,8,0:0:0:0:
64,192,84974,1,8,0:0:0:0:
320,192,85318,1,8,0:0:0:0:
448,192,85663,1,8,0:0:0:70:CrashRight.mp3
192,192,86008,1,2,0:0:0:70:CrashLeft.mp3
320,192,86698,1,0,0:0:0:0:
448,192,87387,1,2,0:0:0:70:CrashRight.mp3
320,192,87991,1,0,0:0:0:70:Tom1.wav
192,192,88077,1,0,0:0:0:70:Tom2.wav
