osu file format v14

[General]
AudioFilename: audio.mp3
AudioLeadIn: 0
PreviewTime: 52733
Countdown: 0
SampleSet: Soft
StackLeniency: 0.7
Mode: 3
LetterboxInBreaks: 0
SpecialStyle: 0
WidescreenStoryboard: 1

[Editor]
DistanceSpacing: 1
BeatDivisor: 4
GridSize: 32
TimelineZoom: 1.2

[Metadata]
Title:Kimi no Sei (TV Size)
TitleUnicode:君のせい (TV Size)
Artist:the peggies
ArtistUnicode:the peggies
Creator:Chrisse
Version:Sava's Hard
Source:青春ブタ野郎はバニーガール先輩の夢を見ない
Tags:ilham savageeeee zyletinee anime japanese kiminosei Yuuho Kitazawa Keita Kawaguchi jpop j-pop op opening Rascal Does Not Dream of Bunny Girl Senpai Seishun Buta Yarō Yarou wa Yumemiru Shōjo Shojo Shoujo no Yume wo Minai ao-buta aobuta Puberty Syndrome: Abnormal experiences during adolescence due to sensitivity and instability
BeatmapID:4166717
BeatmapSetID:2003639

[Difficulty]
HPDrainRate:7.5
CircleSize:4
OverallDifficulty:7.5
ApproachRate:5
SliderMultiplier:1.4
SliderTickRate:1

[Events]
//Background and Video events
0,0,"background.jpg",0,0
//Break Periods
//Storyboard Layer 0 (Background)
//Storyboard Layer 1 (Fail)
//Storyboard Layer 2 (Pass)
//Storyboard Layer 3 (Foreground)
//Storyboard Layer 4 (Overlay)
//Storyboard Sound Samples
Sample,19802,0,"hihat.wav",50
Sample,70147,0,"Hat Open.wav",50
Sample,71526,0,"Hat Open.wav",50
Sample,72905,0,"Hat Open.wav",50

[TimingPoints]
319,344.827586206897,4,2,1,50,1,0
8768,344.827586206897,4,2,1,50,1,0
10147,344.827586206897,4,2,1,50,1,0
52733,-100,4,2,1,50,0,1
86009,-100,4,2,1,50,0,0

[HitObjects]
320,192,319,5,0,0:0:0:0:
448,192,319,128,0,663:0:0:0:0:
192,192,663,128,0,836:0:0:0:0:
64,192,836,1,0,0:0:0:0:
320,192,836,128,0,1008:0:0:0:0:
448,192,1008,128,0,1181:0:0:0:0:
64,192,1181,1,0,0:0:0:0:
192,192,1181,1,0,0:0:0:0:
320,192,1353,128,0,1525:0:0:0:0:
192,192,1525,128,0,1698:0:0:0:0:
64,192,1698,128,0,1870:0:0:0:0:
448,192,1698,1,0,0:0:0:0:
320,192,1870,128,0,2043:0:0:0:0:
192,192,2043,1,0,0:0:0:0:
64,192,2215,1,0,0:0:0:0:
448,192,2215,128,0,2387:0:0:0:0:
192,192,2387,128,0,2560:0:0:0:0:
320,192,2560,128,0,2732:0:0:0:0:
448,192,2560,1,0,0:0:0:0:
64,192,2732,128,0,2905:0:0:0:0:
448,192,2905,128,0,3077:0:0:0:0:
64,192,3077,128,0,3422:0:0:0:0:
192,192,3077,1,0,0:0:0:0:
320,192,3422,128,0,3594:0:0:0:0:
192,192,3594,128,0,3767:0:0:0:0:
448,192,3594,1,0,0:0:0:0:
64,192,3767,128,0,3939:0:0:0:0:
320,192,3939,1,0,0:0:0:0:
448,192,3939,1,0,0:0:0:0:
192,192,4112,1,0,0:0:0:0:
448,192,4284,128,0,4456:0:0:0:0:
64,192,4456,128,0,4801:0:0:0:0:
192,192,4456,1,0,0:0:0:0:
320,192,4801,1,0,0:0:0:0:
64,192,4974,1,0,0:0:0:0:
448,192,4974,1,0,0:0:0:0:
192,192,5146,1,0,0:0:0:0:
320,192,5319,1,0,0:0:0:0:
448,192,5319,1,0,0:0:0:0:
64,192,5491,128,0,5663:0:0:0:0:
192,192,5663,128,0,5836:0:0:0:0:
320,192,5836,128,0,6181:0:0:0:0:
448,192,5836,1,0,0:0:0:0:
64,192,6181,128,0,6353:0:0:0:0:
192,192,6353,1,0,0:0:0:0:
448,192,6353,128,0,6525:0:0:0:0:
64,192,6525,1,0,0:0:0:0:
320,192,6698,128,0,6870:0:0:0:0:
448,192,6698,1,0,0:0:0:0:
192,192,6870,1,0,0:0:0:0:
448,192,7043,128,0,7215:0:0:0:0:
64,192,7215,128,0,7560:0:0:0:0:
192,192,7215,1,0,0:0:0:0:
320,192,7560,128,0,7732:0:0:0:0:
64,192,7732,1,0,0:0:0:0:
448,192,7732,1,0,0:0:0:0:
320,192,7905,1,0,0:0:0:0:
192,192,8077,1,0,0:0:0:0:
448,192,8077,1,0,0:0:0:0:
64,192,8250,1,0,0:0:0:0:
320,192,8422,1,0,0:0:0:0:
448,192,8422,1,0,0:0:0:0:
192,192,8594,1,0,0:0:0:0:
64,192,8768,1,0,0:0:0:80:kick.wav
448,192,8768,128,0,9285:0:0:0:0:
320,192,8940,1,0,0:0:0:0:
192,192,9112,1,0,0:0:0:0:
64,192,9285,1,0,0:0:0:0:
448,192,9457,1,0,0:0:0:0:
192,192,9630,1,0,0:0:0:0:
320,192,9802,1,0,0:0:0:0:
448,192,9974,1,0,0:0:0:0:
64,192,10147,1,0,0:0:0:70:snare.wav
192,192,10147,1,0,0:0:0:90:finish.wav
320,192,10147,1,0,0:0:0:0:
64,192,10319,1,0,0:0:0:0:
192,192,10491,1,0,0:0:0:70:snare.wav
320,192,10491,1,0,0:0:0:55:Hat Open.wav
320,192,10664,1,0,0:0:0:0:
192,192,10836,1,0,0:0:0:70:snare.wav
448,192,10836,1,0,0:0:0:55:Hat Open.wav
192,192,11009,1,0,0:0:0:70:kick.wav
64,192,11181,1,0,0:0:0:70:snare.wav
448,192,11181,1,0,0:0:0:55:Hat Open.wav
448,192,11353,1,0,0:0:0:70:kick.wav
192,192,11526,1,0,0:0:0:70:snare.wav
320,192,11526,1,0,0:0:0:55:Hat Open.wav
192,192,11698,1,0,0:0:0:0:
64,192,11871,1,0,0:0:0:70:snare.wav
448,192,11871,1,0,0:0:0:55:Hat Open.wav
448,192,12043,1,0,0:0:0:70:kick.wav
64,192,12215,1,0,0:0:0:70:snare.wav
192,192,12215,1,0,0:0:0:55:Hat Open.wav
192,192,12388,1,0,0:0:0:70:kick.wav
320,192,12560,1,0,0:0:0:70:snare.wav
448,192,12560,1,0,0:0:0:0:
320,192,12733,1,0,0:0:0:0:
64,192,12905,1,0,0:0:0:70:snare.wav
448,192,12905,1,0,0:0:0:70:finish.wav
64,192,13078,1,0,0:0:0:0:
192,192,13250,1,0,0:0:0:70:snare.wav
320,192,13250,1,0,0:0:0:55:Hat Open.wav
320,192,13422,1,0,0:0:0:70:kick.wav
192,192,13595,1,0,0:0:0:70:snare.wav
448,192,13595,1,0,0:0:0:55:Hat Open.wav
192,192,13767,1,0,0:0:0:70:kick.wav
320,192,13940,1,0,0:0:0:70:snare.wav
448,192,13940,1,0,0:0:0:55:Hat Open.wav
448,192,14112,1,0,0:0:0:0:
320,192,14198,1,0,0:0:0:50:snare.wav
64,192,14284,128,0,14514:0:0:0:70:kick.wav
192,192,14284,1,0,0:0:0:70:finish.wav
192,192,14514,128,0,14744:0:0:0:70:snare.wav
320,192,14514,1,0,0:0:0:0:
64,192,14744,1,0,0:0:0:70:snare.wav
320,192,14744,128,0,14974:0:0:0:0:
64,192,14974,128,0,15491:0:0:0:70:snare.wav
192,192,14974,1,0,0:0:0:70:finish.wav
448,192,14974,128,0,15491:0:0:0:0:
320,192,15491,1,0,0:0:0:50:snare.wav
192,192,15578,1,0,0:0:0:50:snare.wav
64,192,15664,1,0,0:0:0:70:kick.wav
448,192,15664,1,0,0:0:0:65:finish.wav
192,192,15836,1,0,0:0:0:0:
320,192,16009,1,0,0:0:0:70:kick.wav
448,192,16009,1,0,0:0:0:50:hihat.wav
64,192,16181,1,0,0:0:0:0:
192,192,16353,1,0,0:0:0:70:kick.wav
448,192,16353,1,0,0:0:0:50:hihat.wav
64,192,16526,1,0,0:0:0:0:
320,192,16698,1,0,0:0:0:70:kick.wav
448,192,16698,1,0,0:0:0:50:hihat.wav
192,192,16871,1,0,0:0:0:0:
64,192,17043,1,0,0:0:0:70:kick.wav
320,192,17043,1,0,0:0:0:50:hihat.wav
192,192,17215,1,0,0:0:0:0:
64,192,17388,1,0,0:0:0:70:kick.wav
448,192,17388,1,0,0:0:0:50:hihat.wav
320,192,17560,1,0,0:0:0:0:
64,192,17733,1,0,0:0:0:70:kick.wav
192,192,17733,1,0,0:0:0:50:hihat.wav
448,192,17905,1,0,0:0:0:0:
64,192,18078,1,0,0:0:0:70:kick.wav
320,192,18078,1,0,0:0:0:50:hihat.wav
192,192,18250,1,0,0:0:0:35:hihat.wav
64,192,18422,128,0,18595:0:0:0:70:kick.wav
320,192,18422,1,0,0:0:0:70:finish.wav
448,192,18422,1,0,0:0:0:0:
192,192,18595,128,0,18767:0:0:0:0:
320,192,18767,128,0,18940:0:0:0:70:kick.wav
448,192,18767,1,0,0:0:0:50:hihat.wav
64,192,18940,128,0,19284:0:0:0:0:
192,192,19112,1,0,0:0:0:70:snare.wav
448,192,19112,1,0,0:0:0:0:
320,192,19284,128,0,19629:0:0:0:35:hihat.wav
192,192,19457,1,0,0:0:0:50:hihat.wav
64,192,19629,128,0,19974:0:0:0:70:snare.wav
448,192,19629,1,0,0:0:0:35:hihat.wav
320,192,19802,1,0,0:0:0:70:kick.wav
448,192,19974,128,0,20319:0:0:0:0:
192,192,20147,1,0,0:0:0:70:snare.wav
320,192,20147,1,0,0:0:0:50:hihat.wav
64,192,20319,1,0,0:0:0:0:
192,192,20405,1,0,0:0:0:35:snare.wav
320,192,20491,1,0,0:0:0:70:kick.wav
448,192,20491,1,0,0:0:0:50:hihat.wav
64,192,20664,1,0,0:0:0:70:kick.wav
192,192,20664,1,0,0:0:0:0:
192,192,20836,1,0,0:0:0:70:snare.wav
320,192,20836,1,0,0:0:0:70:finish.wav
448,192,20836,1,0,0:0:0:0:
64,192,21009,1,0,0:0:0:70:snare.wav
320,192,21009,1,0,0:0:0:70:finish.wav
192,192,21181,1,0,0:0:0:70:kick.wav
448,192,21181,1,0,0:0:0:0:
448,192,21353,1,0,0:0:0:70:kick.wav
64,192,21526,128,0,21871:0:0:0:70:snare.wav
192,192,21526,1,0,0:0:0:70:finish.wav
320,192,21871,1,0,0:0:0:70:kick.wav
448,192,21871,1,0,0:0:0:0:
320,192,22043,1,0,0:0:0:70:kick.wav
64,192,22215,128,0,22560:0:0:0:70:snare.wav
448,192,22215,1,0,0:0:0:70:finish.wav
192,192,22560,1,0,0:0:0:70:kick.wav
320,192,22560,1,0,0:0:0:0:
192,192,22733,1,0,0:0:0:70:kick.wav
64,192,22905,1,0,0:0:0:70:snare.wav
448,192,22905,128,0,23250:0:0:0:70:finish.wav
64,192,23250,1,0,0:0:0:70:kick.wav
320,192,23250,1,0,0:0:0:0:
64,192,23422,1,0,0:0:0:70:kick.wav
192,192,23595,1,0,0:0:0:70:snare.wav
448,192,23595,128,0,23940:0:0:0:0:
320,192,23767,128,0,23940:0:0:0:0:
64,192,23940,1,0,0:0:0:70:kick.wav
192,192,23940,1,0,0:0:0:70:finish.wav
320,192,24112,1,0,0:0:0:0:
64,192,24284,1,0,0:0:0:70:snare.wav
448,192,24284,1,0,0:0:0:50:Hat Open.wav
192,192,24457,1,0,0:0:0:0:
320,192,24629,1,0,0:0:0:70:kick.wav
448,192,24629,1,0,0:0:0:50:Hat Open.wav
192,192,24802,1,0,0:0:0:70:kick.wav
320,192,24802,1,0,0:0:0:0:
64,192,24974,1,0,0:0:0:70:snare.wav
448,192,24974,1,0,0:0:0:50:Hat Open.wav
64,192,25147,1,0,0:0:0:70:kick.wav
192,192,25147,1,0,0:0:0:0:
320,192,25319,1,0,0:0:0:50:Hat Open.wav
192,192,25491,1,0,0:0:0:70:kick.wav
448,192,25491,1,0,0:0:0:0:
64,192,25664,1,0,0:0:0:70:snare.wav
320,192,25664,1,0,0:0:0:50:Hat Open.wav
448,192,25836,1,0,0:0:0:35:snare.wav
320,192,25922,1,0,0:0:0:35:snare.wav
64,192,26009,1,0,0:0:0:70:kick.wav
192,192,26009,1,0,0:0:0:50:Hat Open.wav
192,192,26181,1,0,0:0:0:70:kick.wav
320,192,26181,1,0,0:0:0:0:
64,192,26353,1,0,0:0:0:70:snare.wav
448,192,26353,1,0,0:0:0:50:Hat Open.wav
192,192,26526,1,0,0:0:0:0:
320,192,26612,1,0,0:0:0:35:snare.wav
64,192,26698,1,0,0:0:0:70:kick.wav
448,192,26698,128,0,27043:0:0:0:70:finish.wav
64,192,26871,1,0,0:0:0:0:
192,192,27043,1,0,0:0:0:70:kick.wav
320,192,27043,1,0,0:0:0:50:hihat.wav
64,192,27215,1,0,0:0:0:0:
320,192,27388,1,0,0:0:0:70:snare.wav
448,192,27388,1,0,0:0:0:50:hihat.wav
192,192,27560,1,0,0:0:0:0:
192,192,27733,1,0,0:0:0:50:hihat.wav
320,192,27905,1,0,0:0:0:0:
320,192,28078,1,0,0:0:0:70:kick.wav
448,192,28078,1,0,0:0:0:50:hihat.wav
64,192,28250,1,0,0:0:0:70:snare.wav
192,192,28250,1,0,0:0:0:0:
64,192,28422,1,0,0:0:0:70:kick.wav
320,192,28422,1,0,0:0:0:50:hihat.wav
448,192,28595,1,0,0:0:0:0:
192,192,28767,1,0,0:0:0:70:snare.wav
448,192,28767,1,0,0:0:0:60:hihat.wav
192,192,29026,1,0,0:0:0:70:snare.wav
320,192,29026,1,0,0:0:0:60:hihat.wav
64,192,29284,1,0,0:0:0:70:snare.wav
320,192,29284,1,0,0:0:0:60:hihat.wav
64,192,29457,1,0,0:0:0:70:kick.wav
448,192,29457,128,0,29629:0:0:0:50:hihat.wav
320,192,29629,128,0,29802:0:0:0:35:hihat.wav
64,192,29802,1,0,0:0:0:70:kick.wav
192,192,29802,128,0,29974:0:0:0:50:hihat.wav
448,192,29974,128,0,30319:0:0:0:35:hihat.wav
64,192,30147,1,0,0:0:0:70:snare.wav
320,192,30147,1,0,0:0:0:50:hihat.wav
192,192,30319,128,0,30491:0:0:0:35:hihat.wav
320,192,30491,128,0,30664:0:0:0:50:hihat.wav
64,192,30664,1,0,0:0:0:50:Hat Open.wav
448,192,30664,128,0,31009:0:0:0:0:
320,192,30836,1,0,0:0:0:70:kick.wav
64,192,31009,128,0,31353:0:0:0:0:
192,192,31181,1,0,0:0:0:70:snare.wav
320,192,31181,1,0,0:0:0:0:
448,192,31353,1,0,0:0:0:0:
320,192,31440,1,0,0:0:0:35:snare.wav
64,192,31526,1,0,0:0:0:70:kick.wav
192,192,31526,1,0,0:0:0:50:hihat.wav
320,192,31698,1,0,0:0:0:70:kick.wav
448,192,31698,1,0,0:0:0:0:
64,192,31871,1,0,0:0:0:70:snare.wav
192,192,31871,1,0,0:0:0:70:finish.wav
320,192,31871,1,0,0:0:0:0:
192,192,32043,1,0,0:0:0:70:snare.wav
448,192,32043,1,0,0:0:0:70:finish.wav
64,192,32215,1,0,0:0:0:90:tom03.wav
320,192,32215,1,0,0:0:0:0:
64,192,32388,1,0,0:0:0:70:kick.wav
320,192,32560,1,0,0:0:0:70:snare.wav
448,192,32560,128,0,32905:0:0:0:70:finish.wav
64,192,32905,1,0,0:0:0:70:kick.wav
192,192,32905,1,0,0:0:0:0:
192,192,33078,1,0,0:0:0:70:kick.wav
64,192,33250,1,0,0:0:0:70:snare.wav
448,192,33250,128,0,33595:0:0:0:70:finish.wav
192,192,33595,1,0,0:0:0:70:kick.wav
320,192,33595,1,0,0:0:0:0:
320,192,33767,1,0,0:0:0:70:kick.wav
64,192,33940,128,0,34284:0:0:0:70:snare.wav
448,192,33940,1,0,0:0:0:70:finish.wav
192,192,34284,1,0,0:0:0:70:kick.wav
448,192,34284,1,0,0:0:0:0:
448,192,34457,1,0,0:0:0:70:kick.wav
64,192,34629,128,0,34974:0:0:0:70:snare.wav
320,192,34629,1,0,0:0:0:70:finish.wav
192,192,34802,128,0,34974:0:0:0:0:
320,192,34974,1,0,0:0:0:70:kick.wav
448,192,34974,1,0,0:0:0:70:finish.wav
192,192,35147,1,0,0:0:0:0:
64,192,35319,1,0,0:0:0:70:snare.wav
448,192,35319,1,0,0:0:0:50:Hat Open.wav
320,192,35491,1,0,0:0:0:0:
64,192,35664,1,0,0:0:0:70:kick.wav
192,192,35664,1,0,0:0:0:50:Hat Open.wav
64,192,35836,1,0,0:0:0:70:kick.wav
320,192,35836,1,0,0:0:0:0:
192,192,36009,1,0,0:0:0:70:snare.wav
448,192,36009,1,0,0:0:0:50:Hat Open.wav
320,192,36181,1,0,0:0:0:70:kick.wav
448,192,36181,1,0,0:0:0:0:
192,192,36353,1,0,0:0:0:50:Hat Open.wav
64,192,36526,1,0,0:0:0:70:kick.wav
448,192,36526,1,0,0:0:0:0:
64,192,36698,1,0,0:0:0:70:snare.wav
192,192,36698,1,0,0:0:0:50:Hat Open.wav
320,192,36698,1,0,0:0:0:0:
448,192,36871,1,0,0:0:0:35:snare.wav
320,192,36957,1,0,0:0:0:35:snare.wav
64,192,37043,1,0,0:0:0:70:kick.wav
192,192,37043,1,0,0:0:0:0:
64,192,37215,1,0,0:0:0:70:snare.wav
320,192,37215,1,0,0:0:0:0:
192,192,37388,1,0,0:0:0:90:tom04.wav
320,192,37388,1,0,0:0:0:0:
192,192,37560,1,0,0:0:0:90:tom03.wav
448,192,37560,1,0,0:0:0:0:
64,192,37733,1,0,0:0:0:70:kick.wav
320,192,37733,1,0,0:0:0:70:finish.wav
448,192,37733,128,0,38078:0:0:0:0:
64,192,38078,128,0,38422:0:0:0:70:snare.wav
320,192,38078,1,0,0:0:0:60:hihat.wav
192,192,38422,1,0,0:0:0:70:kick.wav
448,192,38422,128,0,38595:0:0:0:60:hihat.wav
64,192,38595,1,0,0:0:0:70:kick.wav
192,192,38595,1,0,0:0:0:0:
320,192,38767,128,0,38940:0:0:0:70:snare.wav
448,192,38767,1,0,0:0:0:60:hihat.wav
64,192,38940,1,0,0:0:0:70:kick.wav
192,192,38940,1,0,0:0:0:0:
448,192,39112,128,0,39284:0:0:0:50:hihat.wav
192,192,39284,1,0,0:0:0:70:kick.wav
320,192,39284,1,0,0:0:0:0:
64,192,39457,1,0,0:0:0:70:snare.wav
448,192,39457,1,0,0:0:0:0:
320,192,39629,1,0,0:0:0:50:hihat.wav
64,192,39802,1,0,0:0:0:70:kick.wav
192,192,39802,1,0,0:0:0:60:Ride.wav
192,192,39974,1,0,0:0:0:70:kick.wav
320,192,39974,1,0,0:0:0:0:
320,192,40147,1,0,0:0:0:70:snare.wav
448,192,40147,1,0,0:0:0:0:
64,192,40319,1,0,0:0:0:70:kick.wav
192,192,40319,128,0,40664:0:0:0:0:
320,192,40491,1,0,0:0:0:50:hihat.wav
64,192,40664,1,0,0:0:0:70:kick.wav
448,192,40664,1,0,0:0:0:0:
192,192,40836,1,0,0:0:0:70:snare.wav
320,192,40836,1,0,0:0:0:50:hihat.wav
320,192,41009,128,0,41353:0:0:0:70:kick.wav
448,192,41009,1,0,0:0:0:0:
192,192,41181,1,0,0:0:0:50:hihat.wav
64,192,41353,1,0,0:0:0:70:kick.wav
448,192,41353,1,0,0:0:0:0:
192,192,41526,1,0,0:0:0:70:snare.wav
320,192,41526,1,0,0:0:0:50:hihat.wav
64,192,41698,128,0,41871:0:0:0:70:kick.wav
320,192,41698,1,0,0:0:0:0:
448,192,41871,1,0,0:0:0:50:hihat.wav
64,192,42043,1,0,0:0:0:70:kick.wav
192,192,42043,128,0,42215:0:0:0:0:
320,192,42215,1,0,0:0:0:70:snare.wav
448,192,42215,1,0,0:0:0:50:hihat.wav
64,192,42388,128,0,42560:0:0:0:70:kick.wav
448,192,42388,1,0,0:0:0:0:
192,192,42560,1,0,0:0:0:50:hihat.wav
64,192,42733,1,0,0:0:0:70:kick.wav
320,192,42733,1,0,0:0:0:0:
192,192,42905,1,0,0:0:0:70:snare.wav
448,192,42905,1,0,0:0:0:60:Ride.wav
320,192,43078,1,0,0:0:0:0:
64,192,43250,128,0,43595:0:0:0:70:kick.wav
192,192,43250,1,0,0:0:0:70:finish.wav
448,192,43250,1,0,0:0:0:0:
192,192,43595,1,0,0:0:0:70:snare.wav
448,192,43595,128,0,43940:0:0:0:50:hihat.wav
64,192,43940,128,0,44284:0:0:0:70:kick.wav
320,192,43940,1,0,0:0:0:50:hihat.wav
320,192,44112,1,0,0:0:0:70:kick.wav
192,192,44284,1,0,0:0:0:70:snare.wav
448,192,44284,128,0,44457:0:0:0:50:hihat.wav
64,192,44457,1,0,0:0:0:70:kick.wav
192,192,44457,1,0,0:0:0:0:
320,192,44629,128,0,44802:0:0:0:50:hihat.wav
64,192,44802,1,0,0:0:0:70:kick.wav
448,192,44802,1,0,0:0:0:0:
192,192,44974,128,0,45147:0:0:0:70:snare.wav
320,192,44974,1,0,0:0:0:50:hihat.wav
320,192,45147,1,0,0:0:0:70:kick.wav
448,192,45147,1,0,0:0:0:0:
64,192,45319,128,0,45491:0:0:0:50:hihat.wav
192,192,45491,1,0,0:0:0:70:kick.wav
448,192,45491,1,0,0:0:0:0:
64,192,45664,1,0,0:0:0:70:snare.wav
320,192,45664,128,0,45836:0:0:0:50:hihat.wav
192,192,45836,1,0,0:0:0:0:
64,192,46009,1,0,0:0:0:70:kick.wav
448,192,46009,128,0,46353:0:0:0:50:hihat.wav
320,192,46181,1,0,0:0:0:0:
64,192,46353,1,0,0:0:0:70:snare.wav
192,192,46353,1,0,0:0:0:50:hihat.wav
320,192,46526,128,0,46871:0:0:0:60:Ride.wav
192,192,46698,1,0,0:0:0:70:kick.wav
64,192,46871,128,0,47215:0:0:0:70:kick.wav
448,192,46871,1,0,0:0:0:0:
192,192,47043,1,0,0:0:0:70:snare.wav
320,192,47043,1,0,0:0:0:50:hihat.wav
448,192,47215,128,0,47560:0:0:0:70:kick.wav
320,192,47388,1,0,0:0:0:50:hihat.wav
64,192,47560,1,0,0:0:0:70:kick.wav
192,192,47560,1,0,0:0:0:0:
64,192,47733,1,0,0:0:0:70:snare.wav
448,192,47733,1,0,0:0:0:50:hihat.wav
320,192,47905,1,0,0:0:0:70:kick.wav
448,192,47905,1,0,0:0:0:0:
192,192,48078,1,0,0:0:0:60:Ride.wav
64,192,48250,1,0,0:0:0:70:kick.wav
320,192,48250,1,0,0:0:0:0:
192,192,48422,1,0,0:0:0:70:snare.wav
448,192,48422,1,0,0:0:0:50:hihat.wav
320,192,48595,1,0,0:0:0:0:
64,192,48767,128,0,49112:0:0:0:70:kick.wav
448,192,48767,1,0,0:0:0:70:finish.wav
192,192,49112,128,0,49457:0:0:0:0:
320,192,49284,1,0,0:0:0:40:snare.wav
64,192,49457,1,0,0:0:0:90:tom03.wav
448,192,49457,128,0,49802:0:0:0:0:
320,192,49629,1,0,0:0:0:90:tom04.wav
64,192,49802,128,0,50147:0:0:0:0:
192,192,49802,1,0,0:0:0:0:
320,192,50147,1,0,0:0:0:90:tom03.wav
448,192,50147,128,0,50491:0:0:0:0:
64,192,50491,1,0,0:0:0:70:kick.wav
192,192,50491,128,0,50836:0:0:0:0:
448,192,50664,1,0,0:0:0:90:tom04.wav
320,192,50836,128,0,51181:0:0:0:0:
64,192,51181,128,0,51526:0:0:0:90:tom04.wav
448,192,51181,1,0,0:0:0:0:
320,192,51526,1,0,0:0:0:70:snare.wav
448,192,51526,1,0,0:0:0:0:
192,192,51698,1,0,0:0:0:70:kick.wav
448,192,51698,1,0,0:0:0:0:
64,192,51871,1,0,0:0:0:70:snare.wav
320,192,51871,1,0,0:0:0:0:
320,192,52043,1,0,0:0:0:0:
64,192,52215,1,0,0:0:0:70:snare.wav
448,192,52215,1,0,0:0:0:0:
192,192,52388,128,0,52560:0:0:0:70:kick.wav
320,192,52388,128,0,52560:0:0:0:50:Hat Open.wav
64,192,52733,128,0,53078:0:0:0:70:kick.wav
192,192,52733,1,0,0:0:0:90:finish.wav
448,192,52733,1,0,0:0:0:0:
320,192,53078,128,0,53250:0:0:0:70:kick.wav
448,192,53078,1,0,0:0:0:0:
64,192,53250,1,0,0:0:0:70:snare.wav
192,192,53250,128,0,53422:0:0:0:50:Hat Open.wav
448,192,53422,128,0,53595:0:0:0:0:
192,192,53595,1,0,0:0:0:70:kick.wav
320,192,53595,1,0,0:0:0:50:Hat Open.wav
64,192,53767,128,0,53940:0:0:0:70:kick.wav
320,192,53767,1,0,0:0:0:0:
192,192,53940,128,0,54112:0:0:0:70:snare.wav
448,192,53940,1,0,0:0:0:50:Hat Open.wav
320,192,54112,128,0,54284:0:0:0:0:
64,192,54284,1,0,0:0:0:70:kick.wav
448,192,54284,128,0,54457:0:0:0:50:Hat Open.wav
64,192,54457,1,0,0:0:0:70:kick.wav
192,192,54457,1,0,0:0:0:0:
320,192,54629,128,0,54802:0:0:0:70:snare.wav
448,192,54629,1,0,0:0:0:50:Hat Open.wav
192,192,54802,128,0,54974:0:0:0:0:
64,192,54974,128,0,55147:0:0:0:70:kick.wav
448,192,54974,1,0,0:0:0:50:Hat Open.wav
320,192,55147,128,0,55319:0:0:0:70:kick.wav
448,192,55147,1,0,0:0:0:0:
64,192,55319,1,0,0:0:0:70:snare.wav
192,192,55319,128,0,55491:0:0:0:50:Hat Open.wav
64,192,55491,1,0,0:0:0:70:kick.wav
448,192,55491,128,0,55664:0:0:0:60:Hat Open.wav
64,192,55836,128,0,56009:0:0:0:70:kick.wav
320,192,55836,1,0,0:0:0:0:
192,192,56009,128,0,56181:0:0:0:70:snare.wav
448,192,56009,1,0,0:0:0:50:Hat Open.wav
320,192,56181,128,0,56353:0:0:0:0:
64,192,56353,1,0,0:0:0:70:kick.wav
192,192,56353,1,0,0:0:0:50:Hat Open.wav
64,192,56526,1,0,0:0:0:70:kick.wav
320,192,56526,1,0,0:0:0:0:
192,192,56698,1,0,0:0:0:70:snare.wav
448,192,56698,128,0,56871:0:0:0:50:Hat Open.wav
64,192,56871,128,0,57043:0:0:0:0:
320,192,57043,1,0,0:0:0:70:kick.wav
448,192,57043,1,0,0:0:0:50:Hat Open.wav
192,192,57215,1,0,0:0:0:70:kick.wav
448,192,57215,1,0,0:0:0:0:
64,192,57388,1,0,0:0:0:70:snare.wav
320,192,57388,1,0,0:0:0:50:Hat Open.wav
192,192,57560,1,0,0:0:0:0:
320,192,57733,1,0,0:0:0:70:kick.wav
448,192,57733,1,0,0:0:0:50:Hat Open.wav
192,192,57905,128,0,58078:0:0:0:70:kick.wav
448,192,57905,1,0,0:0:0:0:
64,192,58078,1,0,0:0:0:70:snare.wav
320,192,58078,128,0,58250:0:0:0:50:Hat Open.wav
64,192,58250,128,0,58595:0:0:0:70:kick.wav
192,192,58250,1,0,0:0:0:90:finish.wav
448,192,58250,1,0,0:0:0:0:
320,192,58595,128,0,58767:0:0:0:70:kick.wav
448,192,58595,1,0,0:0:0:0:
64,192,58767,1,0,0:0:0:70:snare.wav
192,192,58767,128,0,58940:0:0:0:50:Hat Open.wav
320,192,58940,1,0,0:0:0:0:
64,192,59112,1,0,0:0:0:70:kick.wav
448,192,59112,128,0,59284:0:0:0:50:Hat Open.wav
64,192,59284,1,0,0:0:0:70:kick.wav
320,192,59284,1,0,0:0:0:0:
192,192,59457,128,0,59629:0:0:0:70:snare.wav
448,192,59457,1,0,0:0:0:50:Hat Open.wav
320,192,59629,128,0,59974:0:0:0:0:
64,192,59802,1,0,0:0:0:70:kick.wav
192,192,59802,1,0,0:0:0:50:Hat Open.wav
64,192,59974,128,0,60147:0:0:0:70:kick.wav
448,192,59974,1,0,0:0:0:0:
192,192,60147,1,0,0:0:0:70:snare.wav
320,192,60147,1,0,0:0:0:50:Hat Open.wav
64,192,60319,1,0,0:0:0:0:
192,192,60491,1,0,0:0:0:70:kick.wav
448,192,60491,1,0,0:0:0:50:Hat Open.wav
320,192,60664,1,0,0:0:0:70:kick.wav
448,192,60664,128,0,60836:0:0:0:0:
64,192,60836,1,0,0:0:0:70:snare.wav
192,192,60836,1,0,0:0:0:50:Hat Open.wav
320,192,61009,128,0,61181:0:0:0:0:
64,192,61181,128,0,61353:0:0:0:70:kick.wav
448,192,61181,1,0,0:0:0:90:finish.wav
192,192,61353,128,0,61526:0:0:0:70:kick.wav
448,192,61353,1,0,0:0:0:0:
64,192,61526,1,0,0:0:0:70:snare.wav
320,192,61526,128,0,61698:0:0:0:50:Hat Open.wav
448,192,61698,128,0,61871:0:0:0:0:
192,192,61871,128,0,62043:0:0:0:70:kick.wav
320,192,61871,1,0,0:0:0:50:Hat Open.wav
64,192,62043,128,0,62215:0:0:0:70:kick.wav
320,192,62043,1,0,0:0:0:0:
192,192,62215,1,0,0:0:0:70:snare.wav
448,192,62215,1,0,0:0:0:50:Hat Open.wav
320,192,62388,128,0,62560:0:0:0:0:
64,192,62560,1,0,0:0:0:70:kick.wav
192,192,62560,1,0,0:0:0:90:finish.wav
448,192,62733,1,0,0:0:0:40:snare.wav
320,192,62819,1,0,0:0:0:40:snare.wav
64,192,62905,1,0,0:0:0:70:snare.wav
192,192,62991,1,0,0:0:0:70:snare.wav
320,192,63078,1,0,0:0:0:70:kick.wav
448,192,63078,1,0,0:0:0:90:finish.wav
192,192,63250,1,0,0:0:0:0:
64,192,63422,1,0,0:0:0:55:snare.wav
448,192,63422,1,0,0:0:0:0:
320,192,63509,1,0,0:0:0:55:snare.wav
192,192,63595,1,0,0:0:0:90:tom03.wav
64,192,63681,1,0,0:0:0:55:snare.wav
192,192,63767,1,0,0:0:0:70:kick.wav
320,192,63767,1,0,0:0:0:90:finish.wav
448,192,63767,128,0,64112:0:0:0:0:
64,192,64112,1,0,0:0:0:70:kick.wav
192,192,64112,128,0,64284:0:0:0:0:
320,192,64284,128,0,64457:0:0:0:70:snare.wav
448,192,64284,1,0,0:0:0:50:Hat Open.wav
64,192,64457,128,0,64629:0:0:0:0:
192,192,64629,1,0,0:0:0:70:kick.wav
320,192,64629,1,0,0:0:0:50:Hat Open.wav
192,192,64802,1,0,0:0:0:70:kick.wav
448,192,64802,128,0,64974:0:0:0:0:
64,192,64974,1,0,0:0:0:70:snare.wav
320,192,64974,128,0,65147:0:0:0:50:Hat Open.wav
192,192,65147,128,0,65319:0:0:0:0:
64,192,65319,128,0,65491:0:0:0:70:kick.wav
448,192,65319,1,0,0:0:0:50:Hat Open.wav
320,192,65491,1,0,0:0:0:70:kick.wav
448,192,65491,1,0,0:0:0:0:
64,192,65664,1,0,0:0:0:70:snare.wav
192,192,65664,128,0,65836:0:0:0:50:Hat Open.wav
320,192,65836,128,0,66009:0:0:0:0:
64,192,66009,1,0,0:0:0:70:kick.wav
448,192,66009,128,0,66181:0:0:0:50:Hat Open.wav
64,192,66181,1,0,0:0:0:70:kick.wav
192,192,66181,128,0,66353:0:0:0:0:
320,192,66353,128,0,66526:0:0:0:70:snare.wav
448,192,66353,1,0,0:0:0:50:Hat Open.wav
64,192,66526,128,0,66698:0:0:0:70:kick.wav
192,192,66526,1,0,0:0:0:65:finish.wav
448,192,66526,1,0,0:0:0:0:
192,192,66871,1,0,0:0:0:70:kick.wav
448,192,66871,128,0,67043:0:0:0:0:
64,192,67043,1,0,0:0:0:70:snare.wav
320,192,67043,128,0,67215:0:0:0:50:Hat Open.wav
192,192,67215,128,0,67388:0:0:0:0:
320,192,67388,1,0,0:0:0:70:kick.wav
448,192,67388,1,0,0:0:0:50:Hat Open.wav
192,192,67560,1,0,0:0:0:70:kick.wav
448,192,67560,1,0,0:0:0:0:
64,192,67733,128,0,67905:0:0:0:70:snare.wav
320,192,67733,1,0,0:0:0:50:Hat Open.wav
448,192,67905,128,0,68078:0:0:0:0:
64,192,68078,1,0,0:0:0:70:kick.wav
192,192,68078,1,0,0:0:0:50:Hat Open.wav
192,192,68250,1,0,0:0:0:70:kick.wav
320,192,68250,1,0,0:0:0:0:
64,192,68422,1,0,0:0:0:70:snare.wav
448,192,68422,1,0,0:0:0:50:Hat Open.wav
320,192,68595,1,0,0:0:0:0:
64,192,68767,1,0,0:0:0:70:kick.wav
192,192,68767,1,0,0:0:0:50:Hat Open.wav
64,192,68940,1,0,0:0:0:70:kick.wav
320,192,68940,128,0,69112:0:0:0:0:
192,192,69112,128,0,69284:0:0:0:70:snare.wav
448,192,69112,1,0,0:0:0:50:Hat Open.wav
64,192,69284,128,0,69629:0:0:0:70:kick.wav
320,192,69284,1,0,0:0:0:90:finish.wav
448,192,69284,1,0,0:0:0:0:
192,192,69629,1,0,0:0:0:70:kick.wav
448,192,69629,128,0,69974:0:0:0:0:
64,192,69802,1,0,0:0:0:70:snare.wav
320,192,69802,1,0,0:0:0:50:Hat Open.wav
192,192,69974,128,0,70319:0:0:0:0:
448,192,70147,1,0,0:0:0:70:kick.wav
320,192,70319,128,0,70664:0:0:0:70:kick.wav
448,192,70319,1,0,0:0:0:0:
64,192,70491,1,0,0:0:0:70:snare.wav
192,192,70491,1,0,0:0:0:50:Hat Open.wav
64,192,70664,128,0,71181:0:0:0:0:
192,192,70836,1,0,0:0:0:70:kick.wav
448,192,70836,1,0,0:0:0:50:Hat Open.wav
448,192,71009,1,0,0:0:0:70:kick.wav
192,192,71181,128,0,71353:0:0:0:70:snare.wav
320,192,71181,1,0,0:0:0:50:Hat Open.wav
448,192,71353,128,0,71698:0:0:0:0:
192,192,71526,1,0,0:0:0:70:kick.wav
64,192,71698,1,0,0:0:0:70:kick.wav
320,192,71698,128,0,71871:0:0:0:0:
192,192,71871,128,0,72043:0:0:0:70:snare.wav
448,192,71871,1,0,0:0:0:50:Hat Open.wav
64,192,72043,128,0,72388:0:0:0:70:kick.wav
320,192,72043,1,0,0:0:0:90:finish.wav
448,192,72043,1,0,0:0:0:0:
320,192,72388,1,0,0:0:0:70:kick.wav
448,192,72388,128,0,72560:0:0:0:0:
64,192,72560,1,0,0:0:0:70:snare.wav
192,192,72560,128,0,72733:0:0:0:50:Hat Open.wav
320,192,72733,128,0,73078:0:0:0:0:
192,192,72905,1,0,0:0:0:70:kick.wav
64,192,73078,128,0,73250:0:0:0:70:kick.wav
448,192,73078,1,0,0:0:0:0:
192,192,73250,128,0,73422:0:0:0:70:snare.wav
320,192,73250,1,0,0:0:0:50:Hat Open.wav
448,192,73422,128,0,73595:0:0:0:0:
64,192,73595,1,0,0:0:0:70:snare.wav
192,192,73595,1,0,0:0:0:90:finish.wav
320,192,73595,1,0,0:0:0:0:
448,192,73767,1,0,0:0:0:55:snare.wav
320,192,73853,1,0,0:0:0:55:snare.wav
64,192,73940,1,0,0:0:0:55:snare.wav
192,192,74026,1,0,0:0:0:55:snare.wav
64,192,74112,1,0,0:0:0:70:kick.wav
320,192,74112,1,0,0:0:0:90:finish.wav
448,192,74112,1,0,0:0:0:0:
192,192,74284,1,0,0:0:0:0:
64,192,74457,1,0,0:0:0:55:snare.wav
448,192,74457,1,0,0:0:0:0:
320,192,74543,1,0,0:0:0:55:snare.wav
192,192,74629,1,0,0:0:0:55:snare.wav
64,192,74715,1,0,0:0:0:90:tom03.wav
320,192,74802,1,0,0:0:0:90:tom04.wav
448,192,74888,1,0,0:0:0:90:tom04.wav
64,192,74974,1,0,0:0:0:70:kick.wav
192,192,74974,1,0,0:0:0:90:finish.wav
320,192,74974,1,0,0:0:0:0:
64,192,75147,1,0,0:0:0:0:
192,192,75319,1,0,0:0:0:70:snare.wav
320,192,75319,1,0,0:0:0:80:Ride.wav
320,192,75491,1,0,0:0:0:0:
192,192,75664,1,0,0:0:0:70:snare.wav
448,192,75664,1,0,0:0:0:80:Ride.wav
192,192,75836,1,0,0:0:0:70:kick.wav
64,192,76009,1,0,0:0:0:70:snare.wav
320,192,76009,1,0,0:0:0:90:finish.wav
448,192,76009,1,0,0:0:0:0:
192,192,76353,1,0,0:0:0:70:snare.wav
320,192,76353,1,0,0:0:0:80:Ride.wav
320,192,76526,1,0,0:0:0:0:
64,192,76698,1,0,0:0:0:70:snare.wav
448,192,76698,1,0,0:0:0:80:Ride.wav
64,192,76871,1,0,0:0:0:70:kick.wav
192,192,77043,1,0,0:0:0:70:snare.wav
448,192,77043,1,0,0:0:0:80:Ride.wav
448,192,77215,1,0,0:0:0:70:kick.wav
64,192,77388,1,0,0:0:0:70:snare.wav
320,192,77388,1,0,0:0:0:80:Ride.wav
64,192,77560,1,0,0:0:0:70:kick.wav
192,192,77560,1,0,0:0:0:90:finish.wav
448,192,77560,1,0,0:0:0:0:
320,192,77905,1,0,0:0:0:70:kick.wav
448,192,77905,1,0,0:0:0:0:
64,192,78078,1,0,0:0:0:70:snare.wav
192,192,78078,1,0,0:0:0:80:Ride.wav
64,192,78250,1,0,0:0:0:70:kick.wav
192,192,78422,1,0,0:0:0:70:snare.wav
448,192,78422,1,0,0:0:0:80:Ride.wav
448,192,78595,1,0,0:0:0:70:kick.wav
192,192,78767,1,0,0:0:0:70:snare.wav
320,192,78767,1,0,0:0:0:80:Ride.wav
192,192,78940,1,0,0:0:0:70:kick.wav
64,192,79112,1,0,0:0:0:70:snare.wav
448,192,79112,1,0,0:0:0:80:Ride.wav
64,192,79284,1,0,0:0:0:0:
192,192,79457,1,0,0:0:0:70:snare.wav
320,192,79457,1,0,0:0:0:80:Ride.wav
320,192,79629,1,0,0:0:0:70:kick.wav
192,192,79802,1,0,0:0:0:70:snare.wav
448,192,79802,1,0,0:0:0:80:Ride.wav
192,192,79974,1,0,0:0:0:70:kick.wav
64,192,80147,1,0,0:0:0:70:snare.wav
320,192,80147,1,0,0:0:0:80:Ride.wav
192,192,80319,1,0,0:0:0:70:kick.wav
320,192,80319,1,0,0:0:0:90:finish.wav
448,192,80319,1,0,0:0:0:0:
64,192,80664,1,0,0:0:0:70:kick.wav
192,192,80664,1,0,0:0:0:0:
320,192,80836,1,0,0:0:0:70:snare.wav
448,192,80836,1,0,0:0:0:80:Ride.wav
320,192,81009,1,0,0:0:0:70:kick.wav
64,192,81181,1,0,0:0:0:70:snare.wav
448,192,81181,1,0,0:0:0:80:Ride.wav
64,192,81353,1,0,0:0:0:70:kick.wav
192,192,81526,1,0,0:0:0:70:snare.wav
448,192,81526,1,0,0:0:0:80:Ride.wav
448,192,81698,1,0,0:0:0:70:kick.wav
192,192,81871,1,0,0:0:0:70:snare.wav
320,192,81871,1,0,0:0:0:80:Ride.wav
192,192,82043,1,0,0:0:0:70:kick.wav
64,192,82215,1,0,0:0:0:70:snare.wav
448,192,82215,1,0,0:0:0:80:Ride.wav
448,192,82388,1,0,0:0:0:0:
64,192,82560,1,0,0:0:0:70:snare.wav
320,192,82560,1,0,0:0:0:80:Ride.wav
64,192,82733,1,0,0:0:0:70:kick.wav
320,192,82905,1,0,0:0:0:70:snare.wav
448,192,82905,1,0,0:0:0:80:Ride.wav
320,192,83078,1,0,0:0:0:55:snare.wav
192,192,83164,1,0,0:0:0:55:snare.wav
64,192,83250,128,0,83422:0:0:0:55:snare.wav
448,192,83250,128,0,83422:0:0:0:90:finish.wav
320,192,83595,128,0,83767:0:0:0:70:snare.wav
448,192,83595,128,0,83767:0:0:0:80:Ride.wav
192,192,83767,1,0,0:0:0:70:kick.wav
64,192,83940,128,0,84112:0:0:0:70:snare.wav
192,192,83940,128,0,84112:0:0:0:80:Ride.wav
320,192,84112,1,0,0:0:0:70:kick.wav
320,192,84284,128,0,84457:0:0:0:70:snare.wav
448,192,84284,128,0,84457:0:0:0:80:Ride.wav
64,192,84457,1,0,0:0:0:70:kick.wav
192,192,84543,1,0,0:0:0:70:kick.wav
320,192,84629,128,0,84802:0:0:0:70:snare.wav
448,192,84629,128,0,84802:0:0:0:80:Ride.wav
192,192,84802,1,0,0:0:0:70:kick.wav
192,192,84974,128,0,85147:0:0:0:70:snare.wav
320,192,84974,128,0,85147:0:0:0:80:Ride.wav
64,192,85147,1,0,0:0:0:70:kick.wav
64,192,85319,128,0,85491:0:0:0:70:snare.wav
192,192,85319,128,0,85491:0:0:0:80:Ride.wav
448,192,85491,1,0,0:0:0:70:kick.wav
64,192,85664,128,0,85836:0:0:0:70:snare.wav
320,192,85664,128,0,85836:0:0:0:90:finish.wav
448,192,85664,128,0,85836:0:0:0:0:
64,192,86009,128,0,87043:0:0:0:80:Ride.wav
192,192,86009,1,0,0:0:0:0:
448,192,86009,128,0,87043:0:0:0:0:
320,192,87043,128,0,87388:0:0:0:0:
64,192,87388,128,0,87991:0:0:0:70:finish.wav
192,192,87388,128,0,87991:0:0:0:80:Ride.wav
448,192,87388,1,0,0:0:0:0:
448,192,87991,1,0,0:0:0:90:tom03.wav
320,192,88056,1,0,0:0:0:90:tom03.wav
192,192,88135,1,0,0:0:0:90:tom04.wav
