osu file format v14

[General]
AudioFilename: audio.mp3
AudioLeadIn: 0
PreviewTime: 52733
Countdown: 0
SampleSet: Soft
StackLeniency: 0.7
Mode: 3
LetterboxInBreaks: 0
SpecialStyle: 0
WidescreenStoryboard: 1

[Editor]
DistanceSpacing: 1
BeatDivisor: 4
GridSize: 32
TimelineZoom: 1.2

[Metadata]
Title:Kimi no Sei (TV Size)
TitleUnicode:君のせい (TV Size)
Artist:the peggies
ArtistUnicode:the peggies
Creator:Chrisse
Version:Easy
Source:青春ブタ野郎はバニーガール先輩の夢を見ない
Tags:ilham savageeeee zyletinee anime japanese kiminosei Yuuho Kitazawa Keita Kawaguchi jpop j-pop op opening Rascal Does Not Dream of Bunny Girl Senpai Seishun Buta Yarō Yarou wa Yumemiru Shōjo Shojo Shoujo no Yume wo Minai ao-buta aobuta Puberty Syndrome: Abnormal experiences during adolescence due to sensitivity and instability
BeatmapID:4166716
BeatmapSetID:2003639

[Difficulty]
HPDrainRate:6.5
CircleSize:4
OverallDifficulty:6.5
ApproachRate:5
SliderMultiplier:1.4
SliderTickRate:1

[Events]
//Background and Video events
0,0,"background.jpg",0,0
//Break Periods
//Storyboard Layer 0 (Background)
//Storyboard Layer 1 (Fail)
//Storyboard Layer 2 (Pass)
//Storyboard Layer 3 (Foreground)
//Storyboard Layer 4 (Overlay)
//Storyboard Sound Samples
Sample,10491,0,"Hat Open.wav",55
Sample,10836,0,"Hat Open.wav",55
Sample,11181,0,"Hat Open.wav",55
Sample,11526,0,"Hat Open.wav",55
Sample,11871,0,"Hat Open.wav",55
Sample,12215,0,"Hat Open.wav",55
Sample,12905,0,"finish.wav",70
Sample,13250,0,"Hat Open.wav",55
Sample,13595,0,"Hat Open.wav",55
Sample,13940,0,"Hat Open.wav",55
Sample,16009,0,"hihat.wav",50
Sample,16353,0,"hihat.wav",50
Sample,16698,0,"hihat.wav",50
Sample,17043,0,"hihat.wav",50
Sample,17388,0,"hihat.wav",50
Sample,17733,0,"hihat.wav",50
Sample,18078,0,"hihat.wav",50
Sample,18767,0,"hihat.wav",50
Sample,19629,0,"hihat.wav",35
Sample,19802,0,"hihat.wav",50
Sample,20147,0,"hihat.wav",50
Sample,20491,0,"hihat.wav",50
Sample,20836,0,"finish.wav",70
Sample,21526,0,"finish.wav",70
Sample,22215,0,"finish.wav",70
Sample,22905,0,"finish.wav",70
Sample,24284,0,"Hat Open.wav",50
Sample,24629,0,"Hat Open.wav",50
Sample,24974,0,"Hat Open.wav",50
Sample,25664,0,"Hat Open.wav",50
Sample,26009,0,"Hat Open.wav",50
Sample,26353,0,"Hat Open.wav",50
Sample,27043,0,"hihat.wav",50
Sample,27388,0,"hihat.wav",50
Sample,28078,0,"hihat.wav",50
Sample,28422,0,"hihat.wav",50
Sample,28767,0,"hihat.wav",60
Sample,29026,0,"hihat.wav",60
Sample,29284,0,"hihat.wav",60
Sample,29457,0,"hihat.wav",50
Sample,29802,0,"hihat.wav",50
Sample,30147,0,"hihat.wav",50
Sample,31526,0,"hihat.wav",50
Sample,31871,0,"finish.wav",70
Sample,32560,0,"finish.wav",70
Sample,33250,0,"finish.wav",70
Sample,33940,0,"finish.wav",70
Sample,34629,0,"finish.wav",70
Sample,35319,0,"Hat Open.wav",50
Sample,35664,0,"Hat Open.wav",50
Sample,36009,0,"Hat Open.wav",50
Sample,36698,0,"Hat Open.wav",50
Sample,38078,0,"hihat.wav",60
Sample,38422,0,"hihat.wav",60
Sample,38767,0,"hihat.wav",60
Sample,39802,0,"Ride.wav",60
Sample,40836,0,"hihat.wav",50
Sample,41526,0,"hihat.wav",50
Sample,42905,0,"Ride.wav",60
Sample,43595,0,"hihat.wav",50
Sample,43940,0,"hihat.wav",50
Sample,44284,0,"hihat.wav",50
Sample,44974,0,"hihat.wav",50
Sample,45664,0,"hihat.wav",50
Sample,46009,0,"hihat.wav",50
Sample,46353,0,"hihat.wav",50
Sample,47043,0,"hihat.wav",50
Sample,47733,0,"hihat.wav",50
Sample,48422,0,"hihat.wav",50
Sample,53250,0,"Hat Open.wav",50
Sample,53595,0,"Hat Open.wav",50
Sample,53940,0,"Hat Open.wav",50
Sample,54284,0,"Hat Open.wav",50
Sample,54629,0,"Hat Open.wav",50
Sample,54974,0,"Hat Open.wav",50
Sample,55319,0,"Hat Open.wav",50
Sample,56009,0,"Hat Open.wav",50
Sample,56353,0,"Hat Open.wav",50
Sample,56698,0,"Hat Open.wav",50
Sample,57043,0,"Hat Open.wav",50
Sample,57388,0,"Hat Open.wav",50
Sample,57733,0,"Hat Open.wav",50
Sample,58078,0,"Hat Open.wav",50
Sample,58767,0,"Hat Open.wav",50
Sample,59112,0,"Hat Open.wav",50
Sample,59457,0,"Hat Open.wav",50
Sample,59802,0,"Hat Open.wav",50
Sample,60147,0,"Hat Open.wav",50
Sample,60491,0,"Hat Open.wav",50
Sample,60836,0,"Hat Open.wav",50
Sample,61526,0,"Hat Open.wav",50
Sample,61871,0,"Hat Open.wav",50
Sample,62215,0,"Hat Open.wav",50
Sample,64284,0,"Hat Open.wav",50
Sample,64629,0,"Hat Open.wav",50
Sample,64974,0,"Hat Open.wav",50
Sample,65319,0,"Hat Open.wav",50
Sample,65664,0,"Hat Open.wav",50
Sample,66009,0,"Hat Open.wav",50
Sample,66353,0,"Hat Open.wav",50
Sample,67043,0,"Hat Open.wav",50
Sample,67388,0,"Hat Open.wav",50
Sample,67733,0,"Hat Open.wav",50
Sample,68078,0,"Hat Open.wav",50
Sample,68422,0,"Hat Open.wav",50
Sample,68767,0,"Hat Open.wav",50
Sample,69112,0,"Hat Open.wav",50
Sample,69802,0,"Hat Open.wav",50
Sample,70147,0,"Hat Open.wav",50
Sample,70491,0,"Hat Open.wav",50
Sample,70836,0,"Hat Open.wav",50
Sample,71181,0,"Hat Open.wav",50
Sample,71526,0,"Hat Open.wav",50
Sample,71871,0,"Hat Open.wav",50
Sample,72560,0,"Hat Open.wav",50
Sample,72905,0,"Hat Open.wav",50
Sample,73250,0,"Hat Open.wav",50
Sample,73595,0,"finish.wav",90
Sample,77388,0,"Ride.wav",80
Sample,80147,0,"Ride.wav",80

[TimingPoints]
319,344.827586206897,4,2,1,50,1,0
8768,344.827586206897,4,2,1,50,1,0
10147,344.827586206897,4,2,1,50,1,0
52733,-100.0,4,2,1,50,0,1
86009,-100.0,4,2,1,50,0,0

[HitObjects]
320,192,319,1,0,0:0:0:0:
192,192,663,1,0,0:0:0:0:
448,192,836,1,0,0:0:0:0:
64,192,1008,1,0,0:0:0:0:
320,192,1353,1,0,0:0:0:0:
192,192,1525,1,0,0:0:0:0:
448,192,1698,1,0,0:0:0:0:
64,192,1870,1,0,0:0:0:0:
320,192,2215,1,0,0:0:0:0:
192,192,2387,1,0,0:0:0:0:
448,192,2560,1,0,0:0:0:0:
64,192,2732,128,0,3077:0:0:0:0:
320,192,3077,1,0,0:0:0:0:
192,192,3422,1,0,0:0:0:0:
320,192,3594,1,0,0:0:0:0:
64,192,3767,1,0,0:0:0:0:
192,192,4284,1,0,0:0:0:0:
448,192,4456,1,0,0:0:0:0:
64,192,4974,1,0,0:0:0:0:
320,192,5491,1,0,0:0:0:0:
64,192,5663,1,0,0:0:0:0:
448,192,5836,1,0,0:0:0:0:
192,192,6181,1,0,0:0:0:0:
448,192,6353,1,0,0:0:0:0:
64,192,6698,1,0,0:0:0:0:
320,192,7043,1,0,0:0:0:0:
192,192,7215,1,0,0:0:0:0:
448,192,7560,1,0,0:0:0:0:
64,192,7732,1,0,0:0:0:0:
320,192,8077,1,0,0:0:0:0:
448,192,8250,1,0,0:0:0:0:
192,192,8422,1,0,0:0:0:0:
64,192,8768,1,0,0:0:0:80:kick.wav
448,192,8768,128,0,9285:0:0:0:0:
64,192,10147,1,0,0:0:0:70:snare.wav
192,192,10147,1,0,0:0:0:90:finish.wav
320,192,10491,1,0,0:0:0:70:snare.wav
192,192,10836,1,0,0:0:0:70:snare.wav
448,192,11181,1,0,0:0:0:70:snare.wav
64,192,11526,1,0,0:0:0:70:snare.wav
320,192,11871,1,0,0:0:0:70:snare.wav
192,192,12215,1,0,0:0:0:70:snare.wav
448,192,12388,1,0,0:0:0:70:kick.wav
64,192,12560,1,0,0:0:0:70:snare.wav
320,192,12905,1,0,0:0:0:70:snare.wav
192,192,13250,1,0,0:0:0:70:snare.wav
64,192,13595,1,0,0:0:0:70:snare.wav
448,192,13940,1,0,0:0:0:70:snare.wav
320,192,14112,1,0,0:0:0:0:
64,192,14284,1,0,0:0:0:70:kick.wav
192,192,14284,1,0,0:0:0:70:finish.wav
448,192,14514,1,0,0:0:0:70:snare.wav
64,192,14744,1,0,0:0:0:70:snare.wav
320,192,14974,1,0,0:0:0:70:snare.wav
448,192,14974,1,0,0:0:0:70:finish.wav
192,192,15491,1,0,0:0:0:50:snare.wav
64,192,15664,1,0,0:0:0:70:kick.wav
448,192,15664,1,0,0:0:0:65:finish.wav
320,192,16009,1,0,0:0:0:70:kick.wav
64,192,16353,1,0,0:0:0:70:kick.wav
320,192,16698,1,0,0:0:0:70:kick.wav
192,192,17043,1,0,0:0:0:70:kick.wav
448,192,17388,1,0,0:0:0:70:kick.wav
64,192,17733,1,0,0:0:0:70:kick.wav
320,192,18078,1,0,0:0:0:70:kick.wav
64,192,18422,1,0,0:0:0:70:kick.wav
448,192,18422,1,0,0:0:0:70:finish.wav
192,192,18767,1,0,0:0:0:70:kick.wav
320,192,19112,1,0,0:0:0:70:snare.wav
192,192,19457,1,0,0:0:0:50:hihat.wav
448,192,19629,1,0,0:0:0:70:snare.wav
64,192,19802,1,0,0:0:0:70:kick.wav
320,192,20147,1,0,0:0:0:70:snare.wav
64,192,20491,1,0,0:0:0:70:kick.wav
448,192,20664,1,0,0:0:0:70:kick.wav
192,192,20836,128,0,21181:0:0:0:70:snare.wav
320,192,21181,1,0,0:0:0:70:kick.wav
64,192,21353,1,0,0:0:0:70:kick.wav
448,192,21526,128,0,21871:0:0:0:70:snare.wav
192,192,21871,1,0,0:0:0:70:kick.wav
320,192,22043,1,0,0:0:0:70:kick.wav
64,192,22215,128,0,22560:0:0:0:70:snare.wav
320,192,22560,1,0,0:0:0:70:kick.wav
192,192,22733,1,0,0:0:0:70:kick.wav
448,192,22905,128,0,23250:0:0:0:70:snare.wav
192,192,23250,1,0,0:0:0:70:kick.wav
320,192,23422,1,0,0:0:0:70:kick.wav
64,192,23595,128,0,23940:0:0:0:70:snare.wav
320,192,23940,1,0,0:0:0:70:kick.wav
448,192,23940,1,0,0:0:0:70:finish.wav
192,192,24284,1,0,0:0:0:70:snare.wav
448,192,24629,1,0,0:0:0:70:kick.wav
64,192,24802,1,0,0:0:0:70:kick.wav
320,192,24974,1,0,0:0:0:70:snare.wav
192,192,25147,1,0,0:0:0:70:kick.wav
192,192,25491,1,0,0:0:0:70:kick.wav
320,192,25664,1,0,0:0:0:70:snare.wav
64,192,26009,1,0,0:0:0:70:kick.wav
448,192,26181,1,0,0:0:0:70:kick.wav
192,192,26353,1,0,0:0:0:70:snare.wav
64,192,26698,128,0,27043:0:0:0:70:kick.wav
320,192,26698,1,0,0:0:0:70:finish.wav
448,192,27043,1,0,0:0:0:70:kick.wav
320,192,27388,1,0,0:0:0:70:snare.wav
448,192,27905,1,0,0:0:0:0:
64,192,28078,1,0,0:0:0:70:kick.wav
320,192,28422,1,0,0:0:0:70:kick.wav
192,192,28767,1,0,0:0:0:70:snare.wav
448,192,29026,1,0,0:0:0:70:snare.wav
64,192,29284,1,0,0:0:0:70:snare.wav
320,192,29457,1,0,0:0:0:70:kick.wav
192,192,29802,1,0,0:0:0:70:kick.wav
448,192,30147,1,0,0:0:0:70:snare.wav
64,192,30491,1,0,0:0:0:50:hihat.wav
320,192,30664,1,0,0:0:0:50:Hat Open.wav
192,192,30836,1,0,0:0:0:70:kick.wav
448,192,31181,1,0,0:0:0:70:snare.wav
64,192,31526,1,0,0:0:0:70:kick.wav
192,192,31698,1,0,0:0:0:70:kick.wav
320,192,31871,128,0,32215:0:0:0:70:snare.wav
64,192,32215,1,0,0:0:0:90:tom03.wav
448,192,32388,1,0,0:0:0:70:kick.wav
192,192,32560,128,0,32905:0:0:0:70:snare.wav
448,192,32905,1,0,0:0:0:70:kick.wav
64,192,33078,1,0,0:0:0:70:kick.wav
320,192,33250,128,0,33595:0:0:0:70:snare.wav
64,192,33595,1,0,0:0:0:70:kick.wav
448,192,33767,1,0,0:0:0:70:kick.wav
192,192,33940,128,0,34284:0:0:0:70:snare.wav
448,192,34284,1,0,0:0:0:70:kick.wav
64,192,34457,1,0,0:0:0:70:kick.wav
320,192,34629,128,0,34974:0:0:0:70:snare.wav
64,192,34974,128,0,35319:0:0:0:70:kick.wav
192,192,34974,1,0,0:0:0:70:finish.wav
448,192,35319,128,0,35664:0:0:0:70:snare.wav
192,192,35664,128,0,36009:0:0:0:70:kick.wav
320,192,36009,128,0,36353:0:0:0:70:snare.wav
64,192,36353,128,0,36698:0:0:0:50:Hat Open.wav
448,192,36698,1,0,0:0:0:70:snare.wav
320,192,37043,1,0,0:0:0:70:kick.wav
64,192,37215,1,0,0:0:0:70:snare.wav
448,192,37388,1,0,0:0:0:90:tom04.wav
192,192,37560,1,0,0:0:0:90:tom03.wav
320,192,37733,1,0,0:0:0:70:kick.wav
448,192,37733,128,0,38078:0:0:0:70:finish.wav
192,192,38078,128,0,38422:0:0:0:70:snare.wav
320,192,38422,128,0,38767:0:0:0:70:kick.wav
64,192,38767,128,0,39112:0:0:0:70:snare.wav
448,192,39112,128,0,39457:0:0:0:50:hihat.wav
192,192,39457,1,0,0:0:0:70:snare.wav
64,192,39802,1,0,0:0:0:70:kick.wav
448,192,39974,1,0,0:0:0:70:kick.wav
192,192,40147,1,0,0:0:0:70:snare.wav
320,192,40319,128,0,40664:0:0:0:70:kick.wav
448,192,40664,1,0,0:0:0:70:kick.wav
64,192,40836,1,0,0:0:0:70:snare.wav
192,192,41009,128,0,41353:0:0:0:70:kick.wav
448,192,41353,1,0,0:0:0:70:kick.wav
64,192,41526,1,0,0:0:0:70:snare.wav
320,192,41698,128,0,42043:0:0:0:70:kick.wav
192,192,42043,128,0,42388:0:0:0:70:kick.wav
64,192,42388,128,0,42733:0:0:0:70:kick.wav
448,192,42733,1,0,0:0:0:70:kick.wav
192,192,42905,1,0,0:0:0:70:snare.wav
320,192,43250,1,0,0:0:0:70:kick.wav
448,192,43250,128,0,43595:0:0:0:70:finish.wav
64,192,43595,128,0,43940:0:0:0:70:snare.wav
320,192,43940,128,0,44284:0:0:0:70:kick.wav
192,192,44284,128,0,44629:0:0:0:70:snare.wav
448,192,44629,128,0,44974:0:0:0:50:hihat.wav
64,192,44974,128,0,45319:0:0:0:70:snare.wav
192,192,45319,128,0,45664:0:0:0:50:hihat.wav
320,192,45664,128,0,46009:0:0:0:70:snare.wav
64,192,46009,1,0,0:0:0:70:kick.wav
448,192,46353,1,0,0:0:0:70:snare.wav
64,192,46698,1,0,0:0:0:70:kick.wav
320,192,46871,1,0,0:0:0:70:kick.wav
192,192,47043,1,0,0:0:0:70:snare.wav
448,192,47215,128,0,47560:0:0:0:70:kick.wav
64,192,47560,1,0,0:0:0:70:kick.wav
192,192,47733,1,0,0:0:0:70:snare.wav
448,192,47905,128,0,48250:0:0:0:70:kick.wav
320,192,48250,1,0,0:0:0:70:kick.wav
64,192,48422,128,0,48767:0:0:0:70:snare.wav
320,192,48767,1,0,0:0:0:70:kick.wav
448,192,48767,128,0,49112:0:0:0:70:finish.wav
192,192,49112,128,0,49457:0:0:0:0:
320,192,49457,1,0,0:0:0:90:tom03.wav
64,192,49629,1,0,0:0:0:90:tom04.wav
448,192,49802,128,0,50147:0:0:0:0:
192,192,50147,128,0,50491:0:0:0:90:tom03.wav
448,192,50491,1,0,0:0:0:70:kick.wav
64,192,50664,1,0,0:0:0:90:tom04.wav
320,192,50836,128,0,51181:0:0:0:0:
192,192,51181,128,0,51526:0:0:0:90:tom04.wav
64,192,51526,1,0,0:0:0:70:snare.wav
448,192,51526,1,0,0:0:0:0:
320,192,51698,1,0,0:0:0:70:kick.wav
192,192,51871,1,0,0:0:0:70:snare.wav
448,192,52215,1,0,0:0:0:70:snare.wav
64,192,52388,1,0,0:0:0:70:kick.wav
192,192,52388,1,0,0:0:0:50:Hat Open.wav
320,192,52733,1,0,0:0:0:70:kick.wav
448,192,52733,1,0,0:0:0:90:finish.wav
64,192,53078,1,0,0:0:0:70:kick.wav
320,192,53250,1,0,0:0:0:70:snare.wav
192,192,53595,1,0,0:0:0:70:kick.wav
448,192,53767,1,0,0:0:0:70:kick.wav
64,192,53940,1,0,0:0:0:70:snare.wav
320,192,54284,1,0,0:0:0:70:kick.wav
192,192,54457,1,0,0:0:0:70:kick.wav
448,192,54629,1,0,0:0:0:70:snare.wav
64,192,54974,1,0,0:0:0:70:kick.wav
320,192,55147,1,0,0:0:0:70:kick.wav
192,192,55319,1,0,0:0:0:70:snare.wav
64,192,55491,1,0,0:0:0:70:kick.wav
448,192,55491,1,0,0:0:0:60:Hat Open.wav
320,192,55836,1,0,0:0:0:70:kick.wav
64,192,56009,1,0,0:0:0:70:snare.wav
192,192,56353,1,0,0:0:0:70:kick.wav
448,192,56526,1,0,0:0:0:70:kick.wav
64,192,56698,1,0,0:0:0:70:snare.wav
448,192,57043,1,0,0:0:0:70:kick.wav
192,192,57215,1,0,0:0:0:70:kick.wav
320,192,57388,1,0,0:0:0:70:snare.wav
64,192,57733,1,0,0:0:0:70:kick.wav
448,192,57905,1,0,0:0:0:70:kick.wav
320,192,58078,1,0,0:0:0:70:snare.wav
64,192,58250,1,0,0:0:0:70:kick.wav
192,192,58250,1,0,0:0:0:90:finish.wav
448,192,58595,1,0,0:0:0:70:kick.wav
64,192,58767,1,0,0:0:0:70:snare.wav
192,192,59112,1,0,0:0:0:70:kick.wav
448,192,59284,1,0,0:0:0:70:kick.wav
64,192,59457,1,0,0:0:0:70:snare.wav
448,192,59802,1,0,0:0:0:70:kick.wav
192,192,59974,1,0,0:0:0:70:kick.wav
320,192,60147,1,0,0:0:0:70:snare.wav
64,192,60491,1,0,0:0:0:70:kick.wav
320,192,60664,1,0,0:0:0:70:kick.wav
192,192,60836,1,0,0:0:0:70:snare.wav
320,192,61181,1,0,0:0:0:70:kick.wav
448,192,61181,1,0,0:0:0:90:finish.wav
64,192,61353,1,0,0:0:0:70:kick.wav
192,192,61526,1,0,0:0:0:70:snare.wav
448,192,61871,1,0,0:0:0:70:kick.wav
192,192,62043,1,0,0:0:0:70:kick.wav
320,192,62215,1,0,0:0:0:70:snare.wav
64,192,62560,1,0,0:0:0:70:kick.wav
192,192,62560,1,0,0:0:0:90:finish.wav
448,192,62733,1,0,0:0:0:40:snare.wav
320,192,62905,1,0,0:0:0:70:snare.wav
192,192,63078,1,0,0:0:0:70:kick.wav
448,192,63078,1,0,0:0:0:90:finish.wav
64,192,63422,1,0,0:0:0:55:snare.wav
192,192,63595,1,0,0:0:0:90:tom03.wav
320,192,63767,1,0,0:0:0:70:kick.wav
448,192,63767,1,0,0:0:0:90:finish.wav
64,192,64112,1,0,0:0:0:70:kick.wav
320,192,64284,1,0,0:0:0:70:snare.wav
192,192,64629,1,0,0:0:0:70:kick.wav
448,192,64802,1,0,0:0:0:70:kick.wav
64,192,64974,1,0,0:0:0:70:snare.wav
320,192,65319,1,0,0:0:0:70:kick.wav
192,192,65491,1,0,0:0:0:70:kick.wav
448,192,65664,1,0,0:0:0:70:snare.wav
192,192,66009,1,0,0:0:0:70:kick.wav
320,192,66181,1,0,0:0:0:70:kick.wav
64,192,66353,1,0,0:0:0:70:snare.wav
192,192,66526,1,0,0:0:0:70:kick.wav
448,192,66526,1,0,0:0:0:65:finish.wav
320,192,66871,1,0,0:0:0:70:kick.wav
64,192,67043,1,0,0:0:0:70:snare.wav
192,192,67388,1,0,0:0:0:70:kick.wav
448,192,67560,1,0,0:0:0:70:kick.wav
64,192,67733,1,0,0:0:0:70:snare.wav
320,192,68078,1,0,0:0:0:70:kick.wav
64,192,68250,1,0,0:0:0:70:kick.wav
448,192,68422,1,0,0:0:0:70:snare.wav
192,192,68767,1,0,0:0:0:70:kick.wav
320,192,68940,1,0,0:0:0:70:kick.wav
64,192,69112,1,0,0:0:0:70:snare.wav
320,192,69284,1,0,0:0:0:70:kick.wav
448,192,69284,1,0,0:0:0:90:finish.wav
448,192,69629,1,0,0:0:0:70:kick.wav
192,192,69802,1,0,0:0:0:70:snare.wav
64,192,70147,1,0,0:0:0:70:kick.wav
448,192,70319,1,0,0:0:0:70:kick.wav
192,192,70491,1,0,0:0:0:70:snare.wav
320,192,70836,1,0,0:0:0:70:kick.wav
64,192,71009,1,0,0:0:0:70:kick.wav
448,192,71181,1,0,0:0:0:70:snare.wav
320,192,71526,1,0,0:0:0:70:kick.wav
192,192,71698,1,0,0:0:0:70:kick.wav
448,192,71871,1,0,0:0:0:70:snare.wav
64,192,72043,1,0,0:0:0:70:kick.wav
320,192,72043,1,0,0:0:0:90:finish.wav
192,192,72388,1,0,0:0:0:70:kick.wav
448,192,72560,1,0,0:0:0:70:snare.wav
320,192,72905,1,0,0:0:0:70:kick.wav
64,192,73078,1,0,0:0:0:70:kick.wav
448,192,73250,1,0,0:0:0:70:snare.wav
320,192,73595,1,0,0:0:0:70:snare.wav
64,192,73767,1,0,0:0:0:55:snare.wav
192,192,73940,1,0,0:0:0:55:snare.wav
320,192,74112,1,0,0:0:0:70:kick.wav
448,192,74112,1,0,0:0:0:90:finish.wav
64,192,74457,1,0,0:0:0:55:snare.wav
448,192,74629,1,0,0:0:0:55:snare.wav
320,192,74802,1,0,0:0:0:90:tom04.wav
64,192,74974,1,0,0:0:0:70:kick.wav
192,192,74974,1,0,0:0:0:90:finish.wav
64,192,75319,1,0,0:0:0:70:snare.wav
448,192,75319,1,0,0:0:0:80:Ride.wav
320,192,75664,1,0,0:0:0:70:snare.wav
448,192,75664,1,0,0:0:0:80:Ride.wav
64,192,76009,1,0,0:0:0:70:snare.wav
192,192,76009,1,0,0:0:0:90:finish.wav
192,192,76353,1,0,0:0:0:70:snare.wav
448,192,76353,1,0,0:0:0:80:Ride.wav
64,192,76698,1,0,0:0:0:70:snare.wav
320,192,76698,1,0,0:0:0:80:Ride.wav
320,192,77043,1,0,0:0:0:70:snare.wav
448,192,77043,1,0,0:0:0:80:Ride.wav
192,192,77388,1,0,0:0:0:70:snare.wav
64,192,77560,128,0,77905:0:0:0:70:kick.wav
320,192,77560,1,0,0:0:0:90:finish.wav
448,192,77905,1,0,0:0:0:70:kick.wav
192,192,78078,1,0,0:0:0:70:snare.wav
320,192,78078,1,0,0:0:0:80:Ride.wav
64,192,78422,1,0,0:0:0:70:snare.wav
192,192,78422,1,0,0:0:0:80:Ride.wav
320,192,78767,1,0,0:0:0:70:snare.wav
448,192,78767,1,0,0:0:0:80:Ride.wav
64,192,79112,1,0,0:0:0:70:snare.wav
320,192,79112,1,0,0:0:0:80:Ride.wav
192,192,79457,1,0,0:0:0:70:snare.wav
448,192,79457,1,0,0:0:0:80:Ride.wav
64,192,79802,1,0,0:0:0:70:snare.wav
192,192,79802,1,0,0:0:0:80:Ride.wav
320,192,80147,1,0,0:0:0:70:snare.wav
64,192,80319,1,0,0:0:0:70:kick.wav
448,192,80319,1,0,0:0:0:90:finish.wav
192,192,80836,1,0,0:0:0:70:snare.wav
320,192,80836,1,0,0:0:0:80:Ride.wav
64,192,81181,1,0,0:0:0:70:snare.wav
192,192,81181,1,0,0:0:0:80:Ride.wav
320,192,81526,1,0,0:0:0:70:snare.wav
448,192,81526,1,0,0:0:0:80:Ride.wav
64,192,81871,1,0,0:0:0:70:snare.wav
448,192,81871,1,0,0:0:0:80:Ride.wav
192,192,82215,1,0,0:0:0:70:snare.wav
320,192,82215,1,0,0:0:0:80:Ride.wav
64,192,82560,1,0,0:0:0:70:snare.wav
192,192,82560,1,0,0:0:0:80:Ride.wav
320,192,82905,1,0,0:0:0:70:snare.wav
448,192,82905,128,0,83250:0:0:0:80:Ride.wav
64,192,83250,1,0,0:0:0:55:snare.wav
192,192,83250,1,0,0:0:0:90:finish.wav
320,192,83595,1,0,0:0:0:70:snare.wav
448,192,83595,1,0,0:0:0:80:Ride.wav
64,192,83940,1,0,0:0:0:70:snare.wav
192,192,83940,1,0,0:0:0:80:Ride.wav
64,192,84284,1,0,0:0:0:70:snare.wav
448,192,84284,1,0,0:0:0:80:Ride.wav
192,192,84629,1,0,0:0:0:70:snare.wav
320,192,84629,1,0,0:0:0:80:Ride.wav
64,192,84974,1,0,0:0:0:70:snare.wav
448,192,84974,1,0,0:0:0:80:Ride.wav
320,192,85319,1,0,0:0:0:70:snare.wav
448,192,85319,1,0,0:0:0:80:Ride.wav
64,192,85664,1,0,0:0:0:70:snare.wav
192,192,85664,1,0,0:0:0:90:finish.wav
320,192,86009,128,0,86353:0:0:0:80:Ride.wav
64,192,86353,128,0,86698:0:0:0:0:
448,192,86698,128,0,87043:0:0:0:0:
192,192,87043,128,0,87388:0:0:0:0:
320,192,87388,128,0,87733:0:0:0:70:finish.wav
448,192,87388,1,0,0:0:0:80:Ride.wav
64,192,87733,128,0,88078:0:0:0:0:
448,192,88078,1,0,0:0:0:0:
192,192,88250,1,0,0:0:0:0:
320,192,88422,1,0,0:0:0:0:
