osu file format v14

[General]
AudioFilename: audio.mp3
AudioLeadIn: 0
PreviewTime: 52752
Countdown: 0
SampleSet: Normal
StackLeniency: 0.7
Mode: 1
LetterboxInBreaks: 0
WidescreenStoryboard: 1

[Editor]
Bookmarks: 10166,15683,26718,37752
DistanceSpacing: 1
BeatDivisor: 2
GridSize: 32
TimelineZoom: 1.1

[Metadata]
Title:Kimi no Sei (TV Size)
TitleUnicode:君のせい (TV Size)
Artist:the peggies
ArtistUnicode:the peggies
Creator:Burak
Version:Zhuosh's Kantan
Source:青春ブタ野郎はバニーガール先輩の夢を見ない
Tags:Seishun Buta Yarō Yarou wa Yumemiru Shōjo Shojo Shoujo no Yume wo Minai ao-buta aobuta Puberty Syndrome: Abnormal experiences during adolescence due to sensitivity and instability. Rascal Does Not Dream of Bunny Girl Senpai opening op j-pop jpop japanese anime 牧之原翔子 Shouko Shōko Shoko Makinohara justburak Zhuosh
BeatmapID:3184284
BeatmapSetID:1480794

[Difficulty]
HPDrainRate:8
CircleSize:5
OverallDifficulty:3
ApproachRate:5
SliderMultiplier:1.4
SliderTickRate:1

[Events]
//Background and Video events
0,0,"cringe.jpg",0,60
Video,0,"output.mp4"
//Break Periods
//Storyboard Layer 0 (Background)
//Storyboard Layer 1 (Fail)
//Storyboard Layer 2 (Pass)
//Storyboard Layer 3 (Foreground)
//Storyboard Layer 4 (Overlay)
//Storyboard Sound Samples

[TimingPoints]
-868,344.827586206897,4,1,0,60,1,0
10166,-100,4,1,0,70,0,0
15683,-100,4,1,0,60,0,0
21545,-100,4,1,0,65,0,0
26718,-100,4,1,0,60,0,0
32580,-100,4,1,0,65,0,0
48787,-100,4,1,0,60,0,0
51545,-100,4,1,0,70,0,0
52752,-100,4,1,0,80,0,1
73614,-100,4,1,0,80,0,0
74994,-100,4,1,0,90,0,1
86028,-100,4,1,0,70,0,0
87925,-100,4,1,0,60,0,0

[HitObjects]
256,192,338,5,8,0:0:0:0:
256,192,1028,1,8,0:0:0:0:
256,192,1890,1,8,0:0:0:0:
256,192,2752,1,8,0:0:0:0:
256,192,3097,1,0,0:0:0:0:
256,192,3787,1,0,0:0:0:0:
256,192,4476,1,8,0:0:0:0:
256,192,5856,1,8,0:0:0:0:
256,192,6373,1,0,0:0:0:0:
256,192,6718,1,0,0:0:0:0:
256,192,7235,1,8,0:0:0:0:
256,192,7580,1,8,0:0:0:0:
256,192,8787,1,4,0:0:0:0:
256,192,10166,1,12,0:0:0:0:
256,192,10856,1,8,0:0:0:0:
256,192,11200,1,8,0:0:0:0:
256,192,11545,1,0,0:0:0:0:
256,192,12235,1,0,0:0:0:0:
256,192,12580,1,0,0:0:0:0:
256,192,12925,1,12,0:0:0:0:
256,192,13614,1,8,0:0:0:0:
256,192,13959,1,0,0:0:0:0:
256,192,14304,1,12,0:0:0:0:
256,192,14994,1,4,0:0:0:0:
256,192,15683,1,8,0:0:0:0:
256,192,17063,1,8,0:0:0:0:
256,192,17752,1,0,0:0:0:0:
256,192,18097,1,8,0:0:0:0:
256,192,18442,1,4,0:0:0:0:
256,192,19132,1,8,0:0:0:0:
256,192,19649,1,8,0:0:0:0:
256,192,20166,1,8,0:0:0:0:
256,192,20511,1,0,0:0:0:0:
256,192,20856,1,8,0:0:0:0:
256,192,21545,1,12,0:0:0:0:
256,192,22235,1,12,0:0:0:0:
256,192,22925,1,12,0:0:0:0:
256,192,23614,1,12,0:0:0:0:
256,192,23959,1,4,0:0:0:0:
256,192,24994,1,0,0:0:0:0:
256,192,25338,1,8,0:0:0:0:
256,192,25856,1,8,0:0:0:0:
256,192,26373,1,0,0:0:0:0:
256,192,26718,1,4,0:0:0:0:
256,192,27407,1,8,0:0:0:0:
256,192,28097,1,0,0:0:0:0:
256,192,28442,1,0,0:0:0:0:
256,192,28787,1,8,0:0:0:0:
256,192,29476,1,0,0:0:0:0:
256,192,30166,1,8,0:0:0:0:
256,192,31200,1,8,0:0:0:0:
256,192,31545,1,0,0:0:0:0:
256,192,31890,1,8,0:0:0:0:
256,192,32580,1,12,0:0:0:0:
256,192,33269,1,12,0:0:0:0:
256,192,33959,1,12,0:0:0:0:
256,192,34649,1,12,0:0:0:0:
256,192,34994,1,4,0:0:0:0:
256,192,35683,1,0,0:0:0:0:
256,192,36028,1,0,0:0:0:0:
256,192,36373,1,8,0:0:0:0:
256,192,37063,1,8,0:0:0:0:
256,192,37752,1,4,0:0:0:0:
256,192,38442,1,0,0:0:0:0:
256,192,38787,1,8,0:0:0:0:
256,192,39132,1,0,0:0:0:0:
256,192,40338,1,8,0:0:0:0:
256,192,41028,1,0,0:0:0:0:
256,192,41718,1,8,0:0:0:0:
256,192,42063,1,8,0:0:0:0:
256,192,42407,1,0,0:0:0:0:
256,192,42925,1,8,0:0:0:0:
256,192,43269,1,4,0:0:0:0:
256,192,44304,1,8,0:0:0:0:
256,192,44649,1,0,0:0:0:0:
256,192,44994,1,0,0:0:0:0:
256,192,45338,1,8,0:0:0:0:
256,192,46028,1,0,0:0:0:0:
256,192,46545,1,8,0:0:0:0:
256,192,46890,1,8,0:0:0:0:
256,192,47235,1,0,0:0:0:0:
256,192,47752,1,8,0:0:0:0:
256,192,48442,1,0,0:0:0:0:
256,192,48787,1,12,0:0:0:0:
256,192,50166,1,0,0:0:0:0:
256,192,50683,1,0,0:0:0:0:
256,192,51545,1,8,0:0:0:0:
256,192,51890,1,8,0:0:0:0:
256,192,52235,1,0,0:0:0:0:
256,192,52752,1,12,0:0:0:0:
256,192,53442,1,8,0:0:0:0:
256,192,53959,1,0,0:0:0:0:
256,192,54304,1,8,0:0:0:0:
256,192,54649,1,0,0:0:0:0:
256,192,54994,1,0,0:0:0:0:
256,192,55511,1,8,0:0:0:0:
256,192,56200,1,0,0:0:0:0:
256,192,56718,1,8,0:0:0:0:
256,192,57063,1,0,0:0:0:0:
256,192,58269,1,12,0:0:0:0:
256,192,58787,1,0,0:0:0:0:
256,192,59132,1,0,0:0:0:0:
256,192,59649,1,8,0:0:0:0:
256,192,59994,1,0,0:0:0:0:
256,192,61200,1,8,0:0:0:0:
256,192,61890,1,8,0:0:0:0:
256,192,62235,1,0,0:0:0:0:
256,192,62580,1,8,0:0:0:0:
256,192,63097,1,0,0:0:0:0:
256,192,63442,1,0,0:0:0:0:
256,192,63787,1,12,0:0:0:0:
256,192,64476,1,8,0:0:0:0:
256,192,64994,1,0,0:0:0:0:
256,192,65338,1,8,0:0:0:0:
256,192,65683,1,0,0:0:0:0:
256,192,66028,1,0,0:0:0:0:
256,192,66545,1,8,0:0:0:0:
256,192,67235,1,0,0:0:0:0:
256,192,67752,1,8,0:0:0:0:
256,192,68097,1,0,0:0:0:0:
256,192,69304,1,4,0:0:0:0:
256,192,69994,1,8,0:0:0:0:
256,192,70338,1,8,0:0:0:0:
256,192,70683,1,0,0:0:0:0:
256,192,71373,1,8,0:0:0:0:
256,192,72063,1,12,0:0:0:0:
256,192,72752,1,0,0:0:0:0:
256,192,73269,1,8,0:0:0:0:
256,192,73614,1,0,0:0:0:0:
256,192,74132,1,4,0:0:0:0:
256,192,74476,1,8,0:0:0:0:
256,192,74994,1,12,0:0:0:0:
256,192,75683,1,0,0:0:0:0:
256,192,76028,1,12,0:0:0:0:
256,192,77063,1,8,0:0:0:0:
256,192,77580,1,8,0:0:0:0:
256,192,78097,1,0,0:0:0:0:
256,192,78442,1,8,0:0:0:0:
256,192,78959,1,0,0:0:0:0:
256,192,79994,1,0,0:0:0:0:
256,192,80338,1,8,0:0:0:0:
255,184,81028,1,0,0:0:0:0:
256,192,81718,1,8,0:0:0:0:
256,192,82063,1,8,0:0:0:0:
256,192,82407,1,0,0:0:0:0:
256,192,83269,1,12,0:0:0:0:
256,192,83959,1,8,0:0:0:0:
256,192,84649,1,0,0:0:0:0:
256,192,84994,1,0,0:0:0:0:
256,192,85338,1,8,0:0:0:0:
256,192,85683,1,12,0:0:0:0:
256,192,86028,1,4,0:0:0:0:
256,192,87407,1,12,0:0:0:0:
256,192,87925,2,0,L|352:192,1,70
