osu file format v14

[General]
AudioFilename: audio.mp3
AudioLeadIn: 0
PreviewTime: 52752
Countdown: 0
SampleSet: Normal
StackLeniency: 0.7
Mode: 1
LetterboxInBreaks: 0
WidescreenStoryboard: 1

[Editor]
DistanceSpacing: 1
BeatDivisor: 2
GridSize: 16
TimelineZoom: 1.7

[Metadata]
Title:Kimi no Sei (TV Size)
TitleUnicode:君のせい (TV Size)
Artist:the peggies
ArtistUnicode:the peggies
Creator:Burak
Version:Futsuu
Source:青春ブタ野郎はバニーガール先輩の夢を見ない
Tags:Seishun Buta Yarō Yarou wa Yumemiru Shōjo Shojo Shoujo no Yume wo Minai ao-buta aobuta Puberty Syndrome: Abnormal experiences during adolescence due to sensitivity and instability. Rascal Does Not Dream of Bunny Girl Senpai opening op j-pop jpop japanese anime 牧之原翔子 Shouko Shōko Shoko Makinohara justburak Zhuosh
BeatmapID:3037597
BeatmapSetID:1480794

[Difficulty]
HPDrainRate:7
CircleSize:2
OverallDifficulty:4
ApproachRate:9.6
SliderMultiplier:1.4
SliderTickRate:1

[Events]
//Background and Video events
0,0,"cringe.jpg",0,60
Video,0,"output.mp4"
//Break Periods
//Storyboard Layer 0 (Background)
//Storyboard Layer 1 (Fail)
//Storyboard Layer 2 (Pass)
//Storyboard Layer 3 (Foreground)
//Storyboard Layer 4 (Overlay)
//Storyboard Sound Samples

[TimingPoints]
-868,344.827586206897,4,1,0,50,1,0
166,-100,4,1,0,50,0,0
8527,-100,4,1,0,70,0,0
10080,-100,4,1,0,80,0,0
14261,-100,4,1,0,70,0,0
15769,-100,4,1,0,50,0,0
18183,-100,4,1,0,60,0,0
21114,-100,4,1,0,70,0,0
23873,-100,4,1,0,65,0,0
26632,-100,4,1,0,60,0,0
31976,-100,4,1,0,70,0,0
34907,-100,4,1,0,65,0,0
37666,-100,4,1,0,60,0,0
48700,-100,4,1,0,55,0,0
51459,-100,4,1,0,75,0,0
52666,-100,4,1,0,80,0,0
52752,-100,4,1,0,80,0,1
62494,-100,4,1,0,85,0,1
63700,-100,4,1,0,80,0,1
73528,-100,4,1,0,75,0,1
73614,-100,4,1,0,75,0,0
74907,-100,4,1,0,85,0,0
74994,-100,4,1,0,85,0,1
83011,-100,4,1,0,90,0,1
85942,-100,4,1,0,60,0,1
86028,-100,4,1,0,60,0,0

[HitObjects]
256,192,338,5,8,0:0:0:0:
128,224,683,1,8,0:0:0:0:
128,224,856,1,0,0:0:0:0:
128,224,1028,1,8,0:0:0:0:
223,191,1373,1,8,0:0:0:0:
256,192,1545,1,0,0:0:0:0:
256,192,1890,1,8,0:0:0:0:
256,192,2235,1,8,0:0:0:0:
256,192,2580,1,0,0:0:0:0:
256,192,2752,1,8,0:0:0:0:
256,192,3097,1,8,0:0:0:0:
256,192,3442,1,8,0:0:0:0:
256,192,3614,1,0,0:0:0:0:
256,192,3787,1,0,0:0:0:0:
256,192,4304,1,8,0:0:0:0:
256,192,4476,1,8,0:0:0:0:
112,215,5511,1,0,0:0:0:0:
224,64,5683,1,0,0:0:0:0:
128,96,5856,1,8,0:0:0:0:
160,96,6200,1,0,0:0:0:0:
160,96,6373,1,8,0:0:0:0:
192,160,6718,1,0,0:0:0:0:
192,160,7063,1,0,0:0:0:0:
192,160,7235,1,8,0:0:0:0:
192,160,7580,1,8,0:0:0:0:
192,160,8097,1,8,0:0:0:0:
192,160,8442,1,8,0:0:0:0:
226,126,8787,1,4,0:0:0:0:
256,288,10166,1,12,0:0:0:0:
256,288,10511,1,8,0:0:0:0:
256,288,10683,1,8,0:0:0:0:
256,288,10856,1,0,0:0:0:0:
256,288,11200,1,0,0:0:0:0:
320,160,11373,1,8,0:0:0:0:
320,160,11545,1,8,0:0:0:0:
224,256,11890,1,0,0:0:0:0:
224,224,12063,1,8,0:0:0:0:
230,127,12235,1,0,0:0:0:0:
224,128,12407,1,0,0:0:0:0:
224,128,12580,1,8,0:0:0:0:
224,32,12925,1,0,0:0:0:0:
224,32,13269,1,8,0:0:0:0:
224,32,13442,1,0,0:0:0:0:
224,32,13614,1,8,0:0:0:0:
192,0,13959,1,0,0:0:0:0:
224,0,14304,1,12,0:0:0:0:
160,96,14994,1,4,0:0:0:0:
416,128,15683,1,8,0:0:0:0:
288,256,16028,1,0,0:0:0:0:
320,256,16200,1,8,0:0:0:0:
288,256,16373,1,8,0:0:0:0:
320,256,16890,1,0,0:0:0:0:
288,256,17063,1,8,0:0:0:0:
320,256,17235,1,8,0:0:0:0:
192,0,17580,1,8,0:0:0:0:
320,128,17925,1,0,0:0:0:0:
288,256,18097,1,8,0:0:0:0:
288,128,18442,1,0,0:0:0:0:
155,166,18787,1,0,0:0:0:0:
160,160,18959,1,8,0:0:0:0:
85,176,19304,1,0,0:0:0:0:
126,175,19649,1,8,0:0:0:0:
160,160,20338,1,8,0:0:0:0:
160,160,20511,1,8,0:0:0:0:
160,160,20683,1,0,0:0:0:0:
160,160,20856,1,0,0:0:0:0:
160,160,21200,1,0,0:0:0:0:
160,160,21373,1,0,0:0:0:0:
160,160,21545,1,8,0:0:0:0:
224,32,21890,1,0,0:0:0:0:
224,32,22063,1,0,0:0:0:0:
224,32,22235,1,8,0:0:0:0:
224,32,22580,1,0,0:0:0:0:
224,32,22752,1,0,0:0:0:0:
224,32,22925,1,8,0:0:0:0:
224,32,23269,1,0,0:0:0:0:
224,32,23442,1,0,0:0:0:0:
224,32,23614,1,8,0:0:0:0:
320,288,23959,1,12,0:0:0:0:
128,160,24304,1,0,0:0:0:0:
128,160,24476,1,8,0:0:0:0:
128,160,24821,1,8,0:0:0:0:
128,160,24994,1,0,0:0:0:0:
160,160,25338,1,8,0:0:0:0:
160,64,25511,1,8,0:0:0:0:
224,64,25683,1,8,0:0:0:0:
224,64,25856,1,0,0:0:0:0:
256,224,26718,1,4,0:0:0:0:
128,128,27063,1,8,0:0:0:0:
84,220,27235,1,8,0:0:0:0:
128,128,27407,1,8,0:0:0:0:
224,128,27925,1,8,0:0:0:0:
224,128,28097,1,8,0:0:0:0:
224,128,28269,1,8,0:0:0:0:
224,128,28442,1,0,0:0:0:0:
160,96,28787,1,8,0:0:0:0:
160,96,29045,1,8,0:0:0:0:
160,96,29304,1,8,0:0:0:0:
160,96,29476,1,0,0:0:0:0:
146,174,30166,1,8,0:0:0:0:
160,96,30338,1,0,0:0:0:0:
160,96,30683,1,8,0:0:0:0:
160,96,31028,1,8,0:0:0:0:
166,186,31373,1,0,0:0:0:0:
166,186,31545,1,8,0:0:0:0:
166,186,31718,1,8,0:0:0:0:
166,186,31890,1,0,0:0:0:0:
160,96,32235,1,0,0:0:0:0:
160,96,32407,1,0,0:0:0:0:
160,96,32580,1,8,0:0:0:0:
160,96,32925,1,0,0:0:0:0:
160,96,33097,1,0,0:0:0:0:
160,96,33269,1,8,0:0:0:0:
160,96,33614,1,0,0:0:0:0:
164,225,33787,1,0,0:0:0:0:
160,96,33959,1,8,0:0:0:0:
160,96,34304,1,0,0:0:0:0:
160,96,34476,1,0,0:0:0:0:
160,96,34649,1,8,0:0:0:0:
160,96,34994,1,4,0:0:0:0:
160,96,35338,1,8,0:0:0:0:
64,128,35511,1,0,0:0:0:0:
160,96,35683,1,8,0:0:0:0:
150,193,36028,1,8,0:0:0:0:
224,128,36373,1,8,0:0:0:0:
256,96,36718,1,8,0:0:0:0:
256,96,36890,1,0,0:0:0:0:
183,261,37063,1,8,0:0:0:0:
256,96,37235,1,8,0:0:0:0:
256,96,37407,1,0,0:0:0:0:
192,96,37752,1,4,0:0:0:0:
224,160,38442,1,8,0:0:0:0:
178,197,38614,1,0,0:0:0:0:
224,160,38787,1,8,0:0:0:0:
224,160,39132,1,0,0:0:0:0:
143,186,39476,1,8,0:0:0:0:
224,160,39994,1,0,0:0:0:0:
224,160,40166,1,0,0:0:0:0:
224,160,40338,1,8,0:0:0:0:
256,96,40683,1,0,0:0:0:0:
256,96,41028,1,8,0:0:0:0:
160,160,41373,1,8,0:0:0:0:
160,160,41545,1,8,0:0:0:0:
160,160,41718,1,0,0:0:0:0:
160,160,42063,1,8,0:0:0:0:
160,160,42407,1,0,0:0:0:0:
288,192,43269,1,12,0:0:0:0:
242,177,43614,1,8,0:0:0:0:
288,192,43959,1,0,0:0:0:0:
416,118,44132,1,0,0:0:0:0:
288,192,44304,1,8,0:0:0:0:
288,192,44649,1,0,0:0:0:0:
170,197,44821,1,0,0:0:0:0:
288,192,44994,1,8,0:0:0:0:
288,192,45338,1,8,0:0:0:0:
288,192,45683,1,0,0:0:0:0:
288,192,46028,1,8,0:0:0:0:
288,192,46373,1,0,0:0:0:0:
288,192,46545,1,8,0:0:0:0:
288,192,46890,1,0,0:0:0:0:
288,192,47235,1,8,0:0:0:0:
256,64,47925,1,8,0:0:0:0:
256,64,48269,1,8,0:0:0:0:
256,64,48442,1,0,0:0:0:0:
256,64,48787,1,12,0:0:0:0:
256,64,49132,1,0,0:0:0:0:
256,64,49304,1,0,0:0:0:0:
256,64,49476,1,8,0:0:0:0:
256,64,49821,1,0,0:0:0:0:
256,96,50166,1,8,0:0:0:0:
256,96,50683,1,8,0:0:0:0:
256,96,51200,1,0,0:0:0:0:
256,96,51545,1,12,0:0:0:0:
256,96,51890,1,0,0:0:0:0:
256,96,52235,1,12,0:0:0:0:
252,91,52752,1,12,0:0:0:0:
252,91,53097,1,0,0:0:0:0:
256,96,53269,1,8,0:0:0:0:
199,80,53442,1,8,0:0:0:0:
199,80,53787,1,8,0:0:0:0:
199,80,53959,1,8,0:0:0:0:
199,80,54132,1,0,0:0:0:0:
199,80,54304,1,8,0:0:0:0:
153,33,54649,1,8,0:0:0:0:
153,33,54821,1,0,0:0:0:0:
153,33,54994,1,0,0:0:0:0:
97,153,55166,1,8,0:0:0:0:
153,33,55511,1,8,0:0:0:0:
165,30,55856,1,8,0:0:0:0:
129,88,56028,1,8,0:0:0:0:
284,52,56200,1,0,0:0:0:0:
276,55,56718,1,8,0:0:0:0:
269,115,56890,1,8,0:0:0:0:
218,129,57407,1,8,0:0:0:0:
65,192,57925,1,8,0:0:0:0:
125,188,58097,1,0,0:0:0:0:
63,188,58269,1,8,0:0:0:0:
168,71,58614,1,0,0:0:0:0:
168,71,58787,1,8,0:0:0:0:
168,70,59132,1,0,0:0:0:0:
168,70,59476,1,0,0:0:0:0:
168,70,59649,1,8,0:0:0:0:
168,70,59994,1,8,0:0:0:0:
199,66,60683,1,0,0:0:0:0:
199,66,61028,1,8,0:0:0:0:
199,60,61200,1,8,0:0:0:0:
199,60,61373,1,0,0:0:0:0:
199,60,61545,1,0,0:0:0:0:
205,58,61718,1,8,0:0:0:0:
205,58,62063,1,0,0:0:0:0:
205,58,62407,1,0,0:0:0:0:
206,55,62580,1,8,0:0:0:0:
220,49,63097,1,8,0:0:0:0:
252,91,63787,1,12,0:0:0:0:
256,96,64132,1,0,0:0:0:0:
256,96,64304,1,8,0:0:0:0:
199,80,64476,1,8,0:0:0:0:
199,80,64821,1,8,0:0:0:0:
199,80,64994,1,8,0:0:0:0:
199,80,65166,1,0,0:0:0:0:
199,80,65338,1,8,0:0:0:0:
153,33,65683,1,8,0:0:0:0:
153,33,65856,1,0,0:0:0:0:
153,33,66028,1,0,0:0:0:0:
97,153,66200,1,8,0:0:0:0:
153,33,66545,1,8,0:0:0:0:
164,29,66890,1,8,0:0:0:0:
129,88,67063,1,8,0:0:0:0:
284,52,67235,1,0,0:0:0:0:
276,55,67752,1,8,0:0:0:0:
269,115,67925,1,8,0:0:0:0:
40,173,68442,1,0,0:0:0:0:
129,195,68959,1,8,0:0:0:0:
141,187,69132,1,8,0:0:0:0:
233,178,69304,5,0,0:0:0:0:
233,178,69649,1,0,0:0:0:0:
182,256,69821,1,0,0:0:0:0:
229,177,69994,1,8,0:0:0:0:
188,233,70338,1,8,0:0:0:0:
227,58,70683,1,0,0:0:0:0:
227,58,71200,1,8,0:0:0:0:
227,58,71373,1,8,0:0:0:0:
223,61,71718,1,8,0:0:0:0:
180,168,71890,1,8,0:0:0:0:
180,168,72063,1,4,0:0:0:0:
338,36,72407,1,0,0:0:0:0:
219,100,72580,1,8,0:0:0:0:
217,185,72752,1,8,0:0:0:0:
217,185,73097,1,8,0:0:0:0:
214,184,73269,1,0,0:0:0:0:
127,135,73614,1,8,0:0:0:0:
126,132,73787,1,0,0:0:0:0:
126,126,74132,1,12,0:0:0:0:
159,10,74476,1,0,0:0:0:0:
159,10,74821,1,0,0:0:0:0:
180,199,74994,1,12,0:0:0:0:
181,149,75338,1,8,0:0:0:0:
221,70,75511,1,0,0:0:0:0:
221,70,75683,1,0,0:0:0:0:
387,267,76028,1,8,0:0:0:0:
237,39,76718,1,8,0:0:0:0:
366,228,76890,1,8,0:0:0:0:
314,96,77063,1,0,0:0:0:0:
270,86,77235,1,8,0:0:0:0:
246,71,77580,1,8,0:0:0:0:
252,93,77925,1,8,0:0:0:0:
252,93,78097,1,0,0:0:0:0:
252,93,78269,1,0,0:0:0:0:
252,93,78442,1,8,0:0:0:0:
252,93,78787,1,8,0:0:0:0:
252,93,78959,1,0,0:0:0:0:
128,175,79476,1,8,0:0:0:0:
178,119,79994,1,0,0:0:0:0:
328,114,80338,1,8,0:0:0:0:
215,60,80683,1,0,0:0:0:0:
215,60,80856,1,8,0:0:0:0:
215,60,81028,1,8,0:0:0:0:
215,60,81373,1,0,0:0:0:0:
215,60,81718,1,8,0:0:0:0:
215,60,82063,1,0,0:0:0:0:
215,60,82235,1,8,0:0:0:0:
72,198,82407,1,8,0:0:0:0:
194,138,82752,1,8,0:0:0:0:
202,82,83269,1,8,0:0:0:0:
202,91,83614,1,8,0:0:0:0:
194,138,83787,1,0,0:0:0:0:
202,91,83959,1,8,0:0:0:0:
202,91,84304,1,0,0:0:0:0:
203,84,84476,1,8,0:0:0:0:
204,90,84821,1,8,0:0:0:0:
194,186,85166,1,8,0:0:0:0:
211,89,85683,1,12,0:0:0:0:
210,97,86028,1,4,0:0:0:0:
210,97,86718,1,0,0:0:0:0:
210,97,87407,1,12,0:0:0:0:
230,270,88097,1,0,0:0:0:0:
