osu file format v14

[General]
AudioFilename: audio.mp3
AudioLeadIn: 0
PreviewTime: 192517
Countdown: 0
SampleSet: Soft
StackLeniency: 0.7
Mode: 0
LetterboxInBreaks: 0
WidescreenStoryboard: 0

[Editor]
Bookmarks: 14226,25260,36295,47329,63708,74743,85950,99743,110777,121812,132846,147846,158881,169915,180950,192674,204226,214743,225950,241122
DistanceSpacing: 1.1
BeatDivisor: 4
GridSize: 32
TimelineZoom: 2.3

[Metadata]
Title:Kimi no Sei
TitleUnicode:君のせい
Artist:the peggies
ArtistUnicode:the peggies
Creator:Glaceon
Version:Tragic Blob Extra
Source:青春ブタ野郎はバニーガール先輩の夢を見ない
Tags:Seishun Buta Yarō Yarou wa Yumemiru Shōjo Shoujo no Yume o Minai ao-buta Puberty Syndrome: Abnormal experiences during adolescence due to sensitivity and instability. Rascal Does Not Dream of Bunny Girl Senpai opening op agatsu fixxis spoes
BeatmapID:1906278
BeatmapSetID:912537

[Difficulty]
HPDrainRate:5
CircleSize:4
OverallDifficulty:8.8
ApproachRate:9.3
SliderMultiplier:2
SliderTickRate:1

[Events]
//Background and Video events
0,0,"kimi no blob.jpg",0,0
//Break Periods
2,11683,12923
//Storyboard Layer 0 (Background)
//Storyboard Layer 1 (Fail)
//Storyboard Layer 2 (Pass)
//Storyboard Layer 3 (Foreground)
//Storyboard Sound Samples

[TimingPoints]
449,344.827586206897,4,2,0,70,1,0
3035,-133.333333333333,4,2,7,47,0,0
13499,-133.333333333333,4,2,7,77,0,0
13638,-133.333333333333,4,2,7,77,0,0
13724,-133.333333333333,4,2,7,77,0,0
14188,-133.333333333333,4,2,7,87,0,0
14242,-100,4,2,7,87,0,0
16085,-100,4,2,7,77,0,0
16430,-100,4,2,7,87,0,0
23672,-100,4,2,7,77,0,0
24586,-133.333333333333,4,2,7,77,0,0
25568,-133.333333333333,4,2,7,57,0,0
25621,-133.333333333333,4,2,7,57,0,0
27982,-133.333333333333,4,2,7,67,0,0
44586,-153.846153846153,4,2,7,67,0,0
47345,-133.333333333333,4,2,7,67,0,0
58380,-153.846153846154,4,2,7,67,0,0
61138,-153.846153846154,4,2,7,67,0,0
63207,-153.846153846154,4,2,7,67,0,0
63671,-153.846153846154,4,2,7,87,0,0
63724,-100,4,2,7,87,0,1
73499,-100,4,2,7,77,0,1
74706,-100,4,2,7,87,0,1
84533,-100,4,2,7,77,0,1
85912,-100,4,2,7,87,0,1
85966,-83.3333333333333,4,2,7,87,0,0
94242,-83.3333333333333,4,2,7,87,0,1
96947,-83.3333333333333,4,2,7,77,0,1
97000,-270.27027027027,4,2,7,77,0,0
98240,-270.27027027027,4,2,7,5,0,0
98326,-270.27027027027,4,2,7,87,0,0
98380,-196.078431372549,4,2,7,87,0,0
99759,-111.111111111111,4,2,7,87,0,0
110050,-111.111111111111,4,2,7,77,0,0
110104,-133.333333333333,4,2,7,77,0,0
110793,-133.333333333333,4,2,7,77,0,0
111085,-133.333333333333,4,2,7,57,0,0
114361,-133.333333333333,4,2,7,67,0,0
131483,-100,4,2,7,67,0,0
132000,-133.333333333333,4,2,7,67,0,0
143897,-181.818181818182,4,2,7,67,0,0
147809,-181.818181818182,4,2,7,87,0,0
147862,-100,4,2,7,87,0,1
157637,-100,4,2,7,77,0,1
158843,-100,4,2,7,87,0,1
168671,-100,4,2,7,77,0,1
169242,-83.3333333333333,4,2,7,77,0,1
169759,-100,4,2,7,77,0,1
169878,-100,4,2,7,67,0,1
169931,-100,4,2,7,67,0,0
179878,-100,4,2,7,77,0,0
180966,-90.9090909090909,4,2,7,77,0,1
190793,-71.4285714285714,4,2,7,77,0,1
192000,-100,4,2,7,77,0,1
192690,-200,4,2,7,77,0,0
198207,-133.333333333333,4,2,7,77,0,0
199016,-133.333333333333,4,2,7,67,0,0
203671,-133.333333333333,4,2,7,57,0,0
204016,-133.333333333333,4,2,7,5,0,0
204188,-133.333333333333,4,2,7,87,0,0
204242,-71.4285714285714,4,2,7,87,0,1
204931,-100,4,2,7,87,0,1
213499,-100,4,2,7,77,0,1
214706,-100,4,2,7,87,0,1
224533,-100,4,2,7,77,0,1
225912,-100,4,2,7,87,0,1
225966,-100,4,2,7,87,0,0
231310,-83.3333333333333,4,2,7,87,0,0
236947,-83.3333333333333,4,2,7,77,0,0
236999,-166.666666666667,4,2,7,77,0,0
238034,-111.111111111111,4,2,7,77,0,0
238240,-111.111111111111,4,2,7,5,0,0
238326,-111.111111111111,4,2,7,87,0,0
238930,-111.111111111111,4,2,7,77,0,0
239361,-111.111111111111,4,2,7,87,0,0
240793,-55.5555555555555,4,2,7,87,0,0
241138,-111.111111111111,4,2,7,87,0,0
243811,-111.111111111111,4,2,7,87,0,0
243897,-111.111111111111,4,2,7,87,0,0
246569,-111.111111111111,4,2,7,87,0,0
246655,-111.111111111111,4,2,7,87,0,0
249328,-111.111111111111,4,2,7,87,0,0
249361,-111.111111111111,4,2,7,97,0,0
249414,-111.111111111111,4,2,7,97,0,0
250793,472.44094488189,4,2,0,70,1,0
251422,344.827586206897,4,2,0,70,1,0
260042,-100,4,2,7,5,0,0
260250,-100,4,2,7,47,0,0
260301,-133.333333333333,4,2,7,47,0,0
260853,-133.333333333333,4,2,7,5,0,0

[Colours]
Combo1 : 255,191,223
Combo2 : 255,128,192
Combo3 : 128,128,192
Combo4 : 255,128,0

[HitObjects]
256,192,449,12,0,2862,1:1:0:0:
352,75,3035,6,0,B|395:108|395:108|360:231,1,150.000005722046,2|2,0:0|0:0,0:0:0:0:
340,321,3552,2,0,P|373:291|434:294,1,75.0000028610231,2|2,0:0|0:0,0:0:0:0:
299,243,3897,1,0,0:0:0:0:
232,306,4069,2,0,L|237:387,2,75.0000028610231,2|2|2,0:0|0:0|0:0,0:0:0:0:
224,179,4586,6,0,P|212:218|112:232,1,150.000005722046,2|2,0:0|0:0,0:0:0:0:
145,151,5104,1,2,0:0:0:0:
75,101,5276,2,0,L|-1:106,2,75.0000028610231,2|2|2,0:0|0:0|0:0,0:0:0:0:
182,46,5793,6,0,B|213:85|213:85|322:51,1,150.000005722046,2|2,0:0|0:0,0:0:0:0:
400,26,6311,1,2,0:0:0:0:
386,170,6483,2,0,P|403:121|499:109,1,150.000005722046,2|0,0:0|0:0,0:0:0:0:
466,190,7000,1,2,0:0:0:0:
331,247,7173,6,0,P|314:198|218:186,1,150.000005722046,2|2,0:0|0:0,0:0:0:0:
140,221,7690,2,0,L|146:127,1,75.0000028610231,2|0,0:0|0:0,0:0:0:0:
151,46,8035,1,0,0:0:0:0:
10,90,8207,2,0,L|94:96,1,75.0000028610231,2|2,0:0|0:0,0:0:0:0:
221,102,8552,6,0,P|263:58|359:88,1,150.000005722046,2|2,0:0|0:0,0:0:0:0:
284,211,9069,2,0,L|294:123,1,75.0000028610231,2|0,0:0|0:0,0:0:0:0:
376,186,9414,2,0,L|384:260,1,75.0000028610231,2|0,0:0|0:0,0:0:0:0:
298,312,9759,1,2,0:0:0:0:
157,197,9931,6,0,B|198:240|198:240|310:202,1,150.000005722046,2|2,0:0|0:0,0:0:0:0:
268,95,10449,2,0,P|228:126|226:181,1,75.0000028610231,2|0,0:0|0:0,0:0:0:0:
221,147,10707,1,0,0:0:0:0:
221,147,10793,1,2,0:0:0:0:
283,210,10966,1,0,0:0:0:0:
212,286,11138,1,0,0:0:0:0:
304,355,11311,1,0,0:0:0:0:
341,145,11483,5,14,1:2:0:0:
89,52,13552,6,0,L|94:121,1,37.5000014305115,8|0,0:0|0:0,0:0:0:0:
105,211,13724,1,0,3:0:0:0:
128,182,13811,1,0,3:0:0:0:
162,167,13897,1,0,3:0:0:0:
199,170,13983,1,0,0:0:0:0:
231,189,14069,1,8,3:0:0:0:
372,320,14242,5,8,0:0:0:0:
291,79,14414,1,8,0:0:0:0:
235,307,14931,5,8,0:0:0:0:
476,226,15104,1,8,0:0:0:0:
202,134,15621,5,8,0:0:0:0:
283,375,15793,1,8,0:0:0:0:
336,77,16138,6,0,B|268:90|260:31|188:40,1,150,10|0,0:0|0:0,0:0:0:0:
109,91,16483,1,0,3:0:0:0:
99,101,16569,1,0,3:0:0:0:
90,112,16655,2,0,L|102:166,3,50,8|0|0|0,3:0|0:0|3:0|3:0,0:0:0:0:
230,226,17000,5,14,0:0:0:0:
5,331,17173,1,0,1:0:0:0:
146,381,17345,2,0,P|130:333|120:281,1,100,8|0,0:0|1:0,0:0:0:0:
263,122,17690,1,8,0:0:0:0:
367,264,17862,1,0,1:0:0:0:
146,157,18035,1,8,0:0:0:0:
321,29,18207,1,0,1:0:0:0:
253,230,18380,6,0,L|244:283,2,50,10|2|0,0:0|1:0|1:0,0:0:0:0:
436,163,18724,2,0,L|444:113,2,50,10|2|0,0:0|1:0|1:0,0:0:0:0:
261,102,19069,2,0,L|211:93,2,50,10|2|0,0:0|1:0|1:0,0:0:0:0:
390,285,19414,2,0,P|398:334|403:390,1,100,10|0,0:0|1:0,0:0:0:0:
232,218,19759,6,0,P|139:216|70:303,1,200,10|8,0:0|0:0,0:0:0:0:
177,383,20276,1,0,1:0:0:0:
339,259,20449,2,0,P|344:208|352:158,1,100,8|0,0:0|1:0,0:0:0:0:
426,345,20793,1,8,0:0:0:0:
234,199,20966,1,0,1:0:0:0:
453,92,21138,5,10,0:0:0:0:
339,259,21311,1,0,1:0:0:0:
234,91,21483,1,8,0:0:0:0:
442,213,21655,1,0,1:0:0:0:
239,331,21828,2,0,P|188:324|131:319,1,100,8|0,0:0|1:0,0:0:0:0:
34,123,22173,2,0,P|85:130|142:135,1,100,8|0,0:0|1:0,0:0:0:0:
334,19,22517,6,0,B|309:70|309:70|363:213,1,200,10|8,0:0|0:0,0:0:0:0:
420,324,23035,1,0,1:0:0:0:
493,127,23207,2,0,P|500:76|511:27,1,100,8|0,0:0|1:0,0:0:0:0:
359,203,23552,1,8,0:0:0:0:
254,106,23724,1,0,3:0:0:0:
254,106,23811,1,0,3:0:0:0:
254,106,23897,6,0,P|211:89|166:87,1,66.6666666666667,6|0,3:2|0:0,0:0:0:0:
140,242,24127,2,0,P|174:212|198:175,1,66.6666666666667
76,74,24357,2,0,P|82:118|103:157,1,66.6666666666667
240,287,24586,6,0,B|292:308|343:288|345:240|403:231|452:253,1,225.000008583069,10|0,3:0|0:0,0:0:0:0:
415,337,25190,1,8,3:0:0:0:
415,337,25276,5,0,1:0:0:0:
470,92,25621,2,0,P|473:135|479:175,1,75.0000028610231,2|2,0:0|0:0,0:0:0:0:
383,41,25966,2,0,P|318:34|250:120,1,150.000005722046,2|0,0:0|0:0,0:0:0:0:
386,255,26483,1,2,0:0:0:0:
388,154,26655,5,2,0:0:0:0:
290,261,26828,2,0,P|241:278|207:296,1,75.0000028610231,2|0,0:0|0:0,0:0:0:0:
73,160,27173,2,0,P|94:206|105:243,1,75.0000028610231,2|2,0:0|0:0,0:0:0:0:
51,356,27517,1,2,1:0:0:0:
157,301,27690,1,2,1:0:0:0:
26,256,27862,1,2,1:0:0:0:
210,173,28035,5,8,0:0:0:0:
7,159,28207,1,2,1:0:0:0:
157,301,28380,1,2,1:0:0:0:
26,256,28552,1,2,1:0:0:0:
210,173,28724,2,0,P|229:207|245:242,1,75.0000028610231,8|2,0:0|1:0,0:0:0:0:
157,301,29069,1,0,1:0:0:0:
339,202,29242,6,0,P|379:202|417:206,2,75.0000028610231,8|0|0,0:0|1:0|1:0,0:0:0:0:
232,186,29759,1,8,0:0:0:0:
390,107,29931,1,2,3:0:0:0:
409,107,30017,1,0,3:0:0:0:
428,111,30104,1,2,1:0:0:0:
316,32,30276,1,2,1:0:0:0:
339,202,30449,1,8,0:0:0:0:
220,72,30621,1,10,0:0:0:0:
47,220,30793,5,0,1:0:0:0:
232,186,30966,1,2,1:0:0:0:
244,268,31138,2,0,L|219:357,1,75.0000028610231,10|0,0:0|1:0,0:0:0:0:
61,214,31483,5,2,1:0:0:0:
246,180,31655,1,0,1:0:0:0:
258,262,31828,2,0,L|233:351,1,75.0000028610231,10|0,0:0|1:0,0:0:0:0:
232,356,32086,1,0,1:0:0:0:
232,356,32173,5,2,1:0:0:0:
173,139,32345,1,0,1:0:0:0:
240,97,32517,2,0,L|329:122,1,75.0000028610231,8|0,0:0|0:0,0:0:0:0:
238,367,32862,5,0,1:0:0:0:
179,150,33035,1,0,1:0:0:0:
246,108,33207,2,0,L|335:133,1,75.0000028610231,8|2,0:0|1:0,0:0:0:0:
472,274,33552,6,0,P|429:282|394:297,1,75.0000028610231,2|2,1:0|1:0,0:0:0:0:
302,245,33897,1,10,0:0:0:0:
482,169,34069,2,0,P|439:161|404:146,1,75.0000028610231,2|0,1:0|1:0,0:0:0:0:
300,231,34414,1,2,1:0:0:0:
220,73,34586,2,0,L|207:153,1,75.0000028610231,10|0,0:0|1:0,0:0:0:0:
50,165,34931,5,2,1:0:0:0:
156,211,35104,1,2,1:0:0:0:
130,107,35276,1,10,0:0:0:0:
25,253,35449,2,0,L|35:342,1,75.0000028610231,2|0,3:0|1:0,0:0:0:0:
186,312,35793,1,0,1:0:0:0:
156,211,35966,1,8,0:0:0:0:
114,347,36138,1,0,3:0:0:0:
114,347,36224,1,8,3:0:0:0:
114,347,36311,6,0,B|177:363|167:332|247:355,1,112.500004291535,8|0,3:0|0:0,0:0:0:0:
267,352,36655,1,2,1:0:0:0:
267,352,36828,1,2,1:0:0:0:
267,174,37000,2,0,P|217:160|131:215,1,150.000005722046,10|0,0:0|1:0,0:0:0:0:
217,250,37517,1,2,1:0:0:0:
299,85,37690,5,2,1:0:0:0:
358,230,37862,1,10,0:0:0:0:
474,66,38035,1,2,1:0:0:0:
440,196,38207,1,2,1:0:0:0:
312,66,38380,2,0,P|259:50|220:65,1,75.0000028610231,10|0,3:0|0:0,0:0:0:0:
139,33,38638,2,0,P|176:39|211:26,1,75.0000028610231,10|0,3:0|0:0,0:0:0:0:
267,136,38897,1,10,3:0:0:0:
123,245,39069,6,0,P|102:204|105:158,1,75.0000028610231,0|0,1:0|1:0,0:0:0:0:
45,306,39414,1,2,1:0:0:0:
186,186,39586,2,0,P|236:178|273:196,1,75.0000028610231,0|8,1:0|0:0,0:0:0:0:
342,248,39931,1,0,1:0:0:0:
214,288,40104,1,2,1:0:0:0:
355,143,40276,2,0,P|405:135|442:153,1,75.0000028610231,2|2,1:0|1:0,0:0:0:0:
267,33,40621,2,0,P|217:25|180:43,1,75.0000028610231,0|8,1:0|0:0,0:0:0:0:
116,135,40966,5,2,3:0:0:0:
57,51,41138,1,2,1:0:0:0:
230,114,41311,1,2,1:0:0:0:
81,225,41483,1,8,0:0:0:0:
156,34,41655,1,2,3:0:0:0:
156,34,41742,1,0,3:0:0:0:
156,34,41828,5,2,1:0:0:0:
393,74,42000,1,2,1:0:0:0:
136,79,42173,2,0,B|79:68|83:101|16:85,1,112.500004291535,10|0,0:0|0:0,0:0:0:0:
0,61,42517,5,2,1:0:0:0:
17,306,42690,1,0,1:0:0:0:
136,79,42862,1,10,0:0:0:0:
136,79,43035,1,2,1:0:0:0:
288,204,43207,5,2,1:0:0:0:
54,167,43380,1,0,1:0:0:0:
323,159,43552,2,0,B|380:170|376:137|443:153,1,112.500004291535,8|0,0:0|0:0,0:0:0:0:
467,119,43897,5,0,1:0:0:0:
426,341,44069,1,0,1:0:0:0:
329,64,44242,2,0,P|275:59|213:103,1,112.500004291535,8|0,0:0|0:0,0:0:0:0:
293,142,44586,6,0,P|335:147|366:138,1,64.9999970245363,2|0,1:0|0:0,0:0:0:0:
161,86,44931,2,0,P|192:80|224:85,1,64.9999970245363,10|0,0:0|0:0,0:0:0:0:
22,146,45276,2,0,P|53:151|85:145,1,64.9999970245363,2|0,1:0|1:0,0:0:0:0:
239,222,45621,2,0,P|190:201|134:229,1,97.4999955368044,10|0,0:0|0:0,0:0:0:0:
215,273,45966,6,0,L|290:270,1,64.9999970245363,2|0,1:0|0:0,0:0:0:0:
97,330,46311,2,0,L|22:333,1,64.9999970245363,8|0,0:0|3:0,0:0:0:0:
3,307,46569,1,0,3:0:0:0:
3,307,46655,5,0,1:0:0:0:
215,273,46828,1,8,0:0:0:0:
111,150,47000,1,2,1:0:0:0:
103,369,47173,1,2,1:0:0:0:
270,219,47345,6,0,P|224:197|145:243,2,150.000005722046,6|10|2,1:0|0:0|1:0,0:0:0:0:
333,302,48207,1,0,1:0:0:0:
364,173,48380,2,0,L|356:89,1,75.0000028610231,10|0,0:0|1:0,0:0:0:0:
241,52,48724,6,0,L|233:126,1,75.0000028610231,2|0,1:0|0:0,0:0:0:0:
215,273,49069,1,8,0:0:0:0:
92,178,49242,2,0,L|178:187,1,75.0000028610231,0|0,1:0|1:0,0:0:0:0:
294,199,49586,1,2,1:0:0:0:
132,260,49759,1,10,0:0:0:0:
291,341,49931,6,0,P|315:312|323:276,1,75.0000028610231,2|0,1:0|1:0,0:0:0:0:
233,126,50276,1,2,1:0:0:0:
244,276,50449,1,10,0:0:0:0:
299,63,50621,2,0,P|323:91|331:127,1,75.0000028610231,2|0,1:0|1:0,0:0:0:0:
322,276,50966,1,2,1:0:0:0:
233,126,51138,1,10,0:0:0:0:
169,273,51311,6,0,L|275:277,1,75.0000028610231,2|0,1:0|1:0,0:0:0:0:
85,181,51655,2,0,L|191:185,1,75.0000028610231,2|8,1:0|0:0,0:0:0:0:
331,127,52000,2,0,B|312:166|312:166|320:95|297:48,1,150.000005722046,2|0,1:0|1:0,0:0:0:0:
414,197,52517,1,8,0:0:0:0:
412,216,52862,6,0,L|403:302,1,75.0000028610231,2|0,1:0|0:0,0:0:0:0:
299,351,53207,2,0,L|291:276,1,75.0000028610231,10|0,0:0|1:0,0:0:0:0:
274,160,53552,1,2,1:0:0:0:
404,290,53724,1,0,1:0:0:0:
219,227,53897,2,0,P|181:207|128:216,1,75.0000028610231,10|0,0:0|1:0,0:0:0:0:
83,333,54242,6,0,P|120:331|152:313,1,75.0000028610231,2|0,1:0|1:0,0:0:0:0:
293,236,54586,1,10,0:0:0:0:
223,369,54759,1,0,1:0:0:0:
215,152,54931,2,0,L|220:254,1,75.0000028610231,2|0,1:0|1:0,0:0:0:0:
354,74,55276,2,0,L|349:176,1,75.0000028610231,10|2,0:0|1:0,0:0:0:0:
400,311,55621,6,0,P|369:275|327:265,1,75.0000028610231,2|0,1:0|1:0,0:0:0:0:
211,297,55966,1,10,0:0:0:0:
294,194,56138,2,0,P|327:178|349:148,1,75.0000028610231,2|0,1:0|1:0,0:0:0:0:
245,24,56483,2,0,P|241:60|256:94,1,75.0000028610231,2|8,1:0|0:0,0:0:0:0:
452,53,56828,6,0,B|428:24|428:24|309:49,1,150.000005722046,2|0,1:0|1:0,0:0:0:0:
169,81,57345,1,8,0:0:0:0:
291,268,57517,2,0,L|294:175,1,75.0000028610231,0|0,1:0|1:0,0:0:0:0:
125,159,57862,1,2,1:0:0:0:
210,287,58035,1,8,0:0:0:0:
252,104,58207,1,2,1:0:0:0:
51,179,58380,6,0,P|85:226|164:225,1,129.999994049073,6|2,0:0|1:0,0:0:0:0:
261,192,58897,1,0,1:0:0:0:
125,159,59069,1,10,3:0:0:0:
252,104,59242,1,8,3:0:0:0:
219,264,59414,1,2,1:0:0:0:
383,51,59759,5,2,1:0:0:0:
342,258,60104,5,2,1:0:0:0:
383,51,60276,1,8,3:0:0:0:
437,351,60793,5,10,3:0:0:0:
158,81,61138,6,0,L|160:137,5,32.4999985122681,8|0|2|0|0|0,3:2|3:0|3:0|0:0|3:0|0:0,0:0:0:0:
165,226,61655,5,10,3:2:0:0:
181,206,61742,1,0,0:0:0:0:
204,194,61828,1,0,3:0:0:0:
230,190,61914,1,0,0:0:0:0:
255,195,62000,1,0,1:0:0:0:
277,209,62086,1,0,0:0:0:0:
294,229,62173,5,8,3:2:0:0:
246,337,62345,1,0,0:0:0:0:
364,141,62517,1,8,0:0:0:0:
355,317,62690,1,0,1:0:0:0:
257,104,62862,1,8,0:0:0:0:
165,365,63035,1,2,1:0:0:0:
330,66,63207,5,8,0:0:0:0:
433,375,63380,1,2,1:0:0:0:
48,248,63724,6,0,B|150:231|132:300|238:289,1,200,6|2,0:0|1:0,0:0:0:0:
412,173,64242,1,10,0:0:0:0:
328,98,64414,2,0,P|321:146|310:201,1,100,2|0,1:0|1:0,0:0:0:0:
417,29,64759,1,2,1:0:0:0:
214,124,64931,1,10,0:0:0:0:
373,278,65104,1,2,1:0:0:0:
213,138,65276,6,0,L|63:156,1,150,2|0,1:0|0:0,0:0:0:0:
23,219,65621,2,0,P|27:168|26:114,1,100,10|2,0:0|1:0,0:0:0:0:
212,248,65966,1,2,1:0:0:0:
302,124,66138,2,0,P|298:76|297:24,1,100,2|10,1:0|0:0,0:0:0:0:
203,260,66483,6,0,P|271:262|350:359,1,200,2|2,1:0|1:0,0:0:0:0:
98,334,67000,1,10,0:0:0:0:
184,259,67173,2,0,P|193:206|195:149,1,100,2|2,1:0|1:0,0:0:0:0:
306,224,67517,1,0,1:0:0:0:
79,201,67690,1,10,0:0:0:0:
319,227,67862,6,0,B|383:208|383:208|412:158|412:158|497:137,1,200,2|0,1:0|1:0,0:0:0:0:
282,115,68380,2,0,P|234:108|171:91,1,100,8|0,0:0|1:0,0:0:0:0:
2,182,68724,1,0,1:0:0:0:
177,86,68897,1,2,1:0:0:0:
169,310,69069,1,10,0:0:0:0:
53,99,69242,6,0,P|44:185|28:297,1,200,2|2,1:0|1:0,0:0:0:0:
231,176,69759,2,0,P|279:167|329:155,1,100,10|0,0:0|1:0,0:0:0:0:
296,274,70104,1,2,1:0:0:0:
258,60,70276,1,0,1:0:0:0:
298,284,70449,1,10,0:0:0:0:
503,231,70621,6,0,B|401:232|431:149|328:154,1,200,2|2,1:0|1:0,0:0:0:0:
191,227,71138,2,0,P|186:274|179:328,1,100,8|2,0:0|1:0,0:0:0:0:
103,159,71483,1,0,1:0:0:0:
298,284,71655,1,2,1:0:0:0:
85,384,71828,1,8,0:0:0:0:
227,151,72000,1,2,1:0:0:0:
236,160,72086,1,0,0:0:0:0:
248,169,72173,6,0,P|298:163|347:152,1,100,2|2,1:0|1:0,0:0:0:0:
97,270,72517,2,0,P|49:275|-6:287,1,100,10|2,0:0|1:0,0:0:0:0:
155,72,72862,1,2,1:0:0:0:
37,31,73035,2,0,P|43:82|51:129,1,100,2|10,1:0|0:0,0:0:0:0:
217,281,73380,1,2,1:0:0:0:
271,63,73552,5,8,3:2:0:0:
103,217,73724,1,0,3:0:0:0:
94,228,73811,1,0,3:0:0:0:
85,239,73897,2,0,L|92:292,1,50,8|0,3:0|0:0,0:0:0:0:
217,281,74069,2,0,B|281:289|293:239|361:249,1,150,10|0,3:0|0:0,0:0:0:0:
487,298,74414,1,8,3:0:0:0:
467,270,74500,1,8,3:0:0:0:
461,236,74586,1,0,3:0:0:0:
465,202,74673,1,0,0:0:0:0:
484,173,74759,6,0,B|418:158|418:158|388:119|388:119|301:100,1,200,6|2,0:0|1:0,0:0:0:0:
397,287,75276,1,10,0:0:0:0:
214,326,75449,2,0,P|220:278|225:220,1,100,2|0,1:0|1:0,0:0:0:0:
315,376,75793,1,2,1:0:0:0:
117,272,75966,1,10,0:0:0:0:
347,182,76138,1,2,1:0:0:0:
149,78,76311,6,0,P|83:83|33:188,1,150,2|0,1:0|0:0,0:0:0:0:
33,164,76655,2,0,P|40:218|37:270,1,100,10|2,0:0|1:0,0:0:0:0:
195,161,77000,1,2,1:0:0:0:
279,258,77173,2,0,P|271:308|271:360,1,100,2|10,1:0|0:0,0:0:0:0:
475,181,77517,6,0,B|373:182|403:99|300:104,1,200,2|2,1:0|1:0,0:0:0:0:
316,182,78035,1,10,0:0:0:0:
478,7,78207,2,0,P|468:57|460:114,1,100,2|0,1:0|1:0,0:0:0:0:
318,194,78552,1,0,1:0:0:0:
256,14,78724,1,10,0:0:0:0:
123,149,78897,6,0,B|107:213|107:213|136:264|136:264|111:348,1,200,2|0,1:0|1:0,0:0:0:0:
35,283,79414,1,8,0:0:0:0:
223,190,79586,2,0,P|277:202|335:218,1,100,0|0,1:0|1:0,0:0:0:0:
463,263,79931,1,2,1:0:0:0:
435,71,80104,1,10,0:0:0:0:
363,283,80276,6,0,P|394:187|499:169,1,200,2|2,1:0|1:0,0:0:0:0:
472,270,80793,1,8,0:0:0:0:
254,242,80966,2,0,P|192:248|145:262,1,100,2|0,1:0|1:0,0:0:0:0:
5,101,81311,2,0,P|66:107|113:121,1,100,2|8,1:0|0:0,0:0:0:0:
271,248,81655,6,0,P|334:231|348:104,1,200,2|0,1:0|1:0,0:0:0:0:
187,61,82173,1,10,0:0:0:0:
101,247,82345,2,0,P|77:296|59:352,1,100,2|0,1:0|1:0,0:0:0:0:
229,142,82690,1,2,1:0:0:0:
8,182,82862,1,10,0:0:0:0:
228,259,83035,6,0,B|332:258|302:341|408:335,1,200,2|2,1:0|1:0,0:0:0:0:
247,351,83552,1,8,0:0:0:0:
444,111,83724,2,0,P|420:160|402:216,1,100,2|2,1:0|1:0,0:0:0:0:
318,63,84069,1,2,1:0:0:0:
230,245,84242,1,8,0:0:0:0:
122,44,84414,5,2,3:2:0:0:
113,55,84500,1,0,3:2:0:0:
104,66,84586,2,0,L|111:119,1,50,8|0,3:0|0:0,0:0:0:0:
139,217,84759,5,0,3:0:0:0:
148,228,84845,1,0,3:0:0:0:
157,239,84931,2,0,L|150:292,1,50,10|0,3:0|0:0,0:0:0:0:
244,348,85104,2,0,L|364:320,1,100,10|0,3:0|1:0,0:0:0:0:
347,179,85449,5,8,3:0:0:0:
322,173,85535,1,8,3:0:0:0:
297,167,85621,1,2,3:0:0:0:
272,160,85707,1,0,3:0:0:0:
247,153,85793,1,0,3:0:0:0:
222,146,85880,1,0,3:0:0:0:
197,140,85966,6,0,P|138:127|62:159,1,119.999996337891,14|0,0:0|0:0,0:0:0:0:
289,51,86311,1,10,0:0:0:0:
123,0,86483,1,2,1:0:0:0:
282,244,86655,2,0,P|334:251|383:231,1,100,10|0,0:0|0:0,0:0:0:0:
186,306,87000,6,0,B|137:277|137:277|-15:284,1,179.999994506836,14|0,0:0|0:0,0:0:0:0:
130,377,87345,2,0,P|187:390|244:373,1,119.999996337891,8|0,0:0|1:0,0:0:0:0:
387,128,87690,1,10,0:0:0:0:
268,296,87862,1,2,1:0:0:0:
477,303,88035,1,10,0:0:0:0:
217,165,88207,2,0,P|190:172|150:168,1,59.9999981689454,2|0,1:0|0:0,0:0:0:0:
386,127,88380,2,0,P|416:128|445:136,1,59.9999981689454,8|0,0:0|0:0,0:0:0:0:
175,87,88552,6,0,P|111:95|116:249,1,239.999992675781,6|2,1:0|1:0,0:0:0:0:
298,278,89069,1,10,0:0:0:0:
241,2,89242,1,2,1:0:0:0:
162,313,89414,2,0,P|87:327|35:303,1,119.999996337891,10|0,0:0|1:0,0:0:0:0:
158,170,89759,1,10,0:0:0:0:
298,278,89931,2,0,L|366:293,1,59.9999981689454,2|0,1:0|0:0,0:0:0:0:
102,240,90104,5,12,0:0:0:0:
345,208,90276,1,0,0:0:0:0:
158,170,90449,1,8,0:0:0:0:
429,210,90621,1,0,1:0:0:0:
208,281,90793,1,8,0:0:0:0:
512,210,90966,1,2,1:0:0:0:
351,66,91138,1,10,0:0:0:0:
378,293,91311,6,0,P|309:282|243:314,1,119.999996337891,2|8,1:0|0:0,0:0:0:0:
429,210,91655,1,2,1:0:0:0:
429,210,91828,1,10,0:0:0:0:
263,298,92000,2,0,P|194:309|128:277,1,119.999996337891,2|8,1:0|0:0,0:0:0:0:
334,375,92345,1,2,1:0:0:0:
334,375,92517,1,10,0:0:0:0:
148,292,92690,2,0,P|91:274|33:286,1,119.999996337891,2|8,1:0|0:0,0:0:0:0:
85,384,93035,1,2,1:0:0:0:
98,125,93207,1,10,0:0:0:0:
219,233,93380,6,0,P|275:250|333:238,1,119.999996337891,2|8,1:0|0:0,0:0:0:0:
452,150,93724,1,2,1:0:0:0:
316,94,93897,1,10,0:0:0:0:
333,238,94069,1,0,1:0:0:0:
333,232,94155,1,0,1:0:0:0:
333,232,94242,5,14,0:0:0:0:
333,238,94586,1,10,0:0:0:0:
333,238,94931,1,10,0:0:0:0:
61,194,95104,1,0,1:0:0:0:
396,148,95276,1,10,0:0:0:0:
151,268,95449,1,2,1:0:0:0:
151,268,95535,1,0,1:0:0:0:
151,268,95621,5,8,0:0:0:0:
215,29,95793,1,2,1:0:0:0:
249,326,95966,1,8,0:0:0:0:
130,113,96138,1,2,1:0:0:0:
390,158,96311,1,8,0:0:0:0:
128,157,96483,1,0,1:0:0:0:
354,61,96655,2,0,P|420:58|479:101,1,119.999996337891,8|0,0:0|1:0,0:0:0:0:
366,297,97000,6,0,B|310:324|246:292|278:292|214:260|150:292,1,222.000005419922,6|0,0:0|0:0,0:0:0:0:
15,379,98207,1,0,0:0:0:0:
15,379,98293,1,0,0:0:0:0:
15,379,98380,6,0,P|-6:330|1:266,1,102.000000622559,6|0,0:0|0:0,0:0:0:0:
86,157,98897,1,0,3:0:0:0:
86,157,98983,1,0,3:0:0:0:
86,157,99069,5,2,1:0:0:0:
151,292,99586,1,0,3:0:0:0:
151,292,99673,1,0,3:0:0:0:
151,292,99759,5,14,0:0:0:0:
210,108,99931,1,0,1:0:0:0:
240,320,100104,1,8,0:0:0:0:
123,122,100276,1,0,1:0:0:0:
112,364,100449,1,8,0:0:0:0:
266,155,100621,1,0,1:0:0:0:
310,353,100793,1,8,0:0:0:0:
200,87,100966,1,0,1:0:0:0:
186,374,101138,5,8,0:0:0:0:
332,94,101311,1,0,1:0:0:0:
394,363,101483,1,8,0:0:0:0:
266,155,101655,1,0,1:0:0:0:
455,252,101828,2,0,L|350:246,1,89.9999972534181,8|0,0:0|1:0,0:0:0:0:
171,225,102173,1,8,0:0:0:0:
382,167,102345,1,0,1:0:0:0:
220,87,102517,5,12,0:0:0:0:
265,291,102690,1,0,1:0:0:0:
332,94,102862,1,8,0:0:0:0:
171,225,103035,1,0,1:0:0:0:
172,16,103207,1,8,0:0:0:0:
258,213,103380,1,0,1:0:0:0:
71,110,103552,1,8,0:0:0:0:
278,27,103724,1,0,1:0:0:0:
90,238,103897,6,0,L|88:294,2,44.999998626709,10|2|0,0:0|1:0|1:0,0:0:0:0:
222,125,104242,2,0,L|220:80,2,44.999998626709,10|2|0,0:0|1:0|1:0,0:0:0:0:
354,238,104586,2,0,L|356:294,2,44.999998626709,10|2|0,0:0|1:0|1:0,0:0:0:0:
452,62,104931,1,10,0:0:0:0:
439,228,105104,1,0,1:0:0:0:
334,36,105276,5,14,0:0:0:0:
275,269,105449,1,0,1:0:0:0:
409,140,105621,1,8,0:0:0:0:
192,233,105793,1,0,1:0:0:0:
377,315,105966,1,8,0:0:0:0:
266,140,106138,1,0,1:0:0:0:
254,372,106311,1,8,0:0:0:0:
338,108,106483,1,0,1:0:0:0:
454,305,106655,5,8,0:0:0:0:
196,158,106828,1,0,1:0:0:0:
481,131,107000,1,8,0:0:0:0:
275,269,107173,1,0,1:0:0:0:
390,24,107345,2,0,L|384:117,1,89.9999972534181,8|0,0:0|1:0,0:0:0:0:
365,288,107690,1,8,0:0:0:0:
297,113,107862,1,0,1:0:0:0:
482,228,108035,5,8,0:0:0:0:
217,226,108207,1,0,1:0:0:0:
384,113,108380,1,8,0:0:0:0:
273,313,108552,1,0,1:0:0:0:
211,130,108724,1,8,0:0:0:0:
365,288,108897,1,0,1:0:0:0:
319,33,109069,1,8,0:0:0:0:
138,183,109242,1,0,3:0:0:0:
138,183,109328,1,0,3:0:0:0:
138,183,109414,6,0,P|123:150|132:104,1,59.9999981689454,6|0,3:2|0:0,0:0:0:0:
295,168,109644,6,0,P|275:193|234:207,1,59.9999981689454
203,39,109874,6,0,P|240:42|277:75,1,59.9999981689454
370,117,110104,6,0,P|408:78|428:193,1,225.000008583069,10|8,3:0|3:0,0:0:0:0:
459,182,110707,1,8,3:0:0:0:
459,182,110793,5,0,1:0:0:0:
171,344,111138,2,0,P|179:303|186:266,1,75.0000028610231,2|2,0:0|0:0,0:0:0:0:
81,286,111483,1,2,0:0:0:0:
278,323,111655,2,0,B|339:334|357:290|432:300,1,150.000005722046,0|2,0:0|0:0,0:0:0:0:
299,215,112173,5,2,0:0:0:0:
388,149,112345,2,0,P|335:96|252:119,1,150.000005722046,2|0,0:0|0:0,0:0:0:0:
156,142,112862,2,0,P|162:104|164:68,1,75.0000028610231,2|2,0:0|0:0,0:0:0:0:
299,215,113207,2,0,P|293:253|291:289,1,75.0000028610231,10|2,0:0|1:0,0:0:0:0:
192,240,113552,5,0,1:0:0:0:
393,261,113724,1,0,1:0:0:0:
181,240,113897,1,0,1:0:0:0:
247,165,114069,2,0,L|239:81,1,75.0000028610231,0|8,1:0|0:0,0:0:0:0:
92,287,114414,2,0,L|100:371,1,75.0000028610231,0|0,1:0|1:0,0:0:0:0:
254,328,114759,6,0,P|292:326|332:319,1,75.0000028610231,8|0,0:0|1:0,0:0:0:0:
415,90,115104,2,0,P|377:92|337:99,1,75.0000028610231,0|8,1:0|0:0,0:0:0:0:
257,198,115449,1,2,3:0:0:0:
257,198,115535,1,0,3:0:0:0:
257,198,115621,1,2,1:0:0:0:
388,249,115793,1,2,1:0:0:0:
160,168,115966,1,10,0:0:0:0:
381,37,116138,1,10,0:0:0:0:
257,198,116311,5,2,1:0:0:0:
257,198,116483,1,2,1:0:0:0:
81,66,116655,2,0,P|77:106|70:160,1,75.0000028610231,10|2,0:0|1:0,0:0:0:0:
186,127,117000,5,2,1:0:0:0:
186,127,117173,1,2,1:0:0:0:
362,259,117345,2,0,P|366:219|373:165,1,75.0000028610231,10|0,0:0|3:0,0:0:0:0:
377,175,117604,1,0,3:0:0:0:
384,167,117690,5,2,1:0:0:0:
461,207,117862,1,0,1:0:0:0:
296,340,118035,2,0,L|201:348,1,75.0000028610231,8|0,0:0|0:0,0:0:0:0:
345,254,118380,5,0,1:0:0:0:
268,214,118552,1,0,1:0:0:0:
433,81,118724,2,0,L|528:73,1,75.0000028610231,8|2,0:0|1:0,0:0:0:0:
341,175,119069,6,0,B|274:173|270:120|195:120,1,150.000005722046,2|10,1:0|0:0,0:0:0:0:
104,78,119586,2,0,P|101:33|94:-3,1,75.0000028610231,0|2,1:0|1:0,0:0:0:0:
267,196,119931,2,0,P|270:241|277:277,1,75.0000028610231,2|10,1:0|0:0,0:0:0:0:
172,231,120276,1,2,1:0:0:0:
374,212,120449,5,2,1:0:0:0:
160,234,120621,1,2,1:0:0:0:
261,84,120793,1,8,0:0:0:0:
289,344,120966,1,2,1:0:0:0:
289,344,121052,1,0,0:0:0:0:
289,344,121138,1,0,1:0:0:0:
147,224,121311,1,0,1:0:0:0:
368,205,121483,2,0,P|408:202|458:193,1,75.0000028610231,8|0,0:0|3:0,0:0:0:0:
453,192,121742,1,0,3:0:0:0:
464,187,121828,6,0,L|471:104,1,75.0000028610231,0|0,1:0|1:0,0:0:0:0:
369,57,122173,1,2,1:0:0:0:
434,0,122345,1,2,1:0:0:0:
385,142,122517,1,10,0:0:0:0:
289,34,122690,2,0,P|227:39|193:43,1,75.0000028610231,0|0,1:0|1:0,0:0:0:0:
148,121,123035,1,2,1:0:0:0:
121,28,123207,5,2,1:0:0:0:
55,98,123380,1,8,0:0:0:0:
229,169,123552,1,2,1:0:0:0:
143,212,123724,1,2,1:0:0:0:
223,266,123897,2,0,P|219:318|214:348,1,75.0000028610231,10|2,0:0|1:0,0:0:0:0:
136,303,124242,1,2,1:0:0:0:
330,364,124414,1,10,0:0:0:0:
317,202,124586,5,2,1:0:0:0:
295,285,124759,1,0,1:0:0:0:
417,162,124931,5,0,1:0:0:0:
436,318,125104,1,0,1:0:0:0:
318,189,125276,5,8,0:0:0:0:
296,272,125449,1,0,1:0:0:0:
418,149,125621,5,0,1:0:0:0:
437,305,125793,1,0,1:0:0:0:
319,173,125966,5,0,1:0:0:0:
297,256,126138,1,8,0:0:0:0:
419,133,126311,5,0,1:0:0:0:
438,289,126483,1,2,1:0:0:0:
232,199,126655,5,10,0:0:0:0:
385,224,126828,1,2,1:0:0:0:
209,200,127000,5,10,0:0:0:0:
336,80,127173,1,2,1:0:0:0:
152,56,127345,5,2,1:0:0:0:
236,110,127517,1,0,1:0:0:0:
93,155,127690,2,0,L|15:147,1,75.0000028610231,10|2,0:0|1:0,0:0:0:0:
232,199,128035,5,2,1:0:0:0:
148,253,128207,1,0,1:0:0:0:
291,298,128380,2,0,L|369:290,1,75.0000028610231,10|0,0:0|0:0,0:0:0:0:
462,148,128724,5,2,1:0:0:0:
408,64,128897,1,0,1:0:0:0:
363,207,129069,2,0,L|371:285,1,75.0000028610231,8|0,0:0|0:0,0:0:0:0:
181,148,129414,5,0,1:0:0:0:
235,232,129586,1,0,1:0:0:0:
280,89,129759,2,0,L|272:11,1,75.0000028610231,8|2,0:0|1:0,0:0:0:0:
96,247,130104,6,0,P|92:297|101:337,1,75.0000028610231,6|0,0:0|0:0,0:0:0:0:
75,162,130449,2,0,P|36:194|14:229,1,75.0000028610231,10|0,0:0|0:0,0:0:0:0:
120,86,130793,2,0,P|69:81|29:91,1,75.0000028610231,2|0,1:0|1:0,0:0:0:0:
208,62,131138,2,0,P|175:23|140:1,1,75.0000028610231,10|0,0:0|1:0,0:0:0:0:
201,228,131483,6,0,B|310:242|285:176|400:189,1,200,2|8,1:0|0:0,0:0:0:0:
236,154,132000,1,0,3:0:0:0:
236,154,132086,1,0,3:0:0:0:
236,154,132173,1,0,1:0:0:0:
358,280,132345,1,0,1:0:0:0:
412,102,132517,1,2,1:0:0:0:
358,298,132690,1,2,1:0:0:0:
295,61,132862,6,0,P|227:42|145:79,2,150.000005722046,6|10|2,0:0|0:0|1:0,0:0:0:0:
279,252,133724,1,2,1:0:0:0:
401,108,133897,2,0,P|445:98|486:113,1,75.0000028610231,10|2,0:0|1:0,0:0:0:0:
226,126,134242,6,0,L|146:117,1,75.0000028610231,2|0,1:0|0:0,0:0:0:0:
338,180,134586,1,8,0:0:0:0:
179,212,134759,2,0,L|99:221,1,75.0000028610231,0|0,1:0|1:0,0:0:0:0:
354,183,135104,1,2,1:0:0:0:
167,215,135276,1,10,0:0:0:0:
350,324,135449,6,0,P|397:319|430:296,1,75.0000028610231,2|0,1:0|1:0,0:0:0:0:
262,296,135793,1,2,1:0:0:0:
262,296,135966,1,10,0:0:0:0:
162,324,136138,2,0,P|115:319|82:296,1,75.0000028610231,2|0,1:0|1:0,0:0:0:0:
110,120,136483,1,2,1:0:0:0:
146,225,136655,1,10,0:0:0:0:
18,141,136828,6,0,P|18:93|37:58,1,75.0000028610231,2|0,1:0|1:0,0:0:0:0:
207,119,137173,2,0,L|118:120,1,75.0000028610231,2|8,1:0|0:0,0:0:0:0:
301,68,137517,2,0,P|314:102|312:139,1,75.0000028610231,2|0,1:0|1:0,0:0:0:0:
239,214,137862,1,0,1:0:0:0:
386,89,138035,2,0,P|439:77|506:99,1,112.500004291535,8|0,0:0|0:0,0:0:0:0:
512,133,138380,6,0,L|500:305,2,150.000005722046,2|10|2,1:0|0:0|1:0,0:0:0:0:
444,22,139242,1,0,1:0:0:0:
360,108,139414,2,0,P|324:115|258:89,1,75.0000028610231,10|0,0:0|1:0,0:0:0:0:
132,173,139759,6,0,P|167:165|233:191,1,75.0000028610231,2|2,1:0|1:0,0:0:0:0:
279,247,140104,1,10,0:0:0:0:
168,272,140276,1,0,1:0:0:0:
310,265,140449,6,0,P|345:272|411:246,1,75.0000028610231,2|2,1:0|1:0,0:0:0:0:
457,191,140793,1,10,0:0:0:0:
346,166,140966,1,2,1:0:0:0:
423,350,141138,6,0,P|459:357|496:350,1,75.0000028610231,2|0,1:0|1:0,0:0:0:0:
464,167,141483,1,10,0:0:0:0:
310,265,141655,2,0,P|346:272|383:264,1,75.0000028610231,0|2,1:0|1:0,0:0:0:0:
222,222,142000,2,0,P|185:215|149:223,1,75.0000028610231,2|8,1:0|0:0,0:0:0:0:
0,316,142345,2,0,P|36:323|73:315,1,75.0000028610231,2|0,1:0|1:0,0:0:0:0:
188,297,142690,1,0,1:0:0:0:
111,159,142862,1,8,0:0:0:0:
37,243,143035,1,0,1:0:0:0:
182,106,143207,1,0,1:0:0:0:
188,297,143380,1,2,1:0:0:0:
103,148,143552,1,10,0:0:0:0:
73,315,143724,1,2,1:0:0:0:
257,141,143897,6,0,P|304:130|377:156,1,110.000003356934,6|2,0:0|1:0,0:0:0:0:
419,242,144414,1,0,1:0:0:0:
419,242,144500,1,0,0:0:0:0:
419,242,144586,1,10,3:0:0:0:
306,230,144759,1,8,3:0:0:0:
455,162,144931,2,0,L|516:166,1,55.0000016784668,2|0,1:0|1:0,0:0:0:0:
340,27,145276,5,2,1:0:0:0:
118,147,145621,1,2,1:0:0:0:
188,70,145793,1,8,3:0:0:0:
223,168,145966,1,2,1:0:0:0:
98,156,146138,1,2,1:0:0:0:
192,39,146311,1,10,3:0:0:0:
282,289,146655,5,8,0:0:0:0:
89,301,146828,1,0,1:0:0:0:
373,327,147000,1,8,0:0:0:0:
183,337,147173,1,2,1:0:0:0:
277,96,147345,1,8,0:0:0:0:
287,384,147517,1,2,1:0:0:0:
199,98,147862,6,0,P|214:50|353:74,1,200,6|2,0:0|1:0,0:0:0:0:
426,173,148380,1,10,0:0:0:0:
288,256,148552,2,0,L|283:145,1,100,2|0,1:0|1:0,0:0:0:0:
463,58,148897,1,2,1:0:0:0:
365,226,149069,1,10,0:0:0:0:
341,50,149242,1,2,1:0:0:0:
489,225,149414,6,0,L|481:339,1,100,2|0,1:0|1:0,0:0:0:0:
292,361,149759,1,10,0:0:0:0:
426,173,149931,1,2,1:0:0:0:
394,364,150104,1,2,1:0:0:0:
283,156,150276,1,2,1:0:0:0:
193,363,150449,1,10,0:0:0:0:
345,196,150621,6,0,P|351:128|238:95,1,200,2|2,1:0|1:0,0:0:0:0:
101,164,151138,1,10,0:0:0:0:
198,282,151311,2,0,P|210:224|184:173,1,100,2|2,1:0|1:0,0:0:0:0:
130,62,151655,1,0,1:0:0:0:
39,243,151828,1,10,0:0:0:0:
279,192,152000,6,0,B|340:224|340:224|501:185,1,200,2|0,1:0|1:0,0:0:0:0:
351,35,152517,2,0,L|349:134,1,100,8|0,0:0|1:0,0:0:0:0:
347,318,152862,1,0,1:0:0:0:
440,105,153035,1,2,1:0:0:0:
486,284,153207,1,10,0:0:0:0:
259,264,153380,6,0,P|219:219|313:115,1,200,2|2,1:0|1:0,0:0:0:0:
440,105,153897,1,10,0:0:0:0:
347,318,154069,2,0,L|354:191,1,100,0|2,1:0|1:0,0:0:0:0:
360,30,154414,1,0,1:0:0:0:
440,208,154586,1,10,0:0:0:0:
180,106,154759,6,0,L|302:115,1,100,2|0,1:0|1:0,0:0:0:0:
62,240,155104,2,0,L|161:232,1,100,2|8,1:0|0:0,0:0:0:0:
346,343,155449,2,0,L|246:335,1,100,2|0,1:0|1:0,0:0:0:0:
34,318,155793,1,2,1:0:0:0:
249,251,155966,1,8,0:0:0:0:
103,377,156138,1,2,1:0:0:0:
124,154,156311,6,0,L|132:32,1,100,2|2,1:0|1:0,0:0:0:0:
377,44,156655,1,10,0:0:0:0:
220,170,156828,1,2,1:0:0:0:
255,0,157000,1,2,1:0:0:0:
390,154,157173,2,0,P|399:206|377:284,1,100,2|10,1:0|0:0,0:0:0:0:
267,359,157517,1,2,1:0:0:0:
314,206,157690,5,8,3:2:0:0:
455,302,157862,1,0,3:0:0:0:
425,324,157949,1,0,3:0:0:0:
388,329,158035,1,8,3:0:0:0:
353,317,158121,1,0,0:0:0:0:
328,290,158207,2,0,L|194:286,1,100,10|0,3:0|0:0,0:0:0:0:
119,153,158552,1,8,3:0:0:0:
156,151,158638,1,8,3:0:0:0:
193,149,158724,2,0,L|251:147,1,50,0|0,3:0|0:0,0:0:0:0:
420,143,158897,6,0,B|312:118|361:55|231:34,1,200,6|2,1:0|1:0,0:0:0:0:
91,182,159414,1,10,0:0:0:0:
215,246,159586,2,0,P|201:195|192:142,1,100,2|0,1:0|1:0,0:0:0:0:
133,334,159931,1,2,1:0:0:0:
309,183,160104,1,10,0:0:0:0:
118,68,160276,1,2,1:0:0:0:
236,279,160449,6,0,P|306:234|378:231,1,150,2|0,1:0|0:0,0:0:0:0:
451,260,160793,1,10,0:0:0:0:
378,199,160966,1,2,1:0:0:0:
448,59,161138,1,2,1:0:0:0:
505,128,161311,1,2,1:0:0:0:
440,291,161483,1,10,0:0:0:0:
254,84,161655,6,0,B|300:73|336:62|336:62|344:115|371:211,1,200,2|2,1:0|1:0,0:0:0:0:
166,307,162173,1,10,0:0:0:0:
273,363,162345,2,0,B|286:317|286:317|268:261,1,100,2|0,1:0|1:0,0:0:0:0:
73,200,162690,1,0,1:0:0:0:
208,89,162862,1,10,0:0:0:0:
11,13,163035,6,0,P|123:41|180:118,1,200,2|0,1:0|1:0,0:0:0:0:
62,283,163552,2,0,B|51:234|51:234|64:175,1,100,8|0,0:0|1:0,0:0:0:0:
61,185,163811,1,0,0:0:0:0:
61,185,163897,2,0,L|114:180,1,50,0|0,1:0|0:0,0:0:0:0:
190,242,164069,2,0,P|192:267|195:291,1,50,2|0,1:0|0:0,0:0:0:0:
271,94,164242,2,0,P|273:69|276:45,1,50,10|0,0:0|0:0,0:0:0:0:
457,155,164414,6,0,B|382:170|415:213|330:251,1,150,2|0,1:0|0:0,0:0:0:0:
342,245,164759,1,2,1:0:0:0:
414,327,164931,1,8,0:0:0:0:
308,380,165104,1,2,1:0:0:0:
308,380,165190,1,0,0:0:0:0:
308,380,165276,1,0,1:0:0:0:
204,348,165449,1,2,1:0:0:0:
340,206,165621,2,0,L|333:146,1,50,8|0,0:0|0:0,0:0:0:0:
334,156,165793,6,0,B|264:174|264:174|239:217|239:217|152:242,1,200,2|0,1:0|1:0,0:0:0:0:
164,238,166224,1,0,0:0:0:0:
164,238,166311,2,0,P|161:269|149:315,1,50,10|0,0:0|0:0,0:0:0:0:
82,127,166483,2,0,P|78:96|66:50,1,50,2|0,1:0|0:0,0:0:0:0:
358,55,166655,1,0,1:0:0:0:
247,0,166828,2,0,B|233:48|233:48|247:104,1,100,2|10,1:0|0:0,0:0:0:0:
469,262,167173,6,0,P|393:196|280:195,1,200,2|2,1:0|1:0,0:0:0:0:
297,189,167604,1,0,0:0:0:0:
297,189,167690,1,8,0:0:0:0:
218,370,167862,2,0,P|265:354|314:344,1,100,2|2,1:0|1:0,0:0:0:0:
166,130,168207,2,0,P|213:145|262:155,1,100,2|8,1:0|0:0,0:0:0:0:
125,271,168552,1,2,3:2:0:0:
300,153,168724,5,8,3:0:0:0:
107,37,168897,1,0,3:0:0:0:
107,37,168983,1,0,3:0:0:0:
107,37,169069,2,0,P|102:66|91:102,1,50,10|0,3:0|0:0,0:0:0:0:
96,85,169242,2,0,B|158:79|224:63|224:63|200:87|187:122,1,179.999994506836,10|0,3:0|0:0,0:0:0:0:
250,230,169586,1,8,3:0:0:0:
250,230,169673,1,8,3:0:0:0:
250,230,169759,2,0,P|255:201|266:165,1,50,2|0,3:0|3:0,0:0:0:0:
403,37,169931,6,0,P|407:120|474:224,1,200,6|0,3:2|0:0,0:0:0:0:
339,343,170449,2,0,P|386:317|459:310,1,100,8|0,0:0|0:0,0:0:0:0:
225,283,170793,1,0,0:0:0:0:
357,230,170966,1,0,1:0:0:0:
147,174,171138,5,8,0:0:0:0:
335,218,171311,1,0,1:0:0:0:
179,84,171483,5,0,1:0:0:0:
95,104,171655,1,0,1:0:0:0:
60,182,171828,2,0,P|57:248|47:301,1,100,8|0,0:0|1:0,0:0:0:0:
13,110,172173,1,2,1:0:0:0:
217,160,172345,1,2,1:0:0:0:
330,61,172517,1,10,0:0:0:0:
480,108,172690,6,0,P|432:185|468:285,1,200,2|0,1:0|1:0,0:0:0:0:
338,312,173207,2,0,P|286:318|220:357,1,100,8|0,0:0|1:0,0:0:0:0:
140,202,173552,1,0,1:0:0:0:
119,343,173724,1,0,1:0:0:0:
68,108,173897,5,8,0:0:0:0:
105,314,174069,1,0,1:0:0:0:
326,119,174242,5,0,1:0:0:0:
333,147,174414,1,0,1:0:0:0:
434,193,174586,2,0,L|418:327,1,100,8|2,0:0|1:0,0:0:0:0:
235,320,174931,1,0,1:0:0:0:
347,354,175104,1,2,1:0:0:0:
145,244,175276,5,8,0:0:0:0:
228,215,175449,2,0,B|280:201|280:201|312:157|312:157|387:132,1,150,2|0,1:0|0:0,0:0:0:0:
376,137,175793,1,2,1:0:0:0:
487,253,175966,2,0,P|483:319|485:366,1,100,10|0,0:0|1:0,0:0:0:0:
388,248,176311,1,0,1:0:0:0:
480,102,176483,1,0,1:0:0:0:
393,266,176655,1,8,0:0:0:0:
469,86,176828,1,0,1:0:0:0:
294,47,177000,5,2,1:0:0:0:
394,21,177173,1,0,1:0:0:0:
213,130,177345,6,0,L|322:156,1,100,8|0,0:0|1:0,0:0:0:0:
196,36,177690,1,0,1:0:0:0:
114,89,177862,1,2,1:0:0:0:
92,180,178035,1,8,0:0:0:0:
141,261,178207,6,0,L|321:239,1,150,2|0,1:0|0:0,0:0:0:0:
307,242,178552,2,0,P|317:317|306:360,1,100,2|8,1:0|0:0,0:0:0:0:
197,59,178897,2,0,P|187:134|198:177,1,100,2|0,1:0|1:0,0:0:0:0:
291,123,179242,1,0,1:0:0:0:
296,149,179414,1,8,0:0:0:0:
63,210,179586,1,2,1:0:0:0:
60,342,179759,5,8,0:0:0:0:
89,343,179845,1,0,0:0:0:0:
118,348,179931,1,0,3:0:0:0:
147,352,180017,1,0,3:0:0:0:
177,355,180104,1,8,3:0:0:0:
206,357,180190,1,8,3:0:0:0:
235,360,180276,2,0,L|231:258,1,100,10|10,3:0|3:0,0:0:0:0:
281,136,180621,5,0,3:0:0:0:
329,124,180707,1,0,3:0:0:0:
377,136,180793,1,2,3:0:0:0:
415,169,180880,1,2,3:0:0:0:
426,213,180966,6,0,B|366:233|366:233|314:216|314:216|245:232,1,165.000005035401,14|0,0:0|0:0,0:0:0:0:
198,279,181311,1,0,1:0:0:0:
95,118,181483,2,0,P|154:83|261:98,1,165.000005035401,10|0,0:0|3:0,0:0:0:0:
125,64,181828,2,0,P|67:76|15:58,1,110.000003356934,2|2,1:0|1:0,0:0:0:0:
69,229,182173,1,10,0:0:0:0:
69,229,182259,1,0,3:0:0:0:
69,229,182345,1,2,3:0:0:0:
69,229,182431,1,0,3:0:0:0:
69,229,182517,6,0,P|129:213|181:233,1,110.000003356934,2|2,1:0|1:0,0:0:0:0:
309,299,182862,1,10,0:0:0:0:
348,319,182949,1,0,3:0:0:0:
391,324,183035,1,2,3:0:0:0:
433,311,183121,1,0,3:0:0:0:
465,281,183207,5,2,1:0:0:0:
374,110,183380,1,2,1:0:0:0:
279,262,183552,1,10,0:0:0:0:
465,281,183724,6,0,B|468:219|468:219|451:181|451:181|453:100,1,165.000005035401,2|0,1:0|3:0,0:0:0:0:
503,47,184069,1,2,1:0:0:0:
285,139,184242,2,0,P|216:146|125:89,1,165.000005035401,10|0,0:0|3:0,0:0:0:0:
235,175,184586,2,0,P|292:187|333:225,1,110.000003356934,2|2,1:0|1:0,0:0:0:0:
61,263,184931,1,10,0:0:0:0:
61,263,185017,1,0,3:0:0:0:
61,263,185104,1,2,3:0:0:0:
61,263,185190,1,0,3:0:0:0:
61,263,185276,6,0,P|30:208|37:153,1,110.000003356934,2|2,1:0|1:0,0:0:0:0:
165,43,185621,1,10,0:0:0:0:
204,23,185707,1,0,3:0:0:0:
247,18,185793,1,2,3:0:0:0:
289,31,185880,1,0,3:0:0:0:
320,61,185966,5,2,1:0:0:0:
230,232,186138,1,2,1:0:0:0:
135,80,186311,1,10,0:0:0:0:
299,141,186483,6,0,B|352:150|390:117|390:117|426:108|475:145,1,165.000005035401,2|0,1:0|3:0,0:0:0:0:
507,192,186828,1,2,1:0:0:0:
320,61,187000,2,0,L|153:57,1,165.000005035401,10|0,0:0|3:0,0:0:0:0:
77,108,187345,2,0,P|128:146|189:147,1,110.000003356934,2|2,1:0|1:0,0:0:0:0:
307,242,187690,1,10,0:0:0:0:
307,242,187776,1,0,3:0:0:0:
307,242,187862,1,2,3:0:0:0:
307,242,187949,1,0,3:0:0:0:
307,242,188035,6,0,L|172:240,1,110.000003356934,2|2,1:0|1:0,0:0:0:0:
26,314,188380,1,10,0:0:0:0:
57,344,188466,1,0,3:0:0:0:
99,355,188552,1,2,3:0:0:0:
142,348,188638,1,0,3:0:0:0:
179,325,188724,5,2,1:0:0:0:
119,165,188897,1,2,1:0:0:0:
4,269,189069,1,10,0:0:0:0:
179,325,189242,5,2,3:0:0:0:
222,325,189328,1,0,0:0:0:0:
264,312,189414,1,0,3:0:0:0:
293,279,189500,1,0,0:0:0:0:
328,252,189586,1,2,1:0:0:0:
372,247,189673,1,0,3:0:0:0:
412,264,189759,5,8,0:0:0:0:
191,231,189931,1,0,1:0:0:0:
362,351,190104,1,8,0:0:0:0:
338,97,190276,1,0,1:0:0:0:
172,237,190449,1,8,0:0:0:0:
495,165,190621,1,0,3:0:0:0:
209,26,190793,5,8,0:0:0:0:
139,10,190880,1,0,3:0:0:0:
69,31,190966,1,0,3:0:0:0:
26,93,191052,1,0,3:0:0:0:
20,171,191138,1,0,3:0:0:0:
227,248,191311,6,0,B|279:256|320:242|320:242|363:266|363:266|392:252|456:259,1,209.999993591309,2|0,1:0|3:0,0:0:0:0:
501,168,191655,1,14,3:2:0:0:
502,122,191742,1,14,3:2:0:0:
476,88,191828,1,14,3:2:0:0:
432,74,191914,1,10,3:0:0:0:
393,91,192000,2,0,B|361:94|361:94|331:88|331:88|319:72|319:72|289:64|289:64|247:71,1,150,8|0,3:0|0:0,0:0:0:0:
209,48,192345,2,0,P|207:15|227:-24,1,50,2|0,1:0|0:0,0:0:0:0:
164,228,192690,6,0,B|234:173|305:248|305:248|310:205|328:168|328:168|280:171|238:153|238:153|230:295|230:295|291:302|309:350|309:350|230:295|130:357,1,750,6|0,1:0|0:0,0:0:0:0:
80,260,195449,6,0,B|62:168|144:135|144:135|55:109|69:47|69:47|108:84|156:99|200:96|253:103|292:34|246:-29|170:-25|152:-13|134:35|150:78|181:104|238:113|238:113|229:140|243:165,1,750,6|0,1:0|0:0,0:0:0:0:
188,229,198207,6,0,P|222:188|311:197,1,150.000005722046,6|0,1:0|3:0,0:0:0:0:
365,285,198724,1,10,1:2:0:0:
258,256,198897,1,2,3:0:0:0:
393,205,199069,1,2,1:0:0:0:
303,348,199242,1,2,3:0:0:0:
310,196,199414,1,8,1:2:0:0:
208,343,199586,6,0,P|170:348|119:323,1,75.0000028610231,2|2,3:0|1:0,0:0:0:0:
148,198,199931,2,0,P|171:228|175:285,1,75.0000028610231,2|10,1:0|1:2,0:0:0:0:
52,322,200276,2,0,P|66:286|113:254,1,75.0000028610231,0|2,3:0|1:0,0:0:0:0:
256,273,200621,1,2,3:0:0:0:
135,336,200793,1,8,1:2:0:0:
233,189,200966,1,0,3:0:0:0:
279,355,201138,6,0,P|308:309|397:306,1,150.000005722046,2|8,1:0|1:2,0:0:0:0:
479,358,201655,1,2,3:0:0:0:
500,264,201828,2,0,L|494:175,1,75.0000028610231,2|0,1:0|3:0,0:0:0:0:
489,86,202173,1,10,1:2:0:0:
412,195,202345,1,0,3:0:0:0:
365,49,202517,5,10,1:3:0:0:
336,47,202604,1,0,3:0:0:0:
308,46,202690,1,0,3:0:0:0:
280,45,202776,1,0,3:0:0:0:
252,44,202862,1,2,1:0:0:0:
101,168,203035,5,2,1:0:0:0:
290,246,203380,5,2,1:0:0:0:
7,280,203724,6,0,B|17:248|44:231|44:231|6:195|21:132,1,150.000005722046,2|0,1:0|0:0,0:0:0:0:
158,66,204242,6,0,B|133:170|133:170|125:141|103:112,1,139.999995727539,14|2,0:0|1:0,0:0:0:0:
61,64,204500,1,0,0:0:0:0:
61,64,204586,1,0,1:0:0:0:
242,198,204759,1,2,1:0:0:0:
364,70,204931,2,0,P|348:125|335:182,1,100,10|2,0:0|1:0,0:0:0:0:
148,260,205276,5,2,1:0:0:0:
191,328,205449,1,0,1:0:0:0:
23,369,205621,1,10,0:0:0:0:
235,244,205793,1,2,1:0:0:0:
41,105,205966,1,2,1:0:0:0:
92,287,206138,2,0,B|106:246|106:246|106:233|106:233|121:192,1,100,2|10,1:0|0:0,0:0:0:0:
237,55,206483,6,0,B|299:40|299:40|312:77|332:139,1,150,2|0,1:0|0:0,0:0:0:0:
326,121,206828,1,2,1:0:0:0:
257,187,207000,1,10,0:0:0:0:
388,296,207173,2,0,P|401:243|417:192,1,100,2|2,1:0|1:0,0:0:0:0:
241,86,207517,1,0,1:0:0:0:
374,11,207690,1,10,0:0:0:0:
257,187,207862,6,0,B|211:175|211:175|200:166|200:166|148:151,1,100,2|2,1:0|1:0,0:0:0:0:
299,320,208207,1,0,1:0:0:0:
103,362,208380,2,0,P|107:313|151:285,1,100,8|0,0:0|1:0,0:0:0:0:
146,285,208638,1,0,0:0:0:0:
146,285,208724,2,0,P|161:312|165:355,1,50,0|0,1:0|0:0,0:0:0:0:
19,198,208897,2,0,P|4:225|0:268,1,50,2|0,1:0|0:0,0:0:0:0:
169,113,209069,2,0,P|184:140|188:183,1,50,10|0,0:0|0:0,0:0:0:0:
45,22,209242,6,0,B|60:81|125:111|180:56|180:56,1,150,2|0,1:0|0:0,0:0:0:0:
164,67,209586,1,2,1:0:0:0:
303,178,209759,2,0,P|292:222|283:283,1,100,10|0,0:0|1:0,0:0:0:0:
283,275,210017,1,0,0:0:0:0:
283,275,210104,1,2,1:0:0:0:
69,118,210276,2,0,P|80:162|89:223,1,100,0|10,1:0|0:0,0:0:0:0:
280,81,210621,6,0,B|322:68|322:68|332:59|332:59|396:40,1,100,2|0,1:0|1:0,0:0:0:0:
290,281,210966,2,0,B|330:293|330:293|340:302|340:302|382:315,1,100,2|8,1:0|0:0,0:0:0:0:
206,186,211311,2,0,B|138:199|114:268|151:313|151:313,1,150,2|0,1:0|0:0,0:0:0:0:
143,300,211655,2,0,B|94:292|94:292|23:307,1,100,2|8,1:0|0:0,0:0:0:0:
131,64,212000,2,0,P|135:98|143:143,1,50,0|0,0:0|0:0,0:0:0:0:
137,113,212173,6,0,B|172:64|172:64|171:2,1,100,2|2,1:0|1:0,0:0:0:0:
294,190,212517,1,10,0:0:0:0:
220,240,212690,1,2,1:0:0:0:
322,96,212862,1,2,1:0:0:0:
448,189,213035,1,2,1:0:0:0:
327,368,213207,1,10,0:0:0:0:
121,231,213380,1,2,1:0:0:0:
226,67,213552,5,8,3:2:0:0:
321,235,213724,1,0,3:0:0:0:
321,235,213811,1,0,3:0:0:0:
321,235,213897,2,0,P|279:226|239:220,1,50,8|0,3:0|0:0,0:0:0:0:
272,224,214069,2,0,B|334:206|334:206|362:326,1,150,10|0,3:0|0:0,0:0:0:0:
163,353,214414,1,8,3:0:0:0:
163,353,214500,1,8,3:0:0:0:
163,353,214586,2,0,P|172:315|175:273,1,50,0|0,3:0|0:0,0:0:0:0:
87,102,214759,6,0,P|69:155|177:174,1,200,6|2,0:0|1:0,0:0:0:0:
306,33,215276,2,0,P|302:88|316:138,1,100,10|2,0:0|1:0,0:0:0:0:
312,131,215535,1,0,0:0:0:0:
312,131,215621,1,0,1:0:0:0:
171,65,215793,1,2,1:0:0:0:
235,326,215966,2,0,P|239:271|225:221,1,100,10|2,0:0|1:0,0:0:0:0:
18,180,216311,5,2,1:0:0:0:
115,147,216483,1,0,0:0:0:0:
321,226,216655,5,10,0:0:0:0:
272,43,216828,1,2,1:0:0:0:
162,231,217000,1,2,1:0:0:0:
47,58,217173,2,0,L|163:44,1,100,2|10,1:0|0:0,0:0:0:0:
424,139,217517,6,0,B|353:151|353:151|323:232,1,150,2|0,1:0|0:0,0:0:0:0:
296,302,217862,1,2,1:0:0:0:
244,111,218035,1,10,0:0:0:0:
110,250,218207,2,0,L|-17:212,1,100,2|0,1:0|1:0,0:0:0:0:
244,126,218552,1,0,1:0:0:0:
206,317,218724,1,10,0:0:0:0:
148,62,218897,6,0,L|21:100,1,100,2|2,1:0|1:0,0:0:0:0:
227,210,219242,1,0,1:0:0:0:
313,25,219414,2,0,B|323:77|323:77|332:85|332:85|343:141,1,100,8|0,0:0|1:0,0:0:0:0:
419,280,219759,1,0,1:0:0:0:
439,169,219931,1,2,1:0:0:0:
233,225,220104,5,10,0:0:0:0:
294,336,220276,2,0,B|345:326|345:326|354:317|354:317|411:307,1,100,2|0,1:0|0:0,0:0:0:0:
335,125,220621,1,2,1:0:0:0:
324,248,220793,1,8,0:0:0:0:
162,125,220966,2,0,B|215:116|215:116|222:106|222:106|277:95,1,100,2|0,1:0|1:0,0:0:0:0:
320,274,221311,1,2,1:0:0:0:
338,94,221483,1,8,0:0:0:0:
132,221,221655,5,2,1:0:0:0:
145,322,221828,1,0,1:0:0:0:
22,245,222000,2,0,L|46:126,1,100,0|10,1:0|0:0,0:0:0:0:
178,36,222345,5,2,1:0:0:0:
54,20,222517,1,0,1:0:0:0:
301,117,222690,5,2,1:0:0:0:
156,143,222862,1,10,0:0:0:0:
393,22,223035,2,0,P|411:82|410:144,1,100,2|0,1:0|1:0,0:0:0:0:
340,219,223380,5,2,1:0:0:0:
383,307,223552,1,8,0:0:0:0:
191,235,223724,2,0,P|175:287|177:342,1,100,2|2,1:0|1:0,0:0:0:0:
283,290,224069,1,2,1:0:0:0:
90,236,224242,1,8,0:0:0:0:
308,139,224414,5,2,3:2:0:0:
322,135,224500,1,0,3:2:0:0:
336,134,224586,2,0,L|416:142,1,50,8|0,3:0|0:0,0:0:0:0:
470,236,224759,1,0,3:0:0:0:
438,221,224845,1,0,3:0:0:0:
403,222,224931,1,10,3:0:0:0:
374,242,225017,1,0,3:0:0:0:
357,272,225104,2,0,P|362:334|403:372,1,100,10|0,3:0|1:0,0:0:0:0:
261,214,225449,5,8,3:0:0:0:
209,195,225535,1,8,3:0:0:0:
156,210,225621,1,2,3:0:0:0:
112,243,225707,1,0,3:0:0:0:
60,262,225793,1,0,3:0:0:0:
7,247,225880,1,0,0:0:0:0:
0,197,225966,6,0,B|-2:141|-2:141|11:103|11:103|9:47,1,150,14|0,0:0|0:0,0:0:0:0:
64,0,226311,1,10,0:0:0:0:
123,164,226483,1,2,1:0:0:0:
235,32,226655,2,0,P|289:12|340:25,1,100,10|0,0:0|1:0,0:0:0:0:
312,299,227000,6,0,L|304:169,1,100,14|0,0:0|0:0,0:0:0:0:
468,154,227345,1,8,0:0:0:0:
259,169,227517,1,0,1:0:0:0:
495,253,227690,1,10,0:0:0:0:
495,253,227862,1,2,1:0:0:0:
191,314,228035,1,10,0:0:0:0:
268,133,228207,1,2,1:0:0:0:
296,370,228380,1,8,0:0:0:0:
178,193,228552,6,0,P|130:144|33:143,1,150,6|0,1:0|0:0,0:0:0:0:
39,138,228897,1,2,1:0:0:0:
274,108,229069,1,10,0:0:0:0:
114,39,229242,1,2,1:0:0:0:
294,206,229414,2,0,P|343:183|373:136,1,100,10|0,0:0|1:0,0:0:0:0:
407,31,229759,1,10,0:0:0:0:
202,178,229931,6,0,L|206:290,1,100,2|12,1:0|0:0,0:0:0:0:
34,314,230276,1,0,1:0:0:0:
243,299,230449,1,8,0:0:0:0:
7,215,230621,1,0,1:0:0:0:
7,215,230793,1,8,0:0:0:0:
311,154,230966,1,2,1:0:0:0:
234,335,231138,1,10,0:0:0:0:
378,91,231311,6,0,P|309:102|243:71,1,119.999996337891,2|8,1:0|0:0,0:0:0:0:
429,174,231655,1,2,1:0:0:0:
429,174,231828,1,10,0:0:0:0:
263,86,232000,2,0,P|194:75|128:107,1,119.999996337891,2|8,1:0|0:0,0:0:0:0:
334,9,232345,1,2,1:0:0:0:
334,9,232517,1,10,0:0:0:0:
148,92,232690,2,0,P|91:110|33:98,1,119.999996337891,2|8,1:0|0:0,0:0:0:0:
85,0,233035,1,2,1:0:0:0:
98,259,233207,1,10,0:0:0:0:
219,151,233380,6,0,P|275:134|333:146,1,119.999996337891,2|8,1:0|0:0,0:0:0:0:
422,264,233724,1,2,1:0:0:0:
480,101,233897,1,10,0:0:0:0:
333,146,234069,1,0,1:0:0:0:
333,146,234155,1,0,1:0:0:0:
333,146,234242,5,14,0:0:0:0:
174,101,234414,1,0,0:0:0:0:
423,123,234586,1,10,0:0:0:0:
119,172,234759,1,2,1:0:0:0:
385,211,234931,1,10,0:0:0:0:
42,82,235104,1,0,1:0:0:0:
67,327,235276,1,10,0:0:0:0:
40,41,235449,1,2,1:0:0:0:
40,41,235535,1,0,1:0:0:0:
40,41,235621,5,8,0:0:0:0:
283,109,235793,1,2,1:0:0:0:
110,140,235966,1,8,0:0:0:0:
321,122,236138,1,2,1:0:0:0:
189,243,236311,1,8,0:0:0:0:
357,98,236483,1,0,1:0:0:0:
470,351,236655,1,8,0:0:0:0:
441,309,237000,6,0,P|450:273|436:204,1,89.9999972534181,6|0,0:0|0:0,0:0:0:0:
420,198,237345,2,0,P|413:153|422:110,1,89.9999972534181,0|0,0:0|0:0,0:0:0:0:
450,81,237690,2,0,P|458:37|421:-1,1,89.9999972534181,0|0,0:0|0:0,0:0:0:0:
397,12,238035,2,0,B|291:30|333:-17|208:7,1,179.999994506836,0|6,0:0|0:0,0:0:0:0:
43,185,238897,1,0,0:0:0:0:
58,226,238983,1,8,3:0:0:0:
92,255,239069,5,0,0:0:0:0:
398,267,240793,6,0,P|449:153|350:200,1,269.999991760254,8|0,0:0|0:0,0:0:0:0:
350,176,241138,5,14,0:0:0:0:
273,322,241311,1,0,1:0:0:0:
245,100,241483,1,8,0:0:0:0:
363,347,241655,1,0,1:0:0:0:
370,73,241828,1,8,0:0:0:0:
182,352,242000,1,0,1:0:0:0:
448,140,242173,1,8,0:0:0:0:
144,149,242345,1,0,1:0:0:0:
452,286,242517,5,10,0:0:0:0:
211,35,242690,1,0,1:0:0:0:
273,306,242862,1,10,0:0:0:0:
452,57,243035,1,0,1:0:0:0:
125,151,243207,1,10,0:0:0:0:
366,325,243380,1,0,1:0:0:0:
274,44,243552,2,0,P|208:12|125:32,1,134.999995880127,10|0,0:0|0:0,0:0:0:0:
80,71,243897,5,8,0:0:0:0:
226,258,244069,1,0,1:0:0:0:
197,98,244242,1,8,0:0:0:0:
98,303,244414,1,0,1:0:0:0:
301,130,244586,1,8,0:0:0:0:
314,353,244759,1,0,1:0:0:0:
119,152,244931,1,8,0:0:0:0:
383,187,245104,1,0,1:0:0:0:
174,371,245276,5,10,0:0:0:0:
207,213,245449,1,0,1:0:0:0:
245,301,245621,5,10,0:0:0:0:
220,119,245793,1,2,1:0:0:0:
304,204,245966,5,8,0:0:0:0:
111,184,246138,1,2,1:0:0:0:
294,61,246311,6,0,P|346:38|444:83,1,134.999995880127,10|0,0:0|0:0,0:0:0:0:
466,120,246655,5,8,0:0:0:0:
355,295,246828,1,0,1:0:0:0:
355,120,247000,1,8,0:0:0:0:
444,328,247173,1,0,1:0:0:0:
262,238,247345,1,8,0:0:0:0:
503,197,247517,1,0,1:0:0:0:
264,332,247690,1,8,0:0:0:0:
355,96,247862,1,0,1:0:0:0:
450,354,248035,5,8,0:0:0:0:
267,138,248207,1,0,1:0:0:0:
177,362,248380,1,8,0:0:0:0:
394,182,248552,1,2,1:0:0:0:
352,380,248724,1,8,0:0:0:0:
157,175,248897,1,2,1:0:0:0:
461,119,249069,2,0,P|489:188|460:254,1,134.999995880127,8|0,0:0|0:0,0:0:0:0:
399,282,249414,6,0,L|288:275,1,89.9999972534181,8|8,0:0|0:0,0:0:0:0:
274,273,249931,1,8,0:0:0:0:
289,117,250104,1,8,0:0:0:0:
334,200,250276,1,8,0:0:0:0:
365,44,250449,1,8,0:0:0:0:
232,193,250621,1,8,0:0:0:0:
232,193,250707,1,8,0:0:0:0:
232,193,250793,6,0,B|198:181|160:190|176:200|123:208|86:183,2,133.333333333333,8|0|0,0:0|0:0|0:0,0:0:0:0:
393,320,251766,5,12,0:0:0:0:
256,192,251853,12,0,260042,0:0:0:0:
260,115,260301,6,0,B|254:150|254:150|248:165|248:165|254:177|254:177|268:173|268:173|264:184|264:184|258:192|258:192|251:198|251:198|248:202|248:202|247:216|247:216|251:228|251:228|257:239|257:245|241:256|241:256|262:280,1,187.500007152558,2|0,1:0|0:0,0:0:0:0:
