osu file format v14

[General]
AudioFilename: audio.mp3
AudioLeadIn: 0
PreviewTime: 61208
Countdown: 0
SampleSet: None
StackLeniency: 0.5
Mode: 0
LetterboxInBreaks: 0
WidescreenStoryboard: 1

[Editor]
Bookmarks: 3105,13622,25346,47415,61208,63795,86036,99657,110864,132933,147933,170002,179829,192415,203795,226036,240864
DistanceSpacing: 0.2
BeatDivisor: 4
GridSize: 8
TimelineZoom: 2

[Metadata]
Title:Kimi no Sei
TitleUnicode:君のせい
Artist:the peggies
ArtistUnicode:the peggies
Creator:Cr0
Version:Insane
Source:青春ブタ野郎はバニーガール先輩の夢を見ない
Tags:Seishun Buta Yarō Yarou wa Yumemiru Shōjo Shoujo no Yume o Minai ao-buta Puberty Syndrome: Abnormal experiences during adolescence due to sensitivity and instability. Rascal Does Not Dream of Bunny Girl Senpai opening op
BeatmapID:2439425
BeatmapSetID:1169304

[Difficulty]
HPDrainRate:5
CircleSize:3.6
OverallDifficulty:7
ApproachRate:9
SliderMultiplier:1.4
SliderTickRate:1

[Events]
//Background and Video events
0,0,"46468419215_6f569f4494_k.jpg",0,0
//Break Periods
//Storyboard Layer 0 (Background)
//Storyboard Layer 1 (Fail)
//Storyboard Layer 2 (Pass)
//Storyboard Layer 3 (Foreground)
//Storyboard Layer 4 (Overlay)
//Storyboard Sound Samples

[TimingPoints]
-860,344.827586206897,4,2,1,60,1,0
519,-100,4,2,1,20,0,0
3105,-111.111111111111,4,2,1,40,0,0
3795,-142.857142857143,4,2,1,40,0,0
7071,-76.9230769230769,4,2,1,40,0,0
8277,-111.111111111111,4,2,1,40,0,0
9484,-200,4,2,1,40,0,0
10002,-111.111111111111,4,2,1,40,0,0
11553,-100,4,2,1,60,0,0
14312,-83.3333333333333,4,2,1,50,0,0
16208,-76.9230769230769,4,2,1,50,0,0
16553,-66.6666666666667,4,2,1,35,0,0
17071,-111.111111111111,4,2,1,50,0,0
23795,-100,4,2,1,35,0,0
23967,-76.9230769230769,4,2,1,50,0,0
24197,-111.111111111111,4,2,1,50,0,0
24427,-200,4,2,1,50,0,0
24657,-142.857142857143,4,2,1,50,0,0
25174,-100,4,2,1,40,0,0
27415,-111.111111111111,4,2,1,50,0,0
28105,-125,4,2,1,50,0,0
33622,-111.111111111111,4,2,1,50,0,0
36036,-90.9090909090909,4,2,1,50,0,0
36381,-111.111111111111,4,2,1,50,0,0
39140,-125,4,2,1,50,0,0
44657,-166.666666666667,4,2,1,50,0,0
45346,-125,4,2,1,50,0,0
46036,-83.3333333333333,4,2,1,50,0,0
47415,-111.111111111111,4,2,1,50,0,0
63795,-90.9090909090909,4,2,1,65,0,1
67760,-50,4,2,1,65,0,1
68450,-90.9090909090909,4,2,1,65,0,1
68795,-83.3333333333333,4,2,1,45,0,1
69312,-66.6666666666667,4,2,1,65,0,1
69829,-90.9090909090909,4,2,1,65,0,1
70691,-66.6666666666667,4,2,1,65,0,1
71208,-90.9090909090909,4,2,1,65,0,1
73622,-90.9090909090909,4,2,1,45,0,1
74829,-90.9090909090909,4,2,1,65,0,1
78795,-50,4,2,1,65,0,1
79484,-90.9090909090909,4,2,1,65,0,1
80346,-66.6666666666667,4,2,1,65,0,1
83105,-90.9090909090909,4,2,1,50,0,1
84657,-66.6666666666667,4,2,1,45,0,1
85174,-90.9090909090909,4,2,1,45,0,1
85519,-83.3333333333333,4,2,1,35,0,1
86036,-125,4,2,1,50,0,0
87071,-83.3333333333333,4,2,1,50,0,0
88622,-90.9090909090909,4,2,1,50,0,0
93967,-83.3333333333333,4,2,1,35,0,0
94312,-125,4,2,1,50,0,0
99657,-111.111111111111,4,2,1,50,0,0
109140,-100,4,2,1,35,0,0
109484,-76.9230769230769,4,2,1,50,0,0
109714,-111.111111111111,4,2,1,50,0,0
109944,-200,4,2,1,50,0,0
110174,-142.857142857143,4,2,1,50,0,0
113622,-125,4,2,1,50,0,0
119140,-111.111111111111,4,2,1,50,0,0
121553,-90.9090909090909,4,2,1,50,0,0
121898,-111.111111111111,4,2,1,50,0,0
124657,-142.857142857143,4,2,1,50,0,0
127071,-125,4,2,1,50,0,0
130174,-166.666666666667,4,2,1,50,0,0
130864,-125,4,2,1,50,0,0
131553,-83.3333333333333,4,2,1,50,0,0
131898,-83.3333333333333,4,2,1,35,0,0
132415,-66.6666666666667,4,2,1,50,0,0
132933,-111.111111111111,4,2,1,50,0,0
147933,-90.9090909090909,4,2,1,60,0,1
151898,-50,4,2,1,60,0,1
152588,-90.9090909090909,4,2,1,60,0,1
152933,-83.3333333333333,4,2,1,45,0,1
153450,-66.6666666666667,4,2,1,60,0,1
153967,-90.9090909090909,4,2,1,60,0,1
154829,-66.6666666666667,4,2,1,60,0,1
155346,-90.9090909090909,4,2,1,60,0,1
157760,-90.9090909090909,4,2,1,45,0,1
158967,-90.9090909090909,4,2,1,60,0,1
162933,-50,4,2,1,60,0,1
163622,-90.9090909090909,4,2,1,60,0,1
164484,-66.6666666666667,4,2,1,60,0,1
167243,-90.9090909090909,4,2,1,60,0,1
168795,-83.3333333333333,4,2,1,45,0,1
169829,-90.9090909090909,4,2,1,60,0,1
170002,-90.9090909090909,4,2,1,50,0,0
170174,-90.9090909090909,4,2,1,40,0,0
179484,-90.9090909090909,4,2,1,50,0,0
179829,-58.8235294117647,4,2,1,45,0,0
180346,-58.8235294117647,4,2,1,50,0,0
181036,-66.6666666666667,4,2,1,45,0,0
189829,-66.6666666666667,4,2,1,60,0,0
190864,-58.8235294117647,4,2,1,50,0,0
191381,-58.8235294117647,4,2,1,40,0,0
192071,-200,4,2,1,35,0,0
192760,-111.111111111111,4,2,1,35,0,0
194312,-333.333333333333,4,2,1,35,0,0
195519,-111.111111111111,4,2,1,35,0,0
196381,-333.333333333333,4,2,1,35,0,0
197071,-200,4,2,1,40,0,0
197760,-125,4,2,1,50,0,0
198277,-125,4,2,1,50,0,0
198795,-125,4,2,1,35,0,0
199829,-125,4,2,1,40,0,0
200174,-125,4,2,1,45,0,0
200519,-125,4,2,1,50,0,0
200864,-125,4,2,1,55,0,0
201208,-90.9090909090909,4,2,1,50,0,0
202588,-90.9090909090909,4,2,1,35,0,0
203105,-90.9090909090909,4,2,1,40,0,0
203795,-90.9090909090909,4,2,1,40,0,1
204312,-90.9090909090909,4,2,1,60,0,1
207760,-50,4,2,1,60,0,1
208450,-90.9090909090909,4,2,1,60,0,1
208795,-83.3333333333333,4,2,1,45,0,1
209312,-66.6666666666667,4,2,1,60,0,1
209829,-90.9090909090909,4,2,1,60,0,1
210691,-66.6666666666667,4,2,1,60,0,1
211208,-90.9090909090909,4,2,1,60,0,1
213622,-83.3333333333333,4,2,1,45,0,1
214829,-90.9090909090909,4,2,1,60,0,1
218795,-50,4,2,1,60,0,1
219484,-83.3333333333333,4,2,1,60,0,1
220346,-66.6666666666667,4,2,1,60,0,1
223105,-90.9090909090909,4,2,1,60,0,1
224657,-66.6666666666667,4,2,1,45,0,1
225174,-90.9090909090909,4,2,1,45,0,1
225519,-83.3333333333333,4,2,1,35,0,1
226036,-125,4,2,1,50,0,0
227071,-83.3333333333333,4,2,1,50,0,0
228622,-90.9090909090909,4,2,1,50,0,0
233967,-83.3333333333333,4,2,1,35,0,0
234312,-125,4,2,1,50,0,0
240864,-100,4,2,1,50,0,0
241208,-111.111111111111,4,2,1,50,0,0
249829,-100,4,2,1,60,0,0
250691,-100,4,2,1,45,0,0
250864,472.44094488189,4,2,1,50,1,0
250864,-76.9230769230769,4,2,1,50,0,0
251178,-111.111111111111,4,2,1,50,0,0
251484,521.739130434783,4,2,1,50,1,0
251484,-133.333333333333,4,2,1,50,0,0
251842,344.827586206897,4,2,1,30,1,0
251842,-285.714285714286,4,2,1,30,0,0
260462,-285.714285714286,4,2,1,15,0,0

[Colours]
Combo1 : 255,255,0
Combo2 : 94,224,31

[HitObjects]
256,192,519,12,0,2933,0:0:0:0:
78,101,3105,6,0,B|148:107|148:107|162:86,1,94.499997116089
164,92,3450,1,0,0:0:0:0:
177,235,3622,1,0,0:0:0:0:
164,92,3795,2,0,L|169:147,1,48.9999985046387
335,235,4140,5,0,0:0:0:0:
348,92,4312,1,0,0:0:0:0:
335,235,4484,1,0,0:0:0:0:
348,92,4657,2,0,L|343:147,1,48.9999985046387,0|0,0:0|0:0,0:0:0:0:
177,235,5002,5,0,0:0:0:0:
335,235,5174,1,0,0:0:0:0:
256,176,5346,5,0,0:0:0:0:
261,322,5519,1,0,0:0:0:0:
261,322,5605,1,0,0:0:0:0:
261,322,5691,1,0,0:0:0:0:
149,338,5864,6,0,P|101:327|41:344,1,97.9999970092774,0|0,0:0|0:0,0:0:0:0:
130,221,6381,1,0,0:0:0:0:
130,221,6553,2,0,P|177:231|224:220,1,97.9999970092774,0|0,0:0|0:0,0:0:0:0:
363,338,7071,6,0,P|336:283|427:288,1,181.999991668702
420,78,8277,5,0,0:0:0:0:
420,78,8450,1,0,0:0:0:0:
323,47,8622,6,0,B|329:117|329:117|308:131,1,94.499997116089,0|0,0:0|0:0,0:0:0:0:
308,130,8967,1,0,0:0:0:0:
189,47,9140,6,0,L|182:118,1,62.9999980773926,0|0,0:0|0:0,0:0:0:0:
92,78,9484,2,0,L|57:74,2,35,0|0|0,0:0|0:0|0:0,0:0:0:0:
52,228,10002,6,0,P|113:191|181:218,1,125.999996154785
256,280,10519,1,0,0:0:0:0:
126,337,10864,6,0,L|121:275,1,62.9999980773926
385,337,11208,2,0,L|391:275,1,62.9999980773926
256,376,11553,5,2,0:0:0:0:
5,252,13622,5,8,0:0:0:0:
33,249,13708,1,8,0:0:0:0:
53,257,13795,1,8,0:0:0:0:
85,243,13881,1,8,0:0:0:0:
120,266,13967,1,8,0:0:0:0:
158,227,14053,1,8,0:0:0:0:
206,261,14140,1,10,0:0:0:0:
357,217,14312,5,2,0:0:0:0:
347,328,14484,1,2,0:0:0:0:
110,155,15002,5,2,0:0:0:0:
120,266,15174,1,2,0:0:0:0:
463,124,15691,5,2,0:0:0:0:
453,235,15863,1,2,0:0:0:0:
11,71,16208,6,0,B|106:62|106:62|135:19,1,136.499993751526,4|0,0:0|0:0,0:0:0:0:
150,31,16553,1,8,0:0:0:0:
165,32,16640,1,8,0:0:0:0:
181,33,16726,1,8,0:0:0:0:
197,35,16812,1,8,0:0:0:0:
213,36,16898,1,8,0:0:0:0:
444,24,17071,5,2,0:0:0:0:
436,111,17243,1,0,0:0:0:0:
379,235,17415,5,8,0:0:0:0:
364,60,17588,1,0,0:0:0:0:
284,98,17760,5,2,0:0:0:0:
276,185,17932,1,0,0:0:0:0:
370,322,18104,5,0,0:0:0:0:
356,147,18277,1,0,0:0:0:0:
171,296,18450,6,0,P|209:286|253:287,1,62.9999980773926,12|0,0:0|0:0,0:0:0:0:
49,355,18795,2,0,P|80:360|109:371,1,62.9999980773926,12|0,0:0|0:0,0:0:0:0:
59,220,19140,6,0,P|87:206|111:186,1,62.9999980773926,12|0,0:0|0:0,0:0:0:0:
252,129,19484,2,0,P|239:166|237:210,1,62.9999980773926,12|0,0:0|0:0,0:0:0:0:
4,105,19829,5,2,0:0:0:0:
3,89,19916,1,0,0:0:0:0:
2,74,20002,1,0,0:0:0:0:
113,177,20174,1,8,0:0:0:0:
146,30,20346,6,0,L|217:36,1,62.9999980773926,0|2,0:0|0:0,0:0:0:0:
313,44,20691,1,0,0:0:0:0:
146,30,20864,1,8,0:0:0:0:
207,165,21036,6,0,L|279:159,1,62.9999980773926,0|2,0:0|0:0,0:0:0:0:
374,151,21381,1,0,0:0:0:0:
207,165,21553,1,8,0:0:0:0:
278,260,21726,6,0,L|350:266,1,62.9999980773926,0|2,0:0|0:0,0:0:0:0:
445,274,22071,1,8,0:0:0:0:
278,260,22243,1,8,0:0:0:0:
283,357,22415,1,8,0:0:0:0:
447,243,22588,5,6,0:0:0:0:
446,258,22674,1,0,0:0:0:0:
445,274,22761,1,0,0:0:0:0:
360,130,22933,1,8,0:0:0:0:
278,260,23105,6,0,L|206:266,1,62.9999980773926,0|2,0:0|0:0,0:0:0:0:
111,274,23450,1,0,0:0:0:0:
278,260,23622,1,8,0:0:0:0:
154,178,23795,5,8,0:0:0:0:
154,178,23881,1,8,0:0:0:0:
154,178,23967,6,0,P|170:125|222:105,1,90.9999958343508,8|0,0:0|0:0,0:0:0:0:
239,64,24197,2,0,P|269:71|293:90,1,62.9999980773926,8|0,0:0|0:0,0:0:0:0:
349,97,24427,2,0,P|357:112|359:134,1,35,8|0,0:0|0:0,0:0:0:0:
396,214,24657,6,0,B|405:102|405:102|433:153,1,146.999995513916,4|2,0:0|0:0,0:0:0:0:
421,132,25260,1,2,0:0:0:0:
421,132,25346,1,2,0:0:0:0:
382,19,25691,5,2,0:0:0:0:
359,22,26036,1,2,0:0:0:0:
335,24,26381,1,2,0:0:0:0:
205,115,26726,5,2,0:0:0:0:
228,118,27071,1,2,0:0:0:0:
363,164,27415,6,0,P|376:202|377:235,1,62.9999980773926,8|8,0:0|0:0,0:0:0:0:
454,358,27760,2,0,P|457:326|468:297,1,62.9999980773926,8|8,0:0|0:0,0:0:0:0:
311,307,28105,6,0,L|231:313,1,56,6|0,0:0|0:0,0:0:0:0:
143,321,28450,1,8,0:0:0:0:
16,223,28622,6,0,L|47:225,2,28,0|0|2,0:0|0:0|0:0,0:0:0:0:
143,321,29140,6,0,L|131:295,2,28,0|0|2,0:0|0:0|0:0,0:0:0:0:
165,163,29657,6,0,L|146:189,2,28,0|0|2,0:0|0:0|0:0,0:0:0:0:
46,32,30002,5,0,0:0:0:0:
27,120,30174,1,2,0:0:0:0:
113,93,30346,1,0,0:0:0:0:
27,120,30519,1,8,0:0:0:0:
46,32,30691,1,8,0:0:0:0:
258,80,30864,6,0,P|248:118|247:148,1,56,2|0,0:0|0:0,0:0:0:0:
187,23,31208,1,4,0:0:0:0:
404,139,31553,6,0,P|414:177|415:207,1,56,2|0,0:0|0:0,0:0:0:0:
475,82,31897,1,4,0:0:0:0:
291,243,32243,6,0,P|281:281|280:311,1,56,2|0,0:0|0:0,0:0:0:0:
220,186,32587,1,4,0:0:0:0:
402,309,32932,6,0,P|412:347|413:377,1,56,2|0,0:0|0:0,0:0:0:0:
473,252,33276,1,4,0:0:0:0:
260,319,33622,6,0,P|210:296|130:317,1,125.999996154785,2|8,0:0|0:0,0:0:0:0:
28,283,34140,2,0,P|39:312|42:343,1,62.9999980773926,0|2,0:0|0:0,0:0:0:0:
142,308,34484,5,0,0:0:0:0:
106,196,34657,2,0,P|110:163|122:135,1,62.9999980773926,8|0,0:0|0:0,0:0:0:0:
239,151,35002,5,2,0:0:0:0:
194,40,35174,1,0,0:0:0:0:
239,151,35346,5,8,0:0:0:0:
194,40,35518,1,0,0:0:0:0:
312,56,35691,5,2,0:0:0:0:
312,56,35777,1,0,0:0:0:0:
312,56,35864,1,0,0:0:0:0:
512,79,36036,6,0,B|424:86|424:86|410:111,1,115.50000352478,12|0,0:0|0:0,0:0:0:0:
410,109,36381,2,0,P|422:138|425:169,1,62.9999980773926,2|0,0:0|0:0,0:0:0:0:
322,200,36726,2,0,P|309:170|306:139,1,62.9999980773926,8|0,0:0|0:0,0:0:0:0:
452,277,37071,5,8,0:0:0:0:
322,200,37587,5,0,0:0:0:0:
244,276,37760,2,0,P|232:305|229:336,1,62.9999980773926,2|0,0:0|0:0,0:0:0:0:
333,366,38105,2,0,P|346:336|349:305,1,62.9999980773926,8|0,0:0|0:0,0:0:0:0:
143,367,38449,5,8,0:0:0:0:
136,287,38708,1,8,0:0:0:0:
129,207,38967,1,0,0:0:0:0:
267,341,39140,6,0,B|346:347|346:347|379:334,2,112,2|8|0,0:0|0:0|0:0,0:0:0:0:
469,194,40346,6,0,L|473:249,1,56,4|0,0:0|0:0,0:0:0:0:
483,361,40864,1,8,0:0:0:0:
352,272,41036,5,0,0:0:0:0:
290,337,41208,1,2,0:0:0:0:
261,251,41380,1,0,0:0:0:0:
290,337,41553,1,8,0:0:0:0:
352,272,41725,1,0,0:0:0:0:
80,319,41898,6,0,P|70:281|69:251,1,56,2|0,0:0|0:0,0:0:0:0:
9,376,42242,1,4,0:0:0:0:
226,260,42587,6,0,P|236:222|237:192,1,56,2|0,0:0|0:0,0:0:0:0:
297,317,42931,1,0,0:0:0:0:
113,156,43277,6,0,P|103:118|102:88,1,56,2|0,0:0|0:0,0:0:0:0:
42,213,43621,1,4,0:0:0:0:
224,90,43966,6,0,P|234:52|235:22,1,56,2|0,0:0|0:0,0:0:0:0:
295,147,44310,1,0,0:0:0:0:
317,24,44657,6,0,P|361:33|408:22,1,83.9999974365235,2|8,0:0|0:0,0:0:0:0:
512,121,45346,6,0,P|441:107|394:131,1,112,2|8,0:0|0:0,0:0:0:0:
219,214,46036,6,0,P|293:222|295:148,1,167.999994873047,6|8,0:0|0:0,0:0:0:0:
143,22,46553,5,0,0:0:0:0:
140,53,46640,1,0,0:0:0:0:
137,85,46726,1,2,0:0:0:0:
32,170,46898,5,0,0:0:0:0:
33,186,47070,1,8,0:0:0:0:
35,201,47243,1,0,0:0:0:0:
166,336,47415,6,0,P|116:359|36:338,1,125.999996154785,2|8,0:0|0:0,0:0:0:0:
99,260,47933,1,0,0:0:0:0:
246,272,48105,6,0,P|260:299|267:330,1,62.9999980773926,2|0,0:0|0:0,0:0:0:0:
324,222,48450,2,0,P|331:191|347:164,1,62.9999980773926,8|0,0:0|0:0,0:0:0:0:
437,251,48795,5,2,0:0:0:0:
512,313,48967,1,0,0:0:0:0:
421,348,49140,1,8,0:0:0:0:
485,146,49312,6,0,L|423:141,1,62.9999980773926,0|2,0:0|0:0,0:0:0:0:
223,123,49657,5,8,0:0:0:0:
213,19,49829,1,8,0:0:0:0:
308,62,50002,2,0,P|339:61|369:52,1,62.9999980773926,0|0,0:0|0:0,0:0:0:0:
232,228,50346,5,8,0:0:0:0:
223,123,50518,1,8,0:0:0:0:
137,182,50691,2,0,P|105:187|74:183,1,62.9999980773926,0|0,0:0|0:0,0:0:0:0:
242,333,51036,5,8,0:0:0:0:
232,228,51208,1,8,0:0:0:0:
327,271,51381,2,0,P|358:270|388:261,1,62.9999980773926,2|0,0:0|0:0,0:0:0:0:
512,346,51726,2,0,P|485:328|455:319,1,62.9999980773926,2|0,0:0|0:0,0:0:0:0:
353,373,52071,1,2,0:0:0:0:
512,230,52415,5,0,0:0:0:0:
512,230,52502,1,0,0:0:0:0:
512,230,52588,1,4,0:0:0:0:
345,193,52933,6,0,P|293:228|231:227,1,125.999996154785,2|8,0:0|0:0,0:0:0:0:
133,198,53451,1,0,0:0:0:0:
185,70,53622,6,0,P|200:97|207:127,1,62.9999980773926,2|0,0:0|0:0,0:0:0:0:
49,89,53967,2,0,P|56:58|71:31,1,62.9999980773926,8|0,0:0|0:0,0:0:0:0:
133,198,54312,6,0,P|129:260|95:312,2,125.999996154785,2|8|2,0:0|0:0|0:0,0:0:0:0:
241,356,55346,2,0,P|222:330|211:301,1,62.9999980773926,8|0,0:0|0:0,0:0:0:0:
426,275,55691,6,0,B|330:266|330:266|310:288,1,125.999996154785,2|8,0:0|0:0,0:0:0:0:
251,168,56208,2,0,P|275:147|303:133,1,62.9999980773926,0|2,0:0|0:0,0:0:0:0:
179,276,56553,2,0,P|153:258|123:247,1,62.9999980773926,0|8,0:0|0:0,0:0:0:0:
17,327,56898,1,4,0:0:0:0:
116,111,57243,5,0,0:0:0:0:
108,198,57415,1,0,0:0:0:0:
36,147,57588,2,0,L|30:84,1,62.9999980773926,2|0,0:0|0:0,0:0:0:0:
200,45,57933,6,0,P|170:35|144:18,2,62.9999980773926,2|0|2,0:0|0:0|0:0,0:0:0:0:
403,21,58450,1,12,0:0:0:0:
207,132,59140,5,2,0:0:0:0:
200,45,59312,1,2,0:0:0:0:
485,114,59829,5,8,0:0:0:0:
309,182,60174,6,0,P|308:157|324:118,1,62.9999980773926,2|0,0:0|0:0,0:0:0:0:
294,284,60519,2,0,P|295:259|279:220,1,62.9999980773926,2|0,0:0|0:0,0:0:0:0:
132,168,60864,1,12,0:0:0:0:
309,182,61208,5,2,0:0:0:0:
396,174,61381,1,2,0:0:0:0:
386,321,61553,5,2,0:0:0:0:
170,302,61726,1,8,0:0:0:0:
310,371,62071,5,0,0:0:0:0:
310,371,62157,1,0,0:0:0:0:
310,371,62243,1,2,0:0:0:0:
297,242,62588,5,2,0:0:0:0:
290,155,62933,1,2,0:0:0:0:
283,68,63277,5,8,0:0:0:0:
310,371,63450,1,8,0:0:0:0:
44,310,63795,6,0,B|131:317|131:317|152:351,1,115.50000352478,6|0,0:0|0:0,0:0:0:0:
146,340,64140,1,2,0:0:0:0:
297,242,64312,1,8,0:0:0:0:
136,160,64484,2,0,P|137:122|153:87,1,77.0000023498536,0|2,0:0|0:0,0:0:0:0:
389,176,64829,5,0,0:0:0:0:
286,27,65002,1,8,0:0:0:0:
199,223,65174,1,0,0:0:0:0:
131,31,65346,2,0,P|96:15|57:12,1,77.0000023498536,6|0,0:0|0:0,0:0:0:0:
36,192,65691,5,8,0:0:0:0:
131,31,65864,1,0,0:0:0:0:
199,223,66036,1,2,0:0:0:0:
286,27,66208,2,0,P|321:11|359:8,1,77.0000023498536,0|8,0:0|0:0,0:0:0:0:
512,176,66553,2,0,L|505:252,1,77.0000023498536,4|2,0:0|0:0,0:0:0:0:
349,111,66898,5,0,0:0:0:0:
433,102,67071,1,8,0:0:0:0:
414,363,67243,2,0,L|407:286,1,77.0000023498536,0|2,0:0|0:0,0:0:0:0:
398,179,67588,1,0,0:0:0:0:
318,348,67760,6,0,B|270:319|219:349|219:349|159:381|88:333,1,210,8|0,0:0|0:0,0:0:0:0:
117,349,68105,1,6,0:0:0:0:
8,195,68277,1,0,0:0:0:0:
196,177,68450,2,0,P|189:215|167:246,1,77.0000023498536,8|0,0:0|0:0,0:0:0:0:
35,52,68795,5,8,0:0:0:0:
59,75,68882,1,8,0:0:0:0:
90,86,68968,1,8,0:0:0:0:
123,86,69054,1,8,0:0:0:0:
154,73,69140,1,8,0:0:0:0:
178,51,69226,1,8,0:0:0:0:
188,25,69312,6,0,B|308:15|308:15|288:73,1,157.500006008148,6|0,0:0|0:0,0:0:0:0:
295,50,69657,1,0,0:0:0:0:
475,119,69829,2,0,P|471:80|455:46,1,77.0000023498536,8|0,0:0|0:0,0:0:0:0:
351,147,70174,5,2,0:0:0:0:
437,241,70346,1,0,0:0:0:0:
475,119,70519,1,8,0:0:0:0:
313,269,70691,6,0,B|193:259|193:259|213:317,1,157.500006008148,4|0,0:0|0:0,0:0:0:0:
205,294,71036,1,2,0:0:0:0:
257,115,71208,2,0,P|248:77|227:45,1,77.0000023498536,8|0,0:0|0:0,0:0:0:0:
119,7,71553,1,2,0:0:0:0:
21,126,71726,6,0,B|108:117|108:117|135:147,1,115.50000352478,0|0,0:0|0:0,0:0:0:0:
127,137,72071,1,0,0:0:0:0:
2,308,72243,5,8,0:0:0:0:
205,219,72415,1,0,0:0:0:0:
76,343,72588,5,8,0:0:0:0:
205,219,72760,1,0,0:0:0:0:
162,329,72933,5,8,0:0:0:0:
205,219,73105,1,0,0:0:0:0:
242,297,73277,5,12,0:0:0:0:
205,219,73450,1,0,0:0:0:0:
50,104,73622,5,8,0:0:0:0:
79,114,73708,1,8,0:0:0:0:
114,94,73795,1,8,0:0:0:0:
153,110,73881,1,8,0:0:0:0:
197,84,73967,1,8,0:0:0:0:
239,111,74053,1,8,0:0:0:0:
296,84,74140,2,0,L|343:88,1,38.5000011749268,12|0,0:0|0:0,0:0:0:0:
499,193,74485,5,8,0:0:0:0:
470,218,74571,1,8,0:0:0:0:
461,255,74657,1,8,0:0:0:0:
474,291,74743,1,8,0:0:0:0:
503,314,74829,6,0,B|416:305|416:305|389:335,1,115.50000352478,6|0,0:0|0:0,0:0:0:0:
397,325,75174,1,2,0:0:0:0:
354,162,75346,1,8,0:0:0:0:
235,281,75518,2,0,P|196:283|160:270,1,77.0000023498536,0|2,0:0|0:0,0:0:0:0:
6,77,75864,5,0,0:0:0:0:
43,283,76036,1,8,0:0:0:0:
87,33,76208,1,0,0:0:0:0:
43,283,76381,2,0,P|50:320|71:352,1,77.0000023498536,6|0,0:0|0:0,0:0:0:0:
235,281,76726,5,8,0:0:0:0:
182,78,76898,1,0,0:0:0:0:
148,334,77070,1,2,0:0:0:0:
182,78,77243,2,0,P|212:56|250:47,1,77.0000023498536,0|8,0:0|0:0,0:0:0:0:
157,246,77588,2,4,L|81:239,1,77.0000023498536,4|2,0:0|0:0,0:0:0:0:
226,197,77933,5,0,0:0:0:0:
235,281,78106,1,8,0:0:0:0:
488,248,78277,2,0,L|411:241,1,77.0000023498536,0|2,0:0|0:0,0:0:0:0:
304,232,78622,1,0,0:0:0:0:
409,40,78795,6,0,B|380:88|410:139|410:139|442:199|394:270,1,210,8|0,0:0|0:0,0:0:0:0:
410,241,79140,1,4,0:0:0:0:
270,353,79312,1,0,0:0:0:0:
243,175,79485,2,0,P|257:139|286:114,1,77.0000023498536,8|0,0:0|0:0,0:0:0:0:
190,284,79829,5,6,0:0:0:0:
16,239,80001,1,0,0:0:0:0:
243,175,80174,1,8,0:0:0:0:
145,357,80346,6,0,B|113:337|113:337|102:217,1,157.500006008148,6|0,0:0|0:0,0:0:0:0:
95,114,80691,2,0,P|16:129|6:59,1,157.500006008148,2|0,0:0|0:0,0:0:0:0:
138,9,81036,2,0,B|257:19|257:19|213:63,1,157.500006008148,2|0,0:0|0:0,0:0:0:0:
269,173,81381,2,0,P|184:137|225:231,1,210.000008010865,2|2,0:0|0:0,0:0:0:0:
184,221,81812,1,2,0:0:0:0:
184,221,81898,1,6,0:0:0:0:
323,340,82071,5,0,0:0:0:0:
330,252,82243,1,8,0:0:0:0:
456,130,82415,5,0,0:0:0:0:
471,305,82588,1,2,0:0:0:0:
293,174,82760,5,0,0:0:0:0:
380,181,82932,1,8,0:0:0:0:
453,27,83105,6,0,P|374:57|285:30,1,154.000004699707,4|0,0:0|0:0,0:0:0:0:
206,167,83622,1,8,0:0:0:0:
99,72,83795,2,0,P|165:70|149:5,1,154.000004699707,4|0,0:0|0:0,0:0:0:0:
19,177,84312,5,2,0:0:0:0:
0,29,84484,1,2,0:0:0:0:
137,86,84657,5,8,0:0:0:0:
130,113,84743,1,8,0:0:0:0:
140,132,84829,1,8,0:0:0:0:
124,155,84915,1,8,0:0:0:0:
136,196,85002,1,8,0:0:0:0:
101,226,85088,1,8,0:0:0:0:
115,275,85174,2,0,L|119:322,1,38.5000011749268,12|0,0:0|0:0,0:0:0:0:
202,276,85519,5,8,0:0:0:0:
230,272,85605,1,8,0:0:0:0:
256,282,85691,1,8,0:0:0:0:
273,304,85777,1,8,0:0:0:0:
277,331,85863,1,8,0:0:0:0:
268,357,85950,1,8,0:0:0:0:
246,375,86036,6,0,L|190:370,1,56,6|0,0:0|0:0,0:0:0:0:
340,252,86381,2,0,L|395:247,1,56,8|0,0:0|0:0,0:0:0:0:
512,381,86726,2,0,L|457:376,1,56,2|0,0:0|0:0,0:0:0:0:
347,164,87071,6,0,B|357:44|357:44|392:7,1,167.999994873047,12|2,0:0|0:0,0:0:0:0:
390,9,87502,1,0,0:0:0:0:
390,9,87588,1,0,0:0:0:0:
347,164,87760,5,8,0:0:0:0:
163,96,87933,1,0,0:0:0:0:
347,164,88105,5,8,0:0:0:0:
189,176,88278,1,0,0:0:0:0:
219,27,88450,5,8,0:0:0:0:
215,256,88622,6,0,B|128:265|128:265|101:235,1,115.50000352478,6|0,0:0|0:0,0:0:0:0:
109,245,88967,1,2,0:0:0:0:
279,107,89140,5,8,0:0:0:0:
272,194,89312,1,0,0:0:0:0:
38,293,89484,5,2,0:0:0:0:
31,206,89656,1,0,0:0:0:0:
126,46,89829,5,8,0:0:0:0:
109,245,90002,1,0,0:0:0:0:
279,107,90174,5,2,0:0:0:0:
192,114,90346,1,0,0:0:0:0:
38,293,90519,5,8,0:0:0:0:
31,206,90691,1,8,0:0:0:0:
109,245,90864,1,12,0:0:0:0:
27,69,91036,5,0,0:0:0:0:
27,69,91122,1,0,0:0:0:0:
27,69,91208,1,2,0:0:0:0:
229,35,91381,6,0,L|152:28,1,77.0000023498536,4|8,0:0|0:0,0:0:0:0:
279,107,91726,1,0,0:0:0:0:
192,114,91898,1,8,0:0:0:0:
415,153,92071,6,0,L|491:146,1,77.0000023498536,4|8,0:0|0:0,0:0:0:0:
365,225,92416,1,0,0:0:0:0:
452,232,92588,1,8,0:0:0:0:
261,291,92760,6,0,L|184:284,1,77.0000023498536,4|8,0:0|0:0,0:0:0:0:
311,363,93105,1,0,0:0:0:0:
224,370,93277,1,8,0:0:0:0:
304,148,93450,6,0,P|294:111|269:82,1,77.0000023498536,4|8,0:0|0:0,0:0:0:0:
157,98,93795,1,0,0:0:0:0:
43,39,93967,5,8,0:0:0:0:
40,62,94053,1,8,0:0:0:0:
38,86,94140,1,8,0:0:0:0:
36,110,94226,1,8,0:0:0:0:
34,134,94312,6,0,L|28:197,1,56,6|0,0:0|0:0,0:0:0:0:
168,240,94657,2,0,L|162:176,1,56,8|0,0:0|0:0,0:0:0:0:
16,307,95002,5,2,0:0:0:0:
95,313,95174,1,0,0:0:0:0:
175,320,95346,1,8,0:0:0:0:
266,104,95519,5,0,0:0:0:0:
266,104,95605,1,0,0:0:0:0:
266,104,95691,2,0,L|259:175,1,56,2|0,0:0|0:0,0:0:0:0:
374,259,96036,2,0,L|369:203,1,56,8|0,0:0|0:0,0:0:0:0:
482,104,96381,2,0,L|477:159,1,56,2|0,0:0|0:0,0:0:0:0:
212,27,96726,1,12,0:0:0:0:
305,18,97071,5,2,0:0:0:0:
398,9,98450,5,2,0:0:0:0:
212,27,98967,2,0,L|180:29,2,28,8|0|2,0:0|0:0|0:0,0:0:0:0:
143,207,99657,6,0,L|138:151,1,35,8|0,0:0|0:0,0:0:0:0:
133,95,99829,5,6,0:0:0:0:
25,84,100002,1,0,0:0:0:0:
49,337,100174,5,8,0:0:0:0:
34,169,100346,1,0,0:0:0:0:
243,163,100519,5,2,0:0:0:0:
232,271,100692,1,0,0:0:0:0:
133,95,100864,5,8,0:0:0:0:
301,80,101036,1,0,0:0:0:0:
340,282,101208,5,2,0:0:0:0:
232,271,101381,1,0,0:0:0:0:
469,65,101553,5,8,0:0:0:0:
484,233,101725,1,0,0:0:0:0:
290,188,101898,5,2,0:0:0:0:
301,80,102071,1,2,0:0:0:0:
105,62,102243,2,0,L|167:67,1,62.9999980773926,8|8,0:0|0:0,0:0:0:0:
512,20,102588,5,6,0:0:0:0:
404,31,102761,1,0,0:0:0:0:
453,288,102933,5,8,0:0:0:0:
468,120,103105,1,0,0:0:0:0:
296,42,103277,5,2,0:0:0:0:
307,150,103450,1,0,0:0:0:0:
150,243,103622,5,8,0:0:0:0:
318,258,103794,1,0,0:0:0:0:
174,69,103967,6,0,P|158:32|154:-11,1,62.9999980773926,12|0,0:0|0:0,0:0:0:0:
8,149,104312,2,0,P|17:118|19:87,1,62.9999980773926,12|0,0:0|0:0,0:0:0:0:
236,214,104657,2,0,P|220:177|216:133,1,62.9999980773926,12|0,0:0|0:0,0:0:0:0:
25,315,105002,2,0,P|34:284|36:253,1,62.9999980773926,12|0,0:0|0:0,0:0:0:0:
143,348,105346,5,2,0:0:0:0:
142,363,105432,1,0,0:0:0:0:
141,379,105519,1,0,0:0:0:0:
149,222,105691,1,8,0:0:0:0:
274,306,105863,6,0,L|268:235,1,62.9999980773926,0|2,0:0|0:0,0:0:0:0:
260,139,106208,1,0,0:0:0:0:
274,306,106381,1,8,0:0:0:0:
372,348,106553,6,0,L|378:277,1,62.9999980773926,0|2,0:0|0:0,0:0:0:0:
386,181,106898,1,0,0:0:0:0:
372,348,107071,1,8,0:0:0:0:
497,297,107243,6,0,L|491:226,1,62.9999980773926,0|2,0:0|0:0,0:0:0:0:
483,130,107588,1,8,0:0:0:0:
497,297,107761,1,8,0:0:0:0:
504,384,107932,1,8,0:0:0:0:
274,306,108105,5,6,0:0:0:0:
272,320,108191,1,0,0:0:0:0:
271,336,108278,1,0,0:0:0:0:
285,170,108450,1,8,0:0:0:0:
162,229,108622,6,0,L|156:157,1,62.9999980773926,0|2,0:0|0:0,0:0:0:0:
148,62,108967,1,0,0:0:0:0:
29,30,109139,5,8,0:0:0:0:
27,45,109226,1,8,0:0:0:0:
26,61,109312,1,8,0:0:0:0:
24,77,109398,1,8,0:0:0:0:
23,93,109484,6,0,P|43:144|14:192,1,90.9999958343508,8|0,0:0|0:0,0:0:0:0:
16,195,109714,2,0,P|8:224|13:254,1,62.9999980773926,8|0,0:0|0:0,0:0:0:0:
28,296,109944,2,0,P|36:311|38:333,1,35,8|0,0:0|0:0,0:0:0:0:
42,358,110174,6,0,B|153:347|153:347|108:383,1,146.999995513916,12|2,0:0|0:0,0:0:0:0:
127,368,110777,1,2,0:0:0:0:
127,368,110863,1,2,0:0:0:0:
307,46,113277,5,8,0:0:0:0:
307,46,113622,6,0,L|387:52,1,56,6|0,0:0|0:0,0:0:0:0:
475,60,113967,1,8,0:0:0:0:
379,199,114139,6,0,L|370:228,2,28,0|0|2,0:0|0:0|0:0,0:0:0:0:
430,350,114657,6,0,L|409:330,2,28,0|0|2,0:0|0:0|0:0,0:0:0:0:
273,320,115174,6,0,L|303:310,2,28,0|0|2,0:0|0:0|0:0,0:0:0:0:
118,311,115519,5,0,0:0:0:0:
53,372,115691,1,2,0:0:0:0:
31,284,115863,1,0,0:0:0:0:
53,372,116036,1,8,0:0:0:0:
118,311,116208,1,8,0:0:0:0:
73,78,116381,6,0,P|76:50|85:24,1,56,2|0,0:0|0:0,0:0:0:0:
149,169,116725,1,4,0:0:0:0:
240,94,117071,6,0,P|267:97|294:105,1,56,2|0,0:0|0:0,0:0:0:0:
149,169,117415,1,4,0:0:0:0:
224,260,117760,6,0,P|220:287|212:314,1,56,2|0,0:0|0:0,0:0:0:0:
149,169,118104,1,4,0:0:0:0:
58,244,118450,6,0,P|30:240|3:232,1,56,2|0,0:0|0:0,0:0:0:0:
149,169,118794,1,4,0:0:0:0:
218,38,119140,6,0,P|268:61|348:40,1,125.999996154785,2|8,0:0|0:0,0:0:0:0:
468,38,119657,2,0,P|457:67|454:98,1,62.9999980773926,0|2,0:0|0:0,0:0:0:0:
469,226,120001,5,0,0:0:0:0:
351,176,120174,2,0,P|318:170|287:174,1,62.9999980773926,8|0,0:0|0:0,0:0:0:0:
180,44,120519,5,2,0:0:0:0:
163,161,120691,1,0,0:0:0:0:
180,44,120863,5,8,0:0:0:0:
163,161,121035,1,0,0:0:0:0:
17,37,121208,5,2,0:0:0:0:
17,37,121294,1,0,0:0:0:0:
17,37,121381,1,0,0:0:0:0:
46,144,121553,6,0,B|37:231|37:231|59:250,1,115.50000352478,12|0,0:0|0:0,0:0:0:0:
58,249,121898,2,0,P|88:242|119:244,1,62.9999980773926,2|0,0:0|0:0,0:0:0:0:
132,352,122243,2,0,P|100:359|69:357,1,62.9999980773926,8|0,0:0|0:0,0:0:0:0:
210,245,122588,5,8,0:0:0:0:
313,208,123105,5,0,0:0:0:0:
294,315,123278,2,0,P|301:345|317:372,1,62.9999980773926,2|0,0:0|0:0,0:0:0:0:
419,335,123623,2,0,P|411:303|396:276,1,62.9999980773926,8|0,0:0|0:0,0:0:0:0:
210,245,123967,6,0,L|204:307,1,62.9999980773926,2|0,0:0|0:0,0:0:0:0:
65,345,124312,5,8,0:0:0:0:
50,170,124484,1,8,0:0:0:0:
140,37,124657,6,0,P|166:46|191:45,1,48.9999985046387,2|0,0:0|0:0,0:0:0:0:
320,29,125002,5,8,0:0:0:0:
320,29,125088,1,0,0:0:0:0:
320,29,125174,1,0,0:0:0:0:
140,37,125346,6,0,P|162:52|187:57,1,48.9999985046387,2|0,0:0|0:0,0:0:0:0:
315,75,125691,5,8,0:0:0:0:
315,75,125777,1,0,0:0:0:0:
315,75,125863,1,0,0:0:0:0:
140,37,126036,6,0,P|158:57|180:69,1,48.9999985046387,2|8,0:0|0:0,0:0:0:0:
299,118,126381,5,8,0:0:0:0:
299,118,126467,1,0,0:0:0:0:
299,118,126553,1,8,0:0:0:0:
194,199,126726,5,2,0:0:0:0:
151,300,126898,1,2,0:0:0:0:
86,213,127071,2,0,L|92:141,1,56,8|0,0:0|0:0,0:0:0:0:
291,323,127415,6,0,P|294:351|303:377,1,56,2|0,0:0|0:0,0:0:0:0:
367,232,127759,1,4,0:0:0:0:
458,307,128105,6,0,P|485:304|512:296,1,56,2|0,0:0|0:0,0:0:0:0:
367,232,128449,1,4,0:0:0:0:
442,141,128794,6,0,P|438:114|430:87,1,56,2|0,0:0|0:0,0:0:0:0:
367,232,129138,1,4,0:0:0:0:
276,157,129484,6,0,P|248:161|221:169,1,56,2|0,0:0|0:0,0:0:0:0:
367,232,129828,1,4,0:0:0:0:
282,345,130174,6,0,P|243:328|201:327,1,83.9999974365235,2|8,0:0|0:0,0:0:0:0:
22,318,130864,6,0,P|76:309|117:271,1,112,2|8,0:0|0:0,0:0:0:0:
262,155,131553,6,0,P|216:159|168:121,1,83.9999974365235,6|0,0:0|0:0,0:0:0:0:
45,84,131898,5,8,0:0:0:0:
43,99,131984,1,8,0:0:0:0:
42,115,132071,1,8,0:0:0:0:
40,131,132157,1,8,0:0:0:0:
39,147,132243,1,8,0:0:0:0:
119,302,132415,5,0,0:0:0:0:
118,286,132587,1,8,0:0:0:0:
116,271,132760,1,0,0:0:0:0:
183,141,132933,6,0,P|156:85|166:23,1,125.999996154785,2|8,0:0|0:0,0:0:0:0:
256,71,133450,1,0,0:0:0:0:
281,171,133622,6,0,P|274:201|259:229,1,62.9999980773926,2|0,0:0|0:0,0:0:0:0:
334,298,133967,2,0,P|340:328|355:356,1,62.9999980773926,8|0,0:0|0:0,0:0:0:0:
511,222,134312,5,2,0:0:0:0:
418,189,134485,1,0,0:0:0:0:
491,124,134657,1,8,0:0:0:0:
415,11,134829,6,0,L|353:6,1,62.9999980773926,0|2,0:0|0:0,0:0:0:0:
221,166,135174,5,8,0:0:0:0:
325,156,135346,1,8,0:0:0:0:
282,251,135519,2,0,P|283:282|292:312,1,62.9999980773926,0|0,0:0|0:0,0:0:0:0:
117,175,135864,5,8,0:0:0:0:
221,166,136036,1,8,0:0:0:0:
162,80,136209,2,0,P|157:49|161:18,1,62.9999980773926,0|0,0:0|0:0,0:0:0:0:
13,185,136553,5,8,2:0:0:0:
117,175,136725,1,8,2:0:0:0:
74,270,136898,2,0,P|75:301|84:331,1,62.9999980773926,2|0,2:0|2:0,0:0:0:0:
201,288,137243,2,0,P|200:319|191:349,1,62.9999980773926,2|0,2:0|2:0,0:0:0:0:
303,350,137588,1,2,0:0:0:0:
305,230,137933,5,0,0:0:0:0:
305,230,138019,1,0,0:0:0:0:
305,230,138105,1,4,0:0:0:0:
459,357,138450,6,0,P|493:305|492:243,1,125.999996154785,2|8,0:0|0:0,0:0:0:0:
419,154,138968,1,0,0:0:0:0:
458,48,139139,6,0,P|479:25|505:9,1,62.9999980773926,2|0,0:0|0:0,0:0:0:0:
347,68,139484,2,0,P|318:55|286:52,1,62.9999980773926,8|0,0:0|0:0,0:0:0:0:
76,40,139829,6,0,P|137:46|195:22,2,125.999996154785,2|8|2,0:0|0:0|0:0,0:0:0:0:
134,140,140863,2,0,P|122:169|104:194,1,62.9999980773926,8|0,0:0|0:0,0:0:0:0:
7,256,141208,6,0,B|-2:160|-2:160|20:140,1,125.999996154785,2|8,0:0|0:0,0:0:0:0:
17,15,141725,2,0,P|45:30|75:37,1,62.9999980773926,0|2,0:0|0:0,0:0:0:0:
190,113,142071,2,0,P|163:130|134:140,1,62.9999980773926,0|8,0:0|0:0,0:0:0:0:
286,17,142415,1,4,0:0:0:0:
419,119,142760,5,0,0:0:0:0:
427,206,142932,1,0,0:0:0:0:
499,155,143105,2,0,L|505:92,1,62.9999980773926,2|0,0:0|0:0,0:0:0:0:
290,143,143450,6,0,P|320:152|346:168,2,62.9999980773926,2|2|2,0:0|0:0|0:0,0:0:0:0:
126,193,143967,1,12,0:0:0:0:
500,330,144657,5,2,0:0:0:0:
507,243,144829,1,2,0:0:0:0:
340,73,145346,5,8,0:0:0:0:
113,283,145691,6,0,P|92:269|50:262,1,62.9999980773926,2|0,0:0|0:0,0:0:0:0:
201,268,146036,2,0,P|229:281|260:283,1,62.9999980773926,2|0,0:0|0:0,0:0:0:0:
2,331,146381,1,12,0:0:0:0:
8,34,146726,5,2,0:0:0:0:
20,183,146898,1,2,0:0:0:0:
55,261,147071,5,2,0:0:0:0:
68,112,147243,1,2,0:0:0:0:
106,22,147415,5,8,0:0:0:0:
125,328,147588,1,8,0:0:0:0:
208,70,147933,6,0,B|294:78|294:78|321:48,1,115.50000352478,6|0,0:0|0:0,0:0:0:0:
313,56,148278,1,2,0:0:0:0:
445,202,148450,1,8,0:0:0:0:
506,15,148622,2,0,P|467:15|432:30,1,77.0000023498536,0|2,0:0|0:0,0:0:0:0:
302,195,148967,5,0,0:0:0:0:
94,166,149140,1,8,0:0:0:0:
302,195,149312,1,0,0:0:0:0:
50,239,149484,2,0,P|50:277|66:312,1,77.0000023498536,6|0,0:0|0:0,0:0:0:0:
253,93,149829,5,8,0:0:0:0:
220,312,150002,1,0,0:0:0:0:
253,93,150174,1,2,0:0:0:0:
304,348,150346,2,0,P|342:346|377:330,1,77.0000023498536,0|8,0:0|0:0,0:0:0:0:
396,163,150691,2,0,L|320:156,1,77.0000023498536,4|2,0:0|0:0,0:0:0:0:
220,312,151036,5,0,0:0:0:0:
211,228,151209,1,8,0:0:0:0:
66,284,151381,2,0,L|143:277,1,77.0000023498536,0|2,0:0|0:0,0:0:0:0:
363,257,151726,1,0,0:0:0:0:
263,101,151898,6,0,B|311:130|362:100|362:100|422:68|493:116,1,210,8|0,0:0|0:0,0:0:0:0:
463,99,152243,1,6,0:0:0:0:
301,7,152415,1,0,0:0:0:0:
303,194,152588,2,0,P|266:205|228:201,1,77.0000023498536,8|0,0:0|0:0,0:0:0:0:
20,38,152933,5,8,0:0:0:0:
31,69,153019,1,8,0:0:0:0:
28,102,153105,1,8,0:0:0:0:
12,131,153191,1,8,0:0:0:0:
1,163,153277,1,8,0:0:0:0:
5,196,153364,1,8,0:0:0:0:
18,221,153450,6,0,B|8:341|8:341|66:321,1,157.500006008148,6|0,0:0|0:0,0:0:0:0:
43,328,153795,1,0,0:0:0:0:
262,332,153967,1,8,0:0:0:0:
157,140,154140,2,0,P|119:147|88:170,1,77.0000023498536,0|2,0:0|0:0,0:0:0:0:
183,371,154484,5,0,0:0:0:0:
242,140,154657,1,8,0:0:0:0:
455,350,154829,6,0,B|335:340|335:340|364:286,1,157.500006008148,4|0,0:0|0:0,0:0:0:0:
352,308,155174,1,2,0:0:0:0:
440,187,155346,2,0,P|448:149|442:111,1,77.0000023498536,8|0,0:0|0:0,0:0:0:0:
253,21,155691,5,2,0:0:0:0:
242,140,155864,1,0,0:0:0:0:
91,36,156036,2,0,P|52:34|16:46,1,77.0000023498536,12|0,0:0|0:0,0:0:0:0:
72,164,156381,5,8,0:0:0:0:
81,259,156553,1,0,0:0:0:0:
175,355,156726,5,8,0:0:0:0:
189,206,156898,1,0,0:0:0:0:
289,141,157071,5,12,0:0:0:0:
309,356,157243,1,0,0:0:0:0:
486,232,157415,2,0,P|498:195|498:157,1,77.0000023498536,12|0,0:0|0:0,0:0:0:0:
386,5,157760,5,8,0:0:0:0:
392,45,157846,1,8,0:0:0:0:
382,75,157933,1,8,0:0:0:0:
400,111,158019,1,8,0:0:0:0:
379,156,158105,1,8,0:0:0:0:
410,206,158191,1,8,0:0:0:0:
388,251,158278,2,0,L|396:297,1,38.5000011749268,12|0,0:0|0:0,0:0:0:0:
295,315,158623,5,8,0:0:0:0:
263,294,158709,1,8,0:0:0:0:
224,295,158795,1,8,0:0:0:0:
193,319,158881,1,8,0:0:0:0:
180,352,158967,6,0,B|92:343|92:343|65:373,1,115.50000352478,6|0,0:0|0:0,0:0:0:0:
74,363,159312,1,0,0:0:0:0:
10,200,159484,1,8,0:0:0:0:
183,227,159657,2,0,P|212:201|232:169,1,77.0000023498536,0|2,0:0|0:0,0:0:0:0:
132,0,160002,5,0,0:0:0:0:
79,257,160174,1,8,0:0:0:0:
1,62,160346,1,0,0:0:0:0:
183,227,160519,2,0,P|212:201|232:169,1,77.0000023498536,6|0,0:0|0:0,0:0:0:0:
441,50,160864,5,8,0:0:0:0:
223,31,161036,1,0,0:0:0:0:
277,259,161208,1,2,0:0:0:0:
316,9,161381,2,0,P|303:45|302:83,1,77.0000023498536,0|8,0:0|0:0,0:0:0:0:
423,218,161726,2,0,L|499:211,1,77.0000023498536,4|2,0:0|0:0,0:0:0:0:
432,134,162071,5,0,0:0:0:0:
441,50,162244,1,8,0:0:0:0:
353,265,162415,2,0,L|276:258,1,77.0000023498536,0|2,0:0|0:0,0:0:0:0:
149,245,162760,1,0,0:0:0:0:
52,352,162933,6,0,B|72:299|33:254|33:254|-8:201|26:122,1,210,8|0,0:0|0:0,0:0:0:0:
16,155,163277,1,6,0:0:0:0:
198,175,163449,1,0,0:0:0:0:
125,8,163622,2,0,P|86:8|53:25,1,77.0000023498536,8|0,0:0|0:0,0:0:0:0:
294,30,163967,5,6,0:0:0:0:
108,90,164140,1,0,0:0:0:0:
362,122,164311,1,8,0:0:0:0:
108,90,164484,6,0,P|76:110|76:223,1,157.500006008148,6|0,0:0|0:0,0:0:0:0:
15,310,164829,2,0,B|134:301|134:301|104:327,1,157.500006008148,2|0,0:0|0:0,0:0:0:0:
208,370,165174,2,0,B|327:378|327:378|297:352,1,157.500006008148,2|0,0:0|0:0,0:0:0:0:
370,204,165519,2,0,P|285:168|326:262,1,210.000008010865,2|2,0:0|0:0,0:0:0:0:
286,252,165950,1,2,0:0:0:0:
286,252,166036,1,6,0:0:0:0:
474,369,166208,5,0,0:0:0:0:
481,281,166380,1,8,0:0:0:0:
363,117,166553,5,0,0:0:0:0:
378,292,166726,1,2,0:0:0:0:
194,242,166898,5,0,0:0:0:0:
201,155,167070,1,8,0:0:0:0:
66,39,167243,6,0,P|138:53|194:4,1,154.000004699707,4|0,0:0|0:0,0:0:0:0:
201,155,167760,1,8,0:0:0:0:
24,124,167933,2,0,B|-5:86|-5:86|5:206,1,154.000004699707,4|0,0:0|0:0,0:0:0:0:
98,384,168450,5,2,0:0:0:0:
111,235,168622,1,2,0:0:0:0:
233,324,168795,5,10,0:0:0:0:
256,315,168881,1,8,0:0:0:0:
281,316,168967,1,8,0:0:0:0:
302,326,169053,1,8,0:0:0:0:
319,345,169140,1,10,0:0:0:0:
321,321,169226,1,8,0:0:0:0:
323,297,169312,1,8,0:0:0:0:
325,273,169398,1,8,0:0:0:0:
349,247,169484,1,10,0:0:0:0:
347,223,169570,1,8,0:0:0:0:
345,199,169656,1,8,0:0:0:0:
343,175,169742,1,8,0:0:0:0:
368,149,169829,2,0,P|398:172|434:185,1,77.0000023498536,6|0,0:0|0:0,0:0:0:0:
419,62,170174,5,2,0:0:0:0:
506,69,170346,1,0,0:0:0:0:
349,247,170519,5,8,0:0:0:0:
332,55,170691,1,0,0:0:0:0:
175,233,170864,5,2,0:0:0:0:
262,240,171036,1,0,0:0:0:0:
0,151,171208,5,8,0:0:0:0:
17,343,171380,1,0,0:0:0:0:
168,320,171553,5,2,0:0:0:0:
175,233,171725,1,0,0:0:0:0:
438,265,171898,5,8,0:0:0:0:
246,282,172070,1,0,0:0:0:0:
156,39,172243,5,2,0:0:0:0:
243,46,172415,1,0,0:0:0:0:
91,288,172588,5,8,0:0:0:0:
80,152,172760,2,0,L|75:104,1,38.5000011749268,2|0,0:0|0:0,0:0:0:0:
69,32,172933,5,6,0:0:0:0:
156,39,173105,1,0,0:0:0:0:
80,152,173277,5,8,0:0:0:0:
272,135,173449,1,0,0:0:0:0:
178,215,173622,5,2,0:0:0:0:
265,222,173794,1,0,0:0:0:0:
189,335,173966,5,8,0:0:0:0:
381,318,174138,1,0,0:0:0:0:
452,367,174312,5,2,0:0:0:0:
459,280,174484,1,0,0:0:0:0:
500,115,174657,5,8,0:0:0:0:
348,128,174829,2,0,L|252:136,1,77.0000023498536,6|0,0:0|0:0,0:0:0:0:
210,31,175174,2,0,L|306:39,1,77.0000023498536,6|0,0:0|0:0,0:0:0:0:
348,128,175519,6,0,L|300:133,1,38.5000011749268,2|0,0:0|0:0,0:0:0:0:
228,140,175692,1,2,0:0:0:0:
315,226,175864,6,0,L|267:231,1,38.5000011749268,2|0,0:0|0:0,0:0:0:0:
195,238,176037,1,8,0:0:0:0:
108,245,176208,1,8,0:0:0:0:
25,116,176381,5,2,0:0:0:0:
32,203,176553,1,0,0:0:0:0:
125,53,176726,5,8,0:0:0:0:
108,245,176898,1,0,0:0:0:0:
202,325,177071,5,2,0:0:0:0:
195,238,177243,1,0,0:0:0:0:
295,175,177415,5,8,0:0:0:0:
278,367,177587,1,0,0:0:0:0:
378,328,177760,6,0,P|395:326|423:335,2,38.5000011749268,2|0|0,0:0|0:0|0:0,0:0:0:0:
295,175,178105,1,8,0:0:0:0:
469,179,178277,6,0,L|476:103,1,77.0000023498536,6|0,0:0|0:0,0:0:0:0:
364,27,178622,2,0,L|370:103,1,77.0000023498536,6|0,0:0|0:0,0:0:0:0:
469,179,178967,2,0,L|476:103,1,77.0000023498536,6|0,0:0|0:0,0:0:0:0:
288,262,179312,5,2,0:0:0:0:
250,61,179484,2,0,L|194:56,2,38.5000011749268,8|8|8,0:0|0:0|0:0,0:0:0:0:
182,151,179829,5,12,0:0:0:0:
151,170,179915,1,8,0:0:0:0:
116,176,180001,1,8,0:0:0:0:
83,165,180087,1,8,0:0:0:0:
58,139,180173,1,8,0:0:0:0:
48,106,180260,1,8,0:0:0:0:
34,49,180346,5,12,0:0:0:0:
33,90,180432,1,8,0:0:0:0:
11,113,180519,1,8,0:0:0:0:
5,153,180605,1,8,0:0:0:0:
29,180,180691,1,8,0:0:0:0:
28,221,180777,1,8,0:0:0:0:
6,244,180864,1,8,0:0:0:0:
0,284,180950,1,8,0:0:0:0:
6,354,181036,6,0,P|26:338|86:330,3,52.5000020027161,6|0|0|0,0:0|0:0|0:0|0:0,0:0:0:0:
164,277,181381,2,0,P|137:274|113:264,1,52.5000020027161,2|0,0:0|0:0,0:0:0:0:
200,367,181553,2,0,P|225:363|251:367,3,52.5000020027161,6|0|0|0,0:0|0:0|0:0|0:0,0:0:0:0:
347,355,181898,5,2,0:0:0:0:
355,330,181984,1,0,0:0:0:0:
354,303,182071,1,2,0:0:0:0:
342,279,182157,1,0,0:0:0:0:
321,262,182243,1,8,0:0:0:0:
296,254,182329,1,0,0:0:0:0:
270,259,182415,1,0,0:0:0:0:
251,277,182502,1,0,0:0:0:0:
239,300,182588,5,2,0:0:0:0:
230,275,182674,1,0,0:0:0:0:
228,248,182760,1,2,0:0:0:0:
234,222,182846,1,0,0:0:0:0:
238,195,182933,1,8,0:0:0:0:
247,170,183019,1,0,0:0:0:0:
249,143,183105,1,0,0:0:0:0:
243,117,183191,1,0,0:0:0:0:
225,97,183277,5,2,0:0:0:0:
219,82,183364,1,0,0:0:0:0:
221,66,183450,1,2,0:0:0:0:
229,52,183536,1,0,0:0:0:0:
242,44,183622,1,8,0:0:0:0:
257,45,183708,1,0,0:0:0:0:
271,50,183795,6,0,P|296:55|353:35,3,52.5000020027161,6|0|0|0,0:0|0:0|0:0|0:0,0:0:0:0:
442,51,184140,2,0,P|419:63|400:82,1,52.5000020027161,2|0,0:0|0:0,0:0:0:0:
348,183,184312,2,0,P|336:160|333:134,3,52.5000020027161,6|0|0|0,0:0|0:0|0:0|0:0,0:0:0:0:
474,157,184657,5,2,0:0:0:0:
480,182,184743,1,0,0:0:0:0:
480,209,184829,1,2,0:0:0:0:
472,235,184915,1,0,0:0:0:0:
465,261,185002,1,8,0:0:0:0:
454,285,185088,1,0,0:0:0:0:
450,312,185174,1,0,0:0:0:0:
454,338,185260,1,0,0:0:0:0:
491,358,185346,5,2,0:0:0:0:
501,322,185432,1,0,0:0:0:0:
492,286,185518,1,2,0:0:0:0:
465,261,185604,1,0,0:0:0:0:
429,253,185690,1,8,0:0:0:0:
395,267,185777,1,0,0:0:0:0:
372,297,185863,1,0,0:0:0:0:
370,334,185949,1,0,0:0:0:0:
357,357,186036,5,2,0:0:0:0:
345,367,186123,1,0,0:0:0:0:
328,371,186209,1,2,0:0:0:0:
313,369,186295,1,0,0:0:0:0:
301,359,186381,1,8,0:0:0:0:
296,345,186467,1,0,0:0:0:0:
296,330,186554,6,0,P|291:304|252:258,3,52.5000020027161,6|0|0|0,0:0|0:0|0:0|0:0,0:0:0:0:
172,221,186898,2,0,P|164:245|164:272,1,52.5000020027161,2|0,0:0|0:0,0:0:0:0:
280,171,187071,2,0,P|274:145|259:123,3,52.5000020027161,6|0|0|0,0:0|0:0|0:0|0:0,0:0:0:0:
142,120,187415,5,2,0:0:0:0:
118,135,187501,1,0,0:0:0:0:
88,138,187587,1,2,0:0:0:0:
61,127,187674,1,0,0:0:0:0:
42,105,187760,1,8,0:0:0:0:
33,77,187846,1,0,0:0:0:0:
39,48,187932,1,0,0:0:0:0:
57,25,188018,1,0,0:0:0:0:
92,7,188105,5,2,0:0:0:0:
128,22,188191,1,0,0:0:0:0:
171,13,188277,1,2,0:0:0:0:
208,29,188364,1,0,0:0:0:0:
251,20,188450,1,8,0:0:0:0:
288,36,188536,1,0,0:0:0:0:
277,58,188622,5,0,0:0:0:0:
272,86,188708,1,0,0:0:0:0:
283,114,188794,1,2,0:0:0:0:
307,132,188880,1,0,0:0:0:0:
336,136,188966,1,2,0:0:0:0:
364,126,189053,1,0,0:0:0:0:
381,102,189139,1,8,0:0:0:0:
385,73,189225,1,0,0:0:0:0:
382,44,189312,6,0,P|407:52|433:50,3,52.5000020027161,6|0|0|0,0:0|0:0|0:0|0:0,0:0:0:0:
512,144,189657,2,0,P|489:133|462:129,1,52.5000020027161,0|0,0:0|0:0,0:0:0:0:
397,294,189829,6,0,L|390:222,1,52.5000020027161,12|0,0:0|0:0,0:0:0:0:
381,102,190002,1,2,0:0:0:0:
279,366,190174,6,0,L|285:294,1,52.5000020027161,12|0,0:0|0:0,0:0:0:0:
295,174,190347,1,2,0:0:0:0:
172,337,190519,6,0,L|165:265,1,52.5000020027161,12|0,0:0|0:0,0:0:0:0:
156,145,190692,1,2,0:0:0:0:
24,219,190864,5,12,0:0:0:0:
23,235,190951,1,8,0:0:0:0:
22,251,191037,1,8,0:0:0:0:
20,267,191123,1,8,0:0:0:0:
19,283,191209,1,8,0:0:0:0:
17,298,191295,1,8,0:0:0:0:
13,351,191381,5,12,0:0:0:0:
42,338,191467,1,8,0:0:0:0:
81,354,191553,1,8,0:0:0:0:
106,335,191640,1,8,0:0:0:0:
161,351,191726,1,8,0:0:0:0:
207,310,191812,1,8,0:0:0:0:
260,337,191898,1,8,0:0:0:0:
302,312,191984,1,8,0:0:0:0:
353,334,192071,2,0,P|341:294|345:257,1,70,2|0,0:0|0:0,0:0:0:0:
497,159,192760,6,0,P|405:178|454:235,1,188.999994232178,4|0,0:0|0:0,0:0:0:0:
324,88,193622,2,0,L|317:159,1,62.9999980773926,0|0,0:0|0:0,0:0:0:0:
188,88,194312,6,0,L|195:159,2,62.9999980773926,0|0|0,0:0|0:0|0:0,0:0:0:0:
15,159,195519,6,0,P|107:178|58:235,1,188.999994232178,4|0,0:0|0:0,0:0:0:0:
129,352,196381,6,0,L|133:304,1,41.9999987182618,2|0,0:0|0:0,0:0:0:0:
256,332,197071,2,0,L|249:260,1,70,2|0,0:0|0:0,0:0:0:0:
405,291,197760,2,0,L|371:167,1,112,2|0,0:0|0:0,0:0:0:0:
419,39,198277,1,4,0:0:0:0:
253,59,198795,6,0,P|231:61|183:31,1,56,2|0,0:0|0:0,0:0:0:0:
152,118,199140,2,0,P|133:105|116:51,1,56,2|0,0:0|0:0,0:0:0:0:
36,98,199484,2,0,P|30:76|51:24,1,56,2|0,0:0|0:0,0:0:0:0:
144,206,199829,5,2,0:0:0:0:
152,118,200002,1,2,0:0:0:0:
15,282,200174,5,8,0:0:0:0:
7,194,200347,1,8,0:0:0:0:
224,302,200519,5,2,0:0:0:0:
136,294,200692,1,2,0:0:0:0:
302,185,200864,5,8,0:0:0:0:
310,376,201036,1,8,0:0:0:0:
505,307,201208,6,0,B|418:298|418:298|391:328,1,115.50000352478,6|0,0:0|0:0,0:0:0:0:
399,318,201553,2,0,P|390:280|369:248,1,77.0000023498536,8|0,0:0|0:0,0:0:0:0:
211,250,201898,5,6,0:0:0:0:
201,138,202071,1,0,0:0:0:0:
414,151,202243,5,8,0:0:0:0:
399,318,202415,1,0,0:0:0:0:
331,105,202588,5,12,0:0:0:0:
293,88,202674,1,8,0:0:0:0:
284,53,202760,1,8,0:0:0:0:
242,54,202846,1,8,0:0:0:0:
215,31,202933,1,8,0:0:0:0:
167,57,203019,1,8,0:0:0:0:
102,32,203105,6,0,L|95:103,1,38.5000011749268,2|0,0:0|0:0,0:0:0:0:
26,92,203450,2,0,L|32:163,1,38.5000011749268,2|0,0:0|0:0,0:0:0:0:
69,194,203795,2,0,L|56:264,1,38.5000011749268,2|0,0:0|0:0,0:0:0:0:
11,337,204312,5,12,0:0:0:0:
255,290,204484,2,0,P|269:325|269:363,1,77.0000023498536,0|2,0:0|0:0,0:0:0:0:
1,248,204829,5,0,0:0:0:0:
255,290,205002,1,8,0:0:0:0:
175,76,205174,1,0,0:0:0:0:
172,344,205346,2,0,P|137:360|99:361,1,77.0000023498536,6|0,0:0|0:0,0:0:0:0:
9,148,205691,5,8,0:0:0:0:
295,119,205864,1,0,0:0:0:0:
35,70,206036,1,2,0:0:0:0:
295,119,206208,2,0,P|332:110|363:88,1,77.0000023498536,0|8,0:0|0:0,0:0:0:0:
89,131,206553,2,0,L|82:207,1,77.0000023498536,4|2,0:0|0:0,0:0:0:0:
344,188,206898,5,0,0:0:0:0:
260,197,207071,1,8,0:0:0:0:
316,342,207243,2,0,L|309:265,1,77.0000023498536,0|2,0:0|0:0,0:0:0:0:
289,42,207588,1,0,0:0:0:0:
260,197,207760,6,0,B|214:229|161:202|161:202|99:175|31:228,1,210,8|0,0:0|0:0,0:0:0:0:
59,209,208105,1,6,0:0:0:0:
35,8,208277,1,0,0:0:0:0:
221,74,208450,2,0,P|257:64|288:41,1,77.0000023498536,8|0,0:0|0:0,0:0:0:0:
454,26,208795,5,8,0:0:0:0:
477,50,208882,1,8,0:0:0:0:
488,81,208968,1,8,0:0:0:0:
488,114,209054,1,8,0:0:0:0:
475,145,209140,1,8,0:0:0:0:
453,169,209226,1,8,0:0:0:0:
427,179,209312,6,0,B|417:299|417:299|475:279,1,157.500006008148,12|0,0:0|0:0,0:0:0:0:
452,286,209657,1,2,0:0:0:0:
311,158,209829,2,0,P|272:166|240:186,1,77.0000023498536,8|0,0:0|0:0,0:0:0:0:
178,337,210174,5,2,0:0:0:0:
6,236,210346,1,0,0:0:0:0:
174,137,210519,1,8,0:0:0:0:
3,36,210691,6,0,B|122:25|122:25|103:84,1,157.500006008148,4|0,0:0|0:0,0:0:0:0:
111,60,211036,1,2,0:0:0:0:
176,237,211208,2,0,P|211:251|249:252,1,77.0000023498536,8|0,0:0|0:0,0:0:0:0:
378,197,211553,1,2,0:0:0:0:
254,7,211726,6,0,B|245:93|245:93|275:120,1,115.50000352478,0|0,0:0|0:0,0:0:0:0:
265,113,212071,1,0,0:0:0:0:
476,30,212243,5,8,0:0:0:0:
455,256,212415,1,0,0:0:0:0:
351,73,212588,5,8,0:0:0:0:
378,197,212760,1,0,0:0:0:0:
265,113,212933,5,8,0:0:0:0:
253,244,213105,1,0,0:0:0:0:
156,107,213277,5,12,0:0:0:0:
177,333,213449,1,0,0:0:0:0:
22,90,213622,5,8,0:0:0:0:
12,124,213708,1,8,0:0:0:0:
33,148,213795,1,8,0:0:0:0:
9,187,213881,1,8,0:0:0:0:
38,247,213967,1,8,0:0:0:0:
0,290,214053,1,8,0:0:0:0:
30,347,214140,2,0,L|22:393,1,38.5000011749268,12|0,0:0|0:0,0:0:0:0:
125,313,214485,5,8,0:0:0:0:
166,343,214571,1,8,0:0:0:0:
214,326,214657,1,8,0:0:0:0:
227,277,214743,1,8,0:0:0:0:
195,238,214829,6,0,B|283:247|283:247|310:217,1,115.50000352478,6|0,0:0|0:0,0:0:0:0:
301,227,215174,1,0,0:0:0:0:
288,56,215346,1,8,0:0:0:0:
148,153,215519,2,0,P|113:167|75:168,1,77.0000023498536,0|2,0:0|0:0,0:0:0:0:
48,35,215864,5,0,0:0:0:0:
108,255,216036,1,8,0:0:0:0:
157,11,216208,1,0,0:0:0:0:
388,87,216381,2,0,P|400:50|399:12,1,77.0000023498536,6|0,0:0|0:0,0:0:0:0:
124,117,216726,5,8,0:0:0:0:
311,13,216898,1,0,0:0:0:0:
48,35,217071,1,2,0:0:0:0:
202,231,217243,2,0,P|205:269|196:306,1,77.0000023498536,0|8,0:0|0:0,0:0:0:0:
29,194,217588,2,0,L|36:118,1,77.0000023498536,4|2,0:0|0:0,0:0:0:0:
202,231,217933,5,0,0:0:0:0:
193,147,218105,1,8,0:0:0:0:
346,173,218277,6,0,L|270:180,1,77.0000023498536,0|2,0:0|0:0,0:0:0:0:
430,164,218623,1,0,0:0:0:0:
265,319,218795,6,0,P|331:262|340:357,1,210,8|0,0:0|0:0,0:0:0:0:
353,348,219140,1,6,0:0:0:0:
510,253,219312,1,0,0:0:0:0:
346,173,219485,2,0,P|330:138|332:100,1,77.0000023498536,8|0,0:0|0:0,0:0:0:0:
448,16,219829,5,6,0:0:0:0:
396,242,220002,1,0,0:0:0:0:
512,136,220174,1,8,0:0:0:0:
292,21,220346,6,0,B|266:49|266:49|146:39,1,157.500006008148,6|0,0:0|0:0,0:0:0:0:
4,18,220691,2,0,P|51:41|-2:139,1,157.500006008148,2|0,0:0|0:0,0:0:0:0:
169,180,221036,2,0,P|97:197|94:270,1,157.500006008148,2|0,0:0|0:0,0:0:0:0:
33,359,221381,6,0,B|104:365|104:365|154:345|154:345|266:355,1,210.000008010865,2|2,0:0|0:0,0:0:0:0:
238,352,221812,1,2,0:0:0:0:
238,352,221898,1,6,0:0:0:0:
400,264,222070,5,0,0:0:0:0:
407,352,222242,1,0,0:0:0:0:
245,264,222415,5,0,0:0:0:0:
260,89,222588,1,2,0:0:0:0:
437,185,222760,5,0,0:0:0:0:
350,192,222933,1,8,0:0:0:0:
190,0,223105,6,0,B|301:9|301:9|337:53,1,154.000004699707,4|0,0:0|0:0,0:0:0:0:
350,192,223622,1,8,0:0:0:0:
502,22,223795,6,0,P|440:8|434:87,1,154.000004699707,4|0,0:0|0:0,0:0:0:0:
497,254,224312,5,2,0:0:0:0:
510,105,224484,1,2,0:0:0:0:
304,43,224657,5,8,0:0:0:0:
319,91,224743,1,8,0:0:0:0:
301,136,224829,1,8,0:0:0:0:
310,180,224915,1,8,0:0:0:0:
294,227,225002,1,8,0:0:0:0:
331,271,225088,1,8,0:0:0:0:
323,326,225174,2,0,L|319:373,1,38.5000011749268,12|0,0:0|0:0,0:0:0:0:
394,210,225519,5,8,0:0:0:0:
424,190,225605,1,8,0:0:0:0:
460,189,225691,1,8,0:0:0:0:
491,207,225777,1,8,0:0:0:0:
510,235,225863,1,8,0:0:0:0:
512,272,225950,1,8,0:0:0:0:
495,304,226036,6,0,L|439:299,1,56,6|0,0:0|0:0,0:0:0:0:
322,118,226381,2,0,L|378:113,1,56,8|0,0:0|0:0,0:0:0:0:
291,334,226726,2,0,L|235:329,1,56,2|0,0:0|0:0,0:0:0:0:
119,199,227071,6,0,B|109:79|109:79|74:42,1,167.999994873047,12|2,0:0|0:0,0:0:0:0:
76,44,227502,1,2,0:0:0:0:
76,44,227588,1,2,0:0:0:0:
266,69,227760,5,8,0:0:0:0:
24,125,227933,1,0,0:0:0:0:
309,162,228105,5,8,0:0:0:0:
24,125,228277,1,0,0:0:0:0:
107,291,228450,5,8,0:0:0:0:
76,44,228622,6,0,B|163:35|163:35|190:65,1,115.50000352478,4|0,0:0|0:0,0:0:0:0:
182,55,228967,1,2,0:0:0:0:
301,258,229140,5,8,0:0:0:0:
309,162,229312,1,0,0:0:0:0:
24,125,229484,5,2,0:0:0:0:
32,221,229656,1,0,0:0:0:0:
96,359,229829,5,8,0:0:0:0:
112,167,230002,1,0,0:0:0:0:
293,354,230174,5,2,0:0:0:0:
197,362,230346,1,0,0:0:0:0:
236,84,230519,5,8,0:0:0:0:
198,162,230692,1,8,0:0:0:0:
150,89,230864,1,12,0:0:0:0:
371,18,231036,5,0,0:0:0:0:
371,18,231122,1,0,0:0:0:0:
371,18,231208,1,2,0:0:0:0:
506,171,231381,6,0,L|513:94,1,77.0000023498536,4|8,0:0|0:0,0:0:0:0:
434,221,231726,1,0,0:0:0:0:
427,134,231898,1,8,0:0:0:0:
162,237,232071,6,0,L|155:160,1,77.0000023498536,4|8,0:0|0:0,0:0:0:0:
234,287,232416,1,0,0:0:0:0:
241,200,232588,1,8,0:0:0:0:
466,323,232760,6,0,L|473:246,1,77.0000023498536,4|8,0:0|0:0,0:0:0:0:
394,373,233105,1,0,0:0:0:0:
387,286,233277,1,8,0:0:0:0:
184,356,233450,6,0,P|149:372|111:372,1,77.0000023498536,4|8,0:0|0:0,0:0:0:0:
33,270,233795,1,0,0:0:0:0:
142,124,233967,5,8,0:0:0:0:
139,147,234053,1,8,0:0:0:0:
137,171,234140,1,8,0:0:0:0:
135,195,234226,1,8,0:0:0:0:
133,219,234312,6,0,L|127:282,1,56,6|0,0:0|0:0,0:0:0:0:
1,76,234657,2,0,L|7:132,1,56,8|0,0:0|0:0,0:0:0:0:
231,49,235002,5,2,0:0:0:0:
224,129,235174,1,0,0:0:0:0:
218,208,235346,1,8,0:0:0:0:
420,31,235519,5,0,0:0:0:0:
420,31,235605,1,0,0:0:0:0:
420,31,235691,2,0,L|349:38,1,56,2|0,0:0|0:0,0:0:0:0:
409,169,236036,2,0,L|480:176,1,56,8|0,0:0|0:0,0:0:0:0:
420,307,236381,2,0,L|349:314,1,56,2|0,0:0|0:0,0:0:0:0:
294,90,236726,1,12,0:0:0:0:
199,82,237071,5,2,0:0:0:0:
104,74,238450,5,2,0:0:0:0:
294,90,238967,2,0,L|326:92,2,28,8|8|8,0:0|0:0|0:0,0:0:0:0:
9,262,240864,5,8,0:0:0:0:
29,56,241208,5,6,0:0:0:0:
19,159,241381,1,0,0:0:0:0:
131,309,241553,5,8,0:0:0:0:
114,117,241726,1,0,0:0:0:0:
334,290,241898,5,2,0:0:0:0:
231,280,242071,1,0,0:0:0:0:
274,3,242243,5,8,0:0:0:0:
291,195,242416,1,0,0:0:0:0:
480,23,242588,5,2,0:0:0:0:
377,13,242761,1,0,0:0:0:0:
291,195,242933,5,8,0:0:0:0:
483,178,243106,1,0,0:0:0:0:
463,384,243277,5,2,0:0:0:0:
473,281,243450,1,2,0:0:0:0:
488,115,243622,2,0,L|483:177,1,62.9999980773926,8|8,0:0|0:0,0:0:0:0:
230,108,243967,5,6,0:0:0:0:
333,118,244140,1,0,0:0:0:0:
80,219,244312,5,8,0:0:0:0:
272,202,244485,1,0,0:0:0:0:
291,24,244657,5,2,0:0:0:0:
188,14,244830,1,0,0:0:0:0:
38,125,245002,5,8,0:0:0:0:
230,108,245175,1,0,0:0:0:0:
397,236,245346,6,0,P|436:230|475:211,1,62.9999980773926,12|0,0:0|0:0,0:0:0:0:
184,185,245691,2,0,P|147:169|104:165,1,62.9999980773926,12|0,0:0|0:0,0:0:0:0:
315,104,246036,2,0,P|312:72|302:43,1,62.9999980773926,12|0,0:0|0:0,0:0:0:0:
265,316,246381,2,0,P|252:344|246:375,1,62.9999980773926,12|0,0:0|0:0,0:0:0:0:
485,335,246726,5,2,0:0:0:0:
484,350,246812,1,0,0:0:0:0:
483,366,246899,1,0,0:0:0:0:
491,209,247071,1,8,0:0:0:0:
378,351,247243,6,0,L|372:280,1,62.9999980773926,0|2,0:0|0:0,0:0:0:0:
364,184,247588,1,0,0:0:0:0:
378,351,247761,1,8,0:0:0:0:
210,310,247933,6,0,L|216:239,1,62.9999980773926,0|2,0:0|0:0,0:0:0:0:
224,143,248278,1,0,0:0:0:0:
210,310,248451,1,8,0:0:0:0:
46,260,248623,6,0,L|40:189,1,62.9999980773926,0|0,0:0|0:0,0:0:0:0:
32,93,248968,1,8,0:0:0:0:
46,260,249141,1,8,0:0:0:0:
53,347,249312,1,8,0:0:0:0:
210,310,249484,5,6,0:0:0:0:
195,309,249570,1,0,0:0:0:0:
179,308,249657,1,0,0:0:0:0:
277,136,249829,5,12,0:0:0:0:
109,152,250002,1,0,0:0:0:0:
351,188,250174,5,12,0:0:0:0:
109,152,250346,1,0,0:0:0:0:
399,107,250519,5,12,0:0:0:0:
109,152,250691,1,8,0:0:0:0:
107,175,250777,1,8,0:0:0:0:
104,202,250864,6,0,P|100:251|130:289,1,90.9999958343508,8|0,0:0|0:0,0:0:0:0:
137,308,251178,2,0,P|166:312|195:305,1,62.9999980773926,8|0,0:0|0:0,0:0:0:0:
241,300,251484,2,0,P|251:287|258:243,1,52.5000020027161,8|0,0:0|0:0,0:0:0:0:
250,190,251842,6,0,B|218:123|254:17|254:17|326:102|322:150|322:150|364:137|405:154|405:154|422:88|504:32|504:32|516:140|470:202|470:202|495:306|474:379|324:411|244:365|217:284|245:200,1,1224.99996261597,4|4,0:0|0:0,0:0:0:0:
