osu file format v14

[General]
AudioFilename: audio.mp3
AudioLeadIn: 0
PreviewTime: 62543
Countdown: 0
SampleSet: Soft
StackLeniency: 0.7
Mode: 0
LetterboxInBreaks: 0
WidescreenStoryboard: 0

[Editor]
DistanceSpacing: 0.8
BeatDivisor: 4
GridSize: 8
TimelineZoom: 1.7

[Metadata]
Title:DIVE TO LOVE
TitleUnicode:DIVE TO LOVE
Artist:the peggies
ArtistUnicode:the peggies
Creator:Astromi
Version:Freefall
Source:
Tags:スタンドバイミー stand by me japanese pop jpop j-pop rock jrock j-rock female vocals vocalist
BeatmapID:3604083
BeatmapSetID:1760961

[Difficulty]
HPDrainRate:5
CircleSize:3.8
OverallDifficulty:8
ApproachRate:9
SliderMultiplier:1.8
SliderTickRate:1

[Events]
//Background and Video events
0,0,"background.jpg",0,0
//Break Periods
//Storyboard Layer 0 (Background)
//Storyboard Layer 1 (Fail)
//Storyboard Layer 2 (Pass)
//Storyboard Layer 3 (Foreground)
//Storyboard Layer 4 (Overlay)
//Storyboard Sound Samples

[TimingPoints]
538,348.837209302326,4,2,1,60,1,0
538,-125,4,2,1,60,0,0
10131,-90.9090909090909,4,2,1,80,0,0
12572,-100,4,2,1,80,0,0
16584,-111.111111111111,4,2,1,80,0,0
16845,-111.111111111111,4,2,1,5,0,0
16933,-111.111111111111,4,2,1,80,0,0
17282,-100,4,2,1,80,0,0
20247,-90.9090909090909,4,2,1,80,0,0
22340,-100,4,2,1,80,0,0
22863,-125,4,2,1,80,0,0
24345,-125,4,2,1,5,0,0
24433,-125,4,2,1,80,0,0
25654,-111.111111111111,4,2,1,80,0,0
28444,-125,4,2,1,80,0,0
29926,-125,4,2,1,5,0,0
30014,-125,4,2,1,80,0,0
31235,-111.111111111111,4,2,1,80,0,0
39607,-125,4,2,1,80,0,0
41089,-125,4,2,1,5,0,0
41177,-125,4,2,1,80,0,0
42398,-111.111111111111,4,2,1,80,0,0
45189,-125,4,2,1,80,0,0
46671,-125,4,2,1,5,0,0
46758,-125,4,2,1,80,0,0
47979,-111.111111111111,4,2,1,80,0,0
50770,-125,4,2,1,70,0,0
56351,-100,4,2,1,80,0,0
59142,-111.111111111111,4,2,1,80,0,0
60363,-99.9999999999999,4,2,1,80,0,0
61235,337.078651685393,4,2,1,80,1,8
61909,348.837209302326,4,2,1,80,1,0
62631,348.837209302326,4,2,1,80,1,8
64026,348.837209302326,4,2,1,90,1,0
64026,-90.9090909090909,4,2,1,90,0,1
68909,-100,4,2,1,90,0,0
69170,-100,4,2,1,5,0,0
69258,-100,4,2,1,90,0,0
69519,-100,4,2,1,5,0,0
69607,-100,4,2,1,90,0,1
70130,-90.9090909090909,4,2,1,90,0,1
74839,-142.857142857143,4,2,1,80,0,0
76584,348.837209302326,4,2,1,80,1,0
76584,-100,4,2,1,80,0,0
81467,-111.111111111111,4,2,1,80,0,0
81728,-111.111111111111,4,2,1,5,0,0
81816,-111.111111111111,4,2,1,80,0,0
82165,-125,4,2,1,75,0,0
86700,-83.3333333333333,4,2,1,75,0,0
86787,-83.3333333333333,4,2,1,5,0,0
86874,-83.3333333333333,4,2,1,75,0,0
86961,-83.3333333333333,4,2,1,5,0,0
87049,-83.3333333333333,4,2,1,75,0,0
87136,-83.3333333333333,4,2,1,5,0,0
87223,-83.3333333333333,4,2,1,75,0,0
87310,-83.3333333333333,4,2,1,5,0,0
87398,-125,4,2,1,75,0,0
87746,-111.111111111111,4,2,1,75,0,0
89228,-111.111111111111,4,2,1,5,0,0
89316,-111.111111111111,4,2,1,75,0,0
93328,-99.9999999999999,4,2,1,80,0,0
98909,-125,4,2,1,80,0,0
100391,-125,4,2,1,5,0,0
100479,-125,4,2,1,80,0,0
101700,-111.111111111111,4,2,1,80,0,0
104491,-125,4,2,1,80,0,0
105973,-125,4,2,1,5,0,0
106060,-125,4,2,1,80,0,0
107281,-111.111111111111,4,2,1,80,0,0
110072,-125,4,2,1,70,0,0
115653,-100,4,2,1,80,0,0
119665,344.827586206897,4,2,1,80,1,8
120527,348.837209302326,4,2,1,80,1,8
121224,348.837209302326,4,2,1,80,1,0
122620,346.820809248555,4,2,1,80,1,8
123313,352.941176470588,4,2,1,90,1,0
123313,-90.9090909090909,4,2,1,90,0,1
124548,348.837209302326,4,2,1,90,1,8
124548,-90.9090909090909,4,2,1,90,0,1
124722,348.837209302326,4,2,1,90,1,9
125245,-90.9090909090909,4,2,1,90,0,1
128210,-100,4,2,1,90,0,0
128471,-100,4,2,1,5,0,0
128559,-100,4,2,1,90,0,0
128908,348.837209302326,4,2,1,90,1,0
128908,-90.9090909090909,4,2,1,90,0,1
134140,-142.857142857143,4,2,1,80,0,0
135884,348.837209302326,4,2,1,70,1,0
135884,-142.857142857143,4,2,1,70,0,0
145477,-125,4,2,1,70,0,0
146873,-111.111111111111,4,2,1,70,0,0
147047,-99.9999999999999,4,2,1,80,0,0
155594,-90.9090909090909,4,2,1,80,0,0
158209,348.837209302326,4,2,1,80,1,8
158908,348.837209302326,4,2,1,90,1,0
158908,-90.9090909090909,4,2,1,90,0,1
163791,-100,4,2,1,90,0,0
164052,-100,4,2,1,5,0,0
164140,-100,4,2,1,90,0,0
164401,-100,4,2,1,5,0,0
164489,-100,4,2,1,90,0,1
165012,-90.9090909090909,4,2,1,90,0,1
169721,-142.857142857143,4,2,1,80,0,0
171466,348.837209302326,4,2,1,80,1,0
171466,-100,4,2,1,80,0,0
176349,-111.111111111111,4,2,1,80,0,0
176610,-111.111111111111,4,2,1,5,0,0
176698,-111.111111111111,4,2,1,80,0,0
177047,-100,4,2,1,80,0,0
180012,-90.9090909090909,4,2,1,80,0,0
186117,-90.9090909090909,4,2,1,70,0,0
186814,-90.9090909090909,4,2,1,60,0,0
187512,-90.9090909090909,4,2,1,50,0,0
188210,-90.9090909090909,4,2,1,40,0,0
188908,-90.9090909090909,4,2,1,30,0,0
189605,-90.9090909090909,4,2,1,20,0,0
190303,-90.9090909090909,4,2,1,10,0,0
191001,-90.9090909090909,4,2,1,5,0,0

[Colours]
Combo1 : 181,176,236
Combo2 : 96,165,191
Combo3 : 227,220,153

[HitObjects]
107,54,538,6,0,P|114:89|120:124,1,72,2|2,1:2|2:0,0:0:0:0:
203,67,886,1,0,1:2:0:0:
203,67,1061,2,0,B|251:78|251:78|275:113|275:113|325:126,1,144,2|2,2:0|2:0,0:0:0:0:
443,49,1584,5,0,1:2:0:0:
443,49,1758,2,0,P|423:117|410:189,1,144,2|2,2:0|2:0,0:0:0:0:
322,337,2282,1,0,1:2:0:0:
242,294,2456,2,0,P|295:248|364:257,1,144,2|2,2:0|2:0,0:0:0:0:
410,188,2979,1,0,1:2:0:0:
338,127,3154,1,0,3:2:0:0:
338,127,3241,1,0,3:2:0:0:
338,127,3328,6,0,P|268:145|198:160,1,144,2|2,1:2|1:2,0:0:0:0:
124,319,4026,1,2,1:2:0:0:
189,246,4200,2,0,P|154:235|119:227,1,72,2|0,2:0|1:2,0:0:0:0:
30,270,4549,2,0,P|8:204|46:146,1,144,2|2,2:0|2:0,0:0:0:0:
133,103,5072,1,0,1:2:0:0:
73,36,5247,2,0,P|37:33|1:24,1,72,2|0,2:0|1:2,0:0:0:0:
167,0,5596,1,2,1:2:0:0:
167,0,5770,1,0,1:2:0:0:
227,77,5944,1,0,3:2:0:0:
227,77,6032,1,0,3:2:0:0:
227,77,6119,6,0,P|262:69|298:65,1,72,2|2,1:2|2:0,0:0:0:0:
438,155,6468,1,0,1:2:0:0:
438,155,6642,2,0,B|369:133|381:193|300:169,1,144,2|2,2:0|2:0,0:0:0:0:
223,227,7165,1,0,1:2:0:0:
374,263,7340,6,0,P|335:319|267:310,1,144,2|2,2:0|2:0,0:0:0:0:
199,380,7863,1,0,1:2:0:0:
84,264,8038,2,0,P|154:249|223:227,1,144,2|2,2:0|2:0,0:0:0:0:
296,165,8561,1,0,1:2:0:0:
371,262,8735,1,0,3:2:0:0:
371,262,8822,1,0,3:2:0:0:
371,262,8910,6,0,P|383:227|390:192,1,72,2|0,1:2|0:0,0:0:0:0:
208,143,9258,2,0,P|173:151|139:162,1,72,2|0,1:2|0:0,0:0:0:0:
281,302,9607,1,2,1:2:0:0:
323,155,9782,1,2,1:2:0:0:
223,227,9956,1,0,1:2:0:0:
366,0,10131,6,0,P|292:61|198:43,1,198,14|8,2:0|2:0,0:0:0:0:
168,25,10567,1,8,2:0:0:0:
125,10,10654,1,8,2:0:0:0:
82,20,10741,1,8,2:0:0:0:
50,49,10828,2,0,L|60:96,1,49.5,8|8,2:0|2:0,0:0:0:0:
113,229,11003,5,8,2:0:0:0:
390,309,11351,1,10,2:0:0:0:
154,320,11700,6,0,B|225:303|225:303|254:253|254:253|325:238,1,198,4|10,1:2|2:0,0:0:0:0:
439,154,12224,1,2,2:0:0:0:
251,26,12398,1,0,1:2:0:0:
331,154,12572,2,0,P|337:109|346:65,1,90,2|8,1:2|2:0,0:0:0:0:
115,176,12921,6,0,P|194:159|257:227,1,180,6|0,1:2|1:2,0:0:0:0:
143,346,13444,2,0,P|155:302|163:258,1,90,8|0,2:0|0:0,0:0:0:0:
190,114,13793,1,0,1:2:0:0:
262,244,13968,1,2,1:2:0:0:
355,187,14142,1,10,2:0:0:0:
266,348,14317,1,10,2:0:0:0:
266,348,14404,1,8,2:0:0:0:
266,348,14491,6,0,B|362:375|341:293|435:318,1,180,4|10,1:2|2:0,0:0:0:0:
512,229,15014,1,2,2:0:0:0:
356,89,15189,2,0,P|312:100|267:105,1,90,0|2,1:2|1:2,0:0:0:0:
435,155,15538,1,8,2:0:0:0:
371,383,15712,6,0,P|351:295|338:206,1,180,6|0,1:2|1:2,0:0:0:0:
165,132,16235,1,8,2:0:0:0:
258,292,16410,1,8,2:0:0:0:
258,292,16497,1,8,2:0:0:0:
258,292,16584,2,0,P|190:299|125:314,1,121.5,8|0,2:0|0:0,0:0:0:0:
138,310,16933,1,10,2:0:0:0:
12,83,17282,6,0,P|93:111|158:55,1,180,4|10,1:2|2:0,0:0:0:0:
216,161,17805,1,2,2:0:0:0:
37,234,17979,2,0,P|49:277|57:321,1,90,0|2,1:2|1:2,0:0:0:0:
127,196,18328,1,8,2:0:0:0:
371,249,18503,6,0,P|283:271|194:279,1,180,6|0,1:2|1:2,0:0:0:0:
442,336,19026,2,0,P|489:264|453:186,1,180,8|0,2:0|1:2,0:0:0:0:
344,337,19549,1,0,1:2:0:0:
236,130,19724,1,8,2:0:0:0:
261,108,19811,1,8,2:0:0:0:
293,97,19898,1,8,2:0:0:0:
327,97,19985,1,8,2:0:0:0:
358,108,20072,1,0,1:2:0:0:
70,217,20247,6,0,B|175:187|152:277|254:249,1,198,14|0,2:0|1:2,0:0:0:0:
192,31,20770,2,0,P|97:59|0:72,1,198,14|0,2:0|1:2,0:0:0:0:
236,130,21293,2,0,P|315:153|391:72,1,198,14|0,2:0|1:2,0:0:0:0:
501,318,21817,2,0,B|430:301|430:301|401:251|401:251|330:236,1,198,14|8,2:0|1:2,0:0:0:0:
312,234,22253,1,8,2:0:0:0:
312,234,22340,2,0,L|298:289,1,45,10|8,2:0|2:0,0:0:0:0:
197,382,22514,1,8,1:2:0:0:
161,354,22601,1,8,2:0:0:0:
141,315,22689,1,8,2:0:0:0:
140,270,22776,1,8,2:0:0:0:
159,230,22863,6,0,P|137:159|123:77,1,144,6|8,1:2|2:0,0:0:0:0:
182,8,23386,1,2,2:0:0:0:
307,146,23561,2,0,P|272:137|236:131,1,72,2|0,1:2|1:2,0:0:0:0:
358,66,23910,1,10,2:0:0:0:
358,66,23997,1,8,2:0:0:0:
358,66,24084,6,0,P|411:61|464:48,1,108,6|0,1:2|0:0,0:0:0:0:
464,47,24433,2,0,P|454:81|449:117,1,72,2|8,1:2|2:0,0:0:0:0:
512,179,24782,1,2,2:0:0:0:
425,304,24956,1,2,1:2:0:0:
367,227,25131,1,2,1:2:0:0:
303,336,25305,1,10,2:0:0:0:
283,354,25392,1,8,2:0:0:0:
258,364,25479,1,10,2:0:0:0:
231,365,25567,1,8,2:0:0:0:
206,358,25654,6,0,P|209:322|221:277,1,81.0000000000001,6|2,1:2|2:0,0:0:0:0:
97,201,26003,2,0,P|107:240|111:280,1,81.0000000000001,10|2,2:0|2:0,0:0:0:0:
282,169,26351,1,2,1:2:0:0:
149,115,26526,1,0,1:2:0:0:
221,279,26700,1,10,2:0:0:0:
221,279,26788,1,8,2:0:0:0:
221,279,26875,6,0,P|299:259|379:248,1,162,6|2,1:2|1:2,0:0:0:0:
497,161,27398,1,8,2:0:0:0:
329,53,27572,2,0,P|265:97|275:173,1,162,2|2,1:2|1:2,0:0:0:0:
410,111,28096,2,0,P|418:71|432:33,1,81.0000000000001,10|2,2:0|2:0,0:0:0:0:
482,262,28444,6,0,P|412:241|341:231,1,144,6|10,1:2|2:0,0:0:0:0:
268,283,28968,1,0,0:0:0:0:
214,103,29142,2,0,P|249:97|283:84,1,72,2|0,1:2|1:2,0:0:0:0:
135,218,29491,1,10,2:0:0:0:
135,218,29578,1,8,2:0:0:0:
135,218,29665,6,0,P|83:228|37:201,1,108,6|0,1:2|0:0,0:0:0:0:
37,201,30014,2,0,P|44:165|51:130,1,72,2|8,1:2|2:0,0:0:0:0:
62,53,30363,1,2,2:0:0:0:
185,13,30538,1,2,1:2:0:0:
146,91,30712,1,2,1:2:0:0:
227,185,30886,1,10,2:0:0:0:
231,158,30974,1,8,2:0:0:0:
235,131,31061,1,10,2:0:0:0:
240,105,31148,1,8,2:0:0:0:
243,78,31235,6,0,P|281:67|322:59,1,81.0000000000001,6|2,1:2|2:0,0:0:0:0:
129,193,31584,2,0,P|91:182|50:174,1,81.0000000000001,10|2,2:0|2:0,0:0:0:0:
146,91,31933,1,2,1:2:0:0:
227,185,32107,1,2,1:2:0:0:
129,294,32282,1,8,2:0:0:0:
129,294,32369,1,8,2:0:0:0:
129,294,32456,6,0,P|54:313|1:257,1,162,6|2,1:2|1:2,0:0:0:0:
50,174,32979,2,0,P|89:183|129:189,1,81.0000000000001,8|2,2:0|1:2,0:0:0:0:
250,106,33328,1,10,2:0:0:0:
330,265,33503,1,2,1:2:0:0:
220,193,33677,2,0,P|231:231|238:271,1,81.0000000000001,10|0,2:0|0:0,0:0:0:0:
484,130,34026,6,0,P|424:79|349:97,2,162,6|10|2,1:2|2:0|1:2,0:0:0:0:
478,291,34898,1,2,1:2:0:0:
403,165,35072,1,8,2:0:0:0:
289,291,35247,6,0,P|369:279|448:263,1,162,6|2,1:2|1:2,0:0:0:0:
333,370,35770,1,8,2:0:0:0:
246,211,35944,2,0,P|206:220|166:225,1,81.0000000000001,2|0,2:0|1:2,0:0:0:0:
86,282,36293,1,2,1:2:0:0:
7,161,36468,1,10,2:0:0:0:
120,80,36642,1,10,2:0:0:0:
120,80,36729,1,8,2:0:0:0:
120,80,36817,6,0,P|113:120|106:159,1,81.0000000000001,6|2,1:2|2:0,0:0:0:0:
191,327,37165,1,10,2:0:0:0:
243,173,37340,1,2,2:0:0:0:
99,259,37514,2,0,P|138:249|178:242,1,81.0000000000001,0|2,1:2|1:2,0:0:0:0:
292,307,37863,1,8,2:0:0:0:
372,83,38038,6,0,B|429:96|429:96|452:137|452:137|509:149,1,162,6|2,1:2|1:2,0:0:0:0:
497,37,38561,1,8,2:0:0:0:
379,181,38735,2,0,P|339:172|299:166,1,81.0000000000001,2|8,2:0|2:0,0:0:0:0:
278,11,39084,1,2,1:2:0:0:
372,83,39258,1,10,2:0:0:0:
234,238,39433,1,10,2:0:0:0:
234,238,39520,1,8,2:0:0:0:
234,238,39607,6,0,P|251:168|262:97,1,144,6|10,1:2|2:0,0:0:0:0:
166,125,40131,1,0,0:0:0:0:
81,150,40305,2,0,P|76:114|68:79,1,72,2|0,1:2|1:2,0:0:0:0:
14,227,40654,1,10,2:0:0:0:
14,227,40741,1,8,2:0:0:0:
14,227,40828,6,0,P|66:242|120:248,1,108,6|0,1:2|0:0,0:0:0:0:
119,247,41177,2,0,P|111:282|108:318,1,72,2|10,1:2|2:0,0:0:0:0:
44,384,41526,1,2,0:0:0:0:
199,319,41700,2,0,P|234:326|270:329,1,72,2|2,1:2|1:2,0:0:0:0:
330,246,42049,1,10,2:0:0:0:
330,246,42136,1,8,2:0:0:0:
330,246,42224,2,0,P|312:244|294:241,1,36,10|8,2:0|2:0,0:0:0:0:
159,169,42398,6,0,P|168:129|176:89,1,81.0000000000001,6|2,1:2|2:0,0:0:0:0:
338,142,42747,2,0,P|298:150|258:159,1,81.0000000000001,10|2,2:0|2:0,0:0:0:0:
441,1,43096,1,2,1:2:0:0:
314,54,43270,1,0,1:2:0:0:
435,131,43444,1,10,2:0:0:0:
435,131,43532,1,8,2:0:0:0:
435,131,43619,6,0,P|446:196|470:302,1,162,6|2,1:2|1:2,0:0:0:0:
300,384,44142,1,8,2:0:0:0:
344,229,44317,2,0,P|353:268|361:307,1,81.0000000000001,2|8,1:2|2:0,0:0:0:0:
198,234,44665,1,2,1:2:0:0:
270,161,44840,1,10,2:0:0:0:
159,100,45014,1,2,1:2:0:0:
124,288,45189,6,0,P|179:330|247:316,1,144,6|10,1:2|2:0,0:0:0:0:
198,234,45712,1,0,0:0:0:0:
71,363,45886,2,0,P|38:357|-4:351,1,72,2|0,1:2|1:2,0:0:0:0:
95,199,46235,1,10,2:0:0:0:
95,199,46322,1,8,2:0:0:0:
95,199,46410,6,0,P|80:146|69:94,1,108,6|0,1:2|0:0,0:0:0:0:
69,94,46758,2,0,P|104:90|138:79,1,72,2|8,1:2|2:0,0:0:0:0:
200,13,47107,1,2,2:0:0:0:
263,187,47282,2,0,P|228:175|193:172,1,72,2|2,1:2|1:2,0:0:0:0:
323,4,47631,1,10,2:0:0:0:
336,27,47718,1,8,2:0:0:0:
344,53,47805,1,10,2:0:0:0:
344,80,47892,1,8,2:0:0:0:
338,106,47979,6,0,P|375:111|423:126,1,81.0000000000001,6|2,1:2|2:0,0:0:0:0:
272,262,48328,2,0,P|255:225|262:186,1,81.0000000000001,10|2,2:0|2:0,0:0:0:0:
379,233,48677,1,2,1:2:0:0:
332,381,48851,1,2,1:2:0:0:
173,283,49026,1,10,2:0:0:0:
173,283,49113,1,8,2:0:0:0:
173,283,49200,6,0,B|113:268|113:268|88:226|88:226|28:213,1,162,6|2,1:2|1:2,0:0:0:0:
183,185,49724,1,8,2:0:0:0:
43,50,49898,1,2,2:0:0:0:
182,91,50072,2,0,P|140:102|97:115,1,81.0000000000001,10|10,2:0|2:0,0:0:0:0:
104,113,50334,1,8,2:0:0:0:
104,113,50421,1,10,2:0:0:0:
38,215,50596,1,10,2:0:0:0:
38,215,50683,1,8,2:0:0:0:
38,215,50770,6,0,P|48:250|57:285,2,72,6|0|0,1:2|0:0|1:2,0:0:0:0:
133,235,51293,1,2,2:0:0:0:
241,300,51468,2,0,P|231:335|222:370,2,72,2|0|0,1:2|0:0|1:2,0:0:0:0:
147,316,51991,1,2,2:0:0:0:
330,290,52165,6,0,P|365:300|400:309,2,72,2|0|0,1:2|0:0|1:2,0:0:0:0:
382,216,52689,1,2,2:0:0:0:
330,99,52863,1,2,1:2:0:0:
330,99,53038,1,2,2:0:0:0:
287,169,53212,1,2,1:2:0:0:
287,169,53386,1,2,2:0:0:0:
366,26,53561,6,0,P|401:35|435:44,2,72,2|0|0,1:2|0:0|1:2,0:0:0:0:
279,4,54084,1,2,2:0:0:0:
225,114,54258,2,0,P|190:123|156:132,2,72,2|0|0,1:2|0:0|1:2,0:0:0:0:
287,169,54782,1,2,2:0:0:0:
353,261,54956,6,0,P|360:225|369:191,2,72,2|0|0,1:2|0:0|1:2,0:0:0:0:
446,233,55479,1,2,2:0:0:0:
278,369,55654,1,2,1:2:0:0:
278,369,55828,1,2,1:2:0:0:
206,218,56003,2,0,P|215:252|222:287,1,72,10|2,2:0|2:0,0:0:0:0:
116,183,56351,6,0,P|177:124|261:145,1,180,6|8,1:2|2:0,0:0:0:0:
362,202,56875,1,2,2:0:0:0:
278,369,57049,1,2,1:2:0:0:
445,262,57224,1,0,1:2:0:0:
263,178,57398,2,0,P|253:221|244:266,1,90,8|2,2:0|2:0,0:0:0:0:
507,163,57747,6,0,P|445:224|358:198,1,180,6|8,1:2|2:0,0:0:0:0:
288,14,58270,1,2,2:0:0:0:
443,86,58444,1,2,1:2:0:0:
263,178,58619,1,2,1:2:0:0:
343,95,58793,1,10,2:0:0:0:
347,117,58881,1,8,2:0:0:0:
351,139,58968,1,10,2:0:0:0:
355,161,59055,1,8,2:0:0:0:
359,182,59142,6,0,P|349:226|344:268,1,81.0000000000001,6|2,1:2|2:0,0:0:0:0:
172,220,59491,1,8,2:0:0:0:
260,151,59665,1,2,2:0:0:0:
286,325,59840,2,0,P|246:316|206:310,1,81.0000000000001,2|2,1:2|1:2,0:0:0:0:
69,223,60189,1,8,2:0:0:0:
139,12,60363,6,0,P|150:101|164:190,1,180,6|8,1:2|2:0,0:0:0:0:
172,220,60799,1,8,2:0:0:0:
172,220,60886,2,0,L|233:212,1,45,8|8,2:0|2:0,0:0:0:0:
298,146,61061,2,0,L|359:154,1,45,8|8,2:0|2:0,0:0:0:0:
435,217,61235,5,8,1:2:0:0:
456,249,61319,1,8,2:0:0:0:
457,290,61403,1,8,2:0:0:0:
437,324,61487,1,8,2:0:0:0:
401,344,61572,1,8,1:2:0:0:
358,319,61656,1,8,2:0:0:0:
309,317,61740,1,8,2:0:0:0:
267,340,61824,1,8,2:0:0:0:
242,380,61909,1,2,1:2:0:0:
161,31,62631,5,2,2:0:0:0:
148,113,62805,1,2,2:0:0:0:
135,195,62979,1,2,2:0:0:0:
135,195,63328,5,10,1:2:0:0:
173,217,63415,1,8,2:0:0:0:
217,224,63503,1,8,2:0:0:0:
260,212,63590,1,8,2:0:0:0:
296,185,63677,1,10,1:2:0:0:
334,162,63764,1,8,2:0:0:0:
378,155,63851,1,8,2:0:0:0:
421,167,63939,1,8,2:0:0:0:
457,194,64026,6,0,P|469:241|454:287,1,99,6|2,1:2|2:0,0:0:0:0:
332,335,64374,1,10,2:0:0:0:
263,92,64549,2,0,P|311:83|359:72,1,99,2|0,2:0|1:2,0:0:0:0:
183,165,64898,1,2,1:2:0:0:
363,253,65072,1,8,2:0:0:0:
242,374,65246,6,0,P|256:276|275:178,1,198,6|0,1:2|1:2,0:0:0:0:
78,259,65770,1,10,2:0:0:0:
262,91,65944,2,0,P|209:82|166:71,1,99,2|0,2:0|1:2,0:0:0:0:
49,152,66293,1,2,1:2:0:0:
106,0,66467,1,8,2:0:0:0:
240,214,66642,6,0,P|171:280|78:259,1,198,6|0,1:2|1:2,0:0:0:0:
150,187,67165,1,10,2:0:0:0:
305,331,67339,2,0,P|314:282|326:234,1,99,2|0,2:0|1:2,0:0:0:0:
411,103,67688,1,2,1:2:0:0:
512,219,67863,1,8,2:0:0:0:
260,33,68037,6,0,B|363:65|345:-21|448:10,1,198,6|2,1:2|1:2,0:0:0:0:
326,234,68560,1,10,2:0:0:0:
182,107,68735,1,10,2:0:0:0:
182,107,68822,1,8,2:0:0:0:
182,107,68909,2,0,P|126:138|130:202,1,135,10|0,1:2|0:0,0:0:0:0:
129,201,69258,2,0,P|194:185|261:174,1,135,10|0,1:2|0:0,0:0:0:0:
344,136,69607,5,6,1:2:0:0:
209,269,69781,1,2,2:0:0:0:
372,126,69956,1,10,2:0:0:0:
201,15,70130,2,0,P|177:59|182:107,1,99,2|0,2:0|1:2,0:0:0:0:
323,253,70479,2,0,P|371:240|419:232,1,99,2|8,1:2|2:0,0:0:0:0:
120,353,70828,6,0,B|164:311|218:329|218:329|247:374|302:364,1,198,6|0,1:2|1:2,0:0:0:0:
23,268,71351,1,10,2:0:0:0:
118,178,71526,2,0,P|124:129|136:80,1,99,2|0,2:0|1:2,0:0:0:0:
17,132,71874,1,2,1:2:0:0:
174,264,72049,1,8,2:0:0:0:
323,84,72223,6,0,B|252:67|252:67|223:17|223:17|152:2,1,198,6|0,1:2|1:2,0:0:0:0:
237,187,72746,1,10,2:0:0:0:
420,132,72921,2,0,P|434:85|418:39,1,99,2|0,2:0|1:2,0:0:0:0:
315,253,73270,2,0,P|363:263|411:276,1,99,2|8,1:2|2:0,0:0:0:0:
201,351,73619,6,0,P|108:373|40:307,1,198,6|10,1:2|2:0,0:0:0:0:
155,172,74142,1,10,2:0:0:0:
151,197,74229,1,8,2:0:0:0:
146,221,74316,1,10,2:0:0:0:
141,245,74403,1,8,2:0:0:0:
136,270,74491,1,10,2:0:0:0:
289,91,74839,6,0,B|260:55|216:47|216:47|262:1|334:5|334:5|438:96|342:203,1,441,6|0,1:2|1:2,0:0:0:0:
145,115,76235,1,10,2:0:0:0:
145,115,76584,6,0,P|102:108|57:98,1,90,6|0,1:2|0:0,0:0:0:0:
183,281,76932,1,10,2:0:0:0:
16,188,77107,1,2,2:0:0:0:
89,286,77281,2,0,P|95:241|106:197,1,90,2|2,1:2|1:2,0:0:0:0:
4,354,77630,1,10,2:0:0:0:
202,300,77805,6,0,P|291:289|376:262,1,180,6|2,1:2|1:2,0:0:0:0:
292,113,78328,2,0,P|273:153|278:197,1,90,10|2,2:0|2:0,0:0:0:0:
453,319,78677,2,0,P|471:278|466:234,1,90,0|2,1:2|1:2,0:0:0:0:
377,160,79026,1,10,2:0:0:0:
291,239,79200,1,8,2:0:0:0:
291,239,79287,1,8,2:0:0:0:
291,239,79374,6,0,B|227:223|227:223|201:179|201:179|137:165,1,180,6|10,1:2|2:0,0:0:0:0:
63,231,79898,1,0,0:0:0:0:
137,359,80072,2,0,P|143:314|152:270,1,90,2|2,1:2|1:2,0:0:0:0:
24,149,80421,1,8,2:0:0:0:
227,50,80595,6,0,P|143:72|78:14,1,180,6|0,1:2|1:2,0:0:0:0:
231,155,81119,2,0,P|275:147|318:135,1,90,10|8,2:0|0:0,0:0:0:0:
186,352,81467,2,0,P|175:292|157:234,1,121.5,10|0,1:2|0:0,0:0:0:0:
157,234,81816,2,0,P|138:239|100:245,3,40.5,10|8|8|8,1:2|2:0|2:0|2:0,0:0:0:0:
271,287,82165,6,0,P|334:266|392:319,1,144,6|8,1:2|2:0,0:0:0:0:
451,224,82688,1,2,2:0:0:0:
380,159,82863,2,0,P|388:124|395:88,1,72,2|0,1:2|1:2,0:0:0:0:
323,29,83212,1,10,2:0:0:0:
152,143,83386,6,0,P|221:124|292:113,1,144,6|2,1:2|1:2,0:0:0:0:
98,68,83909,2,0,P|49:120|68:186,1,144,8|0,2:0|1:2,0:0:0:0:
156,241,84432,1,2,1:2:0:0:
68,375,84607,1,10,2:0:0:0:
10,277,84781,1,10,2:0:0:0:
10,277,84869,1,8,2:0:0:0:
10,277,84956,6,0,P|45:283|80:291,1,72,6|2,1:2|2:0,0:0:0:0:
161,340,85305,2,0,P|195:331|231:325,1,72,10|2,2:0|2:0,0:0:0:0:
300,260,85653,1,2,1:2:0:0:
300,260,85828,1,0,1:2:0:0:
239,191,86002,1,10,2:0:0:0:
374,356,86177,6,0,P|390:285|398:214,1,144,6|2,1:2|1:2,0:0:0:0:
466,146,86700,2,0,P|471:125|463:144,1,54,10|0,2:0|0:0,0:0:0:0:
451,44,86874,2,0,P|435:29|447:45,1,54,2|0,2:0|0:0,0:0:0:0:
355,6,87049,2,0,P|334:12|354:9,1,54,2|0,1:2|0:0,0:0:0:0:
274,70,87223,2,0,P|269:91|277:72,1,54,2|0,1:2|0:0,0:0:0:0:
319,184,87398,2,0,P|283:180|237:166,1,72,10|10,2:0|2:3,0:0:0:0:
57,287,87746,6,0,P|125:234|200:257,1,162,6|10,1:2|2:0,0:0:0:0:
139,328,88270,1,0,0:0:0:0:
17,185,88444,2,0,P|27:145|32:105,1,81.0000000000001,2|0,1:2|1:2,0:0:0:0:
99,16,88793,1,10,2:0:0:0:
241,130,88967,6,0,P|180:137|122:153,1,121.5,6|0,1:2|0:0,0:0:0:0:
122,152,89316,2,0,P|132:191|137:231,1,81.0000000000001,2|8,1:2|2:0,0:0:0:0:
192,322,89665,1,2,2:0:0:0:
241,222,89839,1,0,1:2:0:0:
182,345,90014,1,2,1:2:0:0:
338,384,90188,1,10,2:0:0:0:
341,364,90276,1,8,2:0:0:0:
344,344,90363,1,10,2:0:0:0:
348,324,90450,1,8,2:0:0:0:
351,304,90537,6,0,P|427:318|483:263,1,162,6|10,1:2|2:0,0:0:0:0:
399,226,91060,1,2,2:0:0:0:
475,123,91235,2,0,P|465:83|457:43,1,81.0000000000001,2|2,1:2|1:2,0:0:0:0:
321,0,91584,1,10,2:0:0:0:
369,125,91758,6,0,B|333:91|289:105|289:105|265:140|221:134,1,162,6|8,1:2|2:3,0:0:0:0:
154,200,92281,1,8,2:3:0:0:
191,276,92456,1,10,2:3:0:0:
119,332,92630,2,0,P|79:321|40:312,1,81.0000000000001,6|2,2:3|2:0,0:0:0:0:
84,121,92979,1,10,2:0:0:0:
84,121,93328,6,0,P|173:113|260:90,1,180,6|10,1:2|2:0,0:0:0:0:
334,28,93851,1,0,0:0:0:0:
273,189,94026,1,2,1:2:0:0:
409,114,94200,2,0,P|448:102|496:95,1,90.0000000000001,2|8,1:2|2:0,0:0:0:0:
340,283,94549,6,0,P|272:228|190:254,1,180,6|2,1:2|1:2,0:0:0:0:
127,143,95072,2,0,P|135:98|143:54,1,90.0000000000001,8|2,2:0|2:0,0:0:0:0:
223,118,95421,1,0,1:2:0:0:
38,204,95595,1,2,1:2:0:0:
96,273,95770,1,10,2:0:0:0:
183,244,95944,1,10,2:0:0:0:
183,244,96031,1,8,2:0:0:0:
183,244,96119,6,0,P|226:255|270:263,1,90.0000000000001,6|2,1:2|2:0,0:0:0:0:
439,358,96467,2,0,P|494:293|457:216,1,180,10|0,2:0|1:2,0:0:0:0:
322,156,96991,1,2,1:2:0:0:
381,276,97165,1,8,2:0:0:0:
498,108,97339,6,0,B|434:92|434:92|409:48|409:48|346:35,1,180,6|2,1:2|1:2,0:0:0:0:
164,87,97863,1,8,2:0:0:0:
322,156,98037,2,0,L|373:145,1,45,2|0,1:2|1:2,0:0:0:0:
267,0,98212,2,0,P|260:44|254:89,1,90.0000000000001,8|2,2:0|1:2,0:0:0:0:
209,195,98560,1,10,2:0:0:0:
30,135,98735,1,10,2:0:0:0:
30,135,98822,1,8,2:0:0:0:
30,135,98909,6,0,P|102:151|156:103,1,144,6|10,1:2|2:0,0:0:0:0:
80,66,99432,1,0,0:0:0:0:
0,215,99607,2,0,P|13:251|20:286,1,72,2|0,1:2|1:2,0:0:0:0:
97,384,99956,1,10,2:0:0:0:
97,384,100043,1,8,2:0:0:0:
97,383,100130,6,0,P|104:329|116:276,1,108,6|0,1:2|0:0,0:0:0:0:
115,276,100479,2,0,P|151:266|186:256,1,72,2|8,1:2|2:0,0:0:0:0:
264,307,100828,1,2,2:0:0:0:
264,307,101002,1,2,1:2:0:0:
339,183,101177,1,2,1:2:0:0:
244,149,101351,2,0,L|251:200,1,36,10|8,2:0|2:0,0:0:0:0:
359,293,101526,1,10,2:0:0:0:
359,293,101613,1,8,2:0:0:0:
359,293,101700,6,0,P|397:283|437:274,1,81.0000000000001,6|2,1:2|2:0,0:0:0:0:
398,106,102049,2,0,P|358:98|319:87,1,81.0000000000001,10|2,2:0|2:0,0:0:0:0:
152,195,102398,1,2,1:2:0:0:
232,116,102572,1,0,1:2:0:0:
113,48,102746,1,10,2:0:0:0:
113,48,102834,1,8,2:0:0:0:
113,48,102921,6,0,P|190:33|269:8,1,162,6|2,1:2|1:2,0:0:0:0:
352,71,103444,1,8,2:0:0:0:
249,190,103619,2,0,P|263:227|273:267,1,81.0000000000001,2|8,1:2|2:0,0:0:0:0:
436,169,103967,1,2,1:2:0:0:
269,106,104142,1,10,2:0:0:0:
361,258,104316,1,2,1:2:0:0:
205,342,104491,6,0,P|152:296|84:309,1,144,6|10,1:2|2:0,0:0:0:0:
17,254,105014,1,0,0:0:0:0:
117,188,105188,2,0,P|151:179|187:173,1,72,2|0,1:2|1:2,0:0:0:0:
51,74,105537,1,10,2:0:0:0:
51,74,105624,1,8,2:0:0:0:
51,74,105712,6,0,P|103:79|142:44,1,108,6|0,1:2|0:0,0:0:0:0:
142,43,106060,2,0,P|176:51|212:57,1,72,2|8,1:2|2:0,0:0:0:0:
300,31,106409,1,2,2:0:0:0:
382,6,106584,2,0,P|391:40|398:76,1,72,2|2,1:2|1:2,0:0:0:0:
334,169,106932,1,10,2:0:0:0:
313,151,107020,1,8,2:0:0:0:
288,141,107107,1,10,2:0:0:0:
262,139,107194,1,8,2:0:0:0:
236,146,107281,6,0,P|225:226|211:305,1,162,6|10,1:2|2:0,0:0:0:0:
277,382,107805,1,2,2:0:0:0:
106,321,107979,2,0,P|66:331|27:338,1,81.0000000000001,2|2,1:2|1:2,0:0:0:0:
136,232,108328,2,0,P|130:212|124:193,1,40.5,10|8,2:0|2:0,0:0:0:0:
0,135,108502,6,0,B|55:124|55:124|83:79|83:79|142:66,1,162,6|2,1:2|1:2,0:0:0:0:
352,86,109026,1,10,2:0:0:0:
201,0,109200,1,2,1:2:0:0:
210,176,109374,1,10,2:0:0:0:
254,86,109549,1,10,2:0:0:0:
254,86,109636,1,8,2:0:0:0:
254,86,109723,1,10,2:0:0:0:
396,182,109898,1,10,2:0:0:0:
396,182,109985,1,8,2:0:0:0:
396,182,110072,6,0,P|386:217|377:252,2,72,6|0|0,1:2|0:0|1:2,0:0:0:0:
468,256,110595,1,2,2:0:0:0:
300,327,110770,2,0,P|291:292|281:257,2,72,2|0|0,1:2|0:0|1:2,0:0:0:0:
382,370,111293,1,2,2:0:0:0:
206,307,111467,6,0,P|171:317|136:326,2,72,2|0|0,1:2|0:0|1:2,0:0:0:0:
143,238,111991,1,2,2:0:0:0:
56,341,112165,1,2,1:2:0:0:
56,341,112339,1,2,2:0:0:0:
2,264,112514,1,2,1:2:0:0:
2,264,112688,1,2,2:0:0:0:
59,190,112863,6,0,P|50:155|41:121,2,72,2|0|0,1:2|0:0|1:2,0:0:0:0:
143,238,113386,1,2,2:0:0:0:
134,111,113560,2,0,P|143:76|152:41,2,72,2|0|0,1:2|0:0|1:2,0:0:0:0:
66,29,114084,1,2,2:0:0:0:
235,68,114258,6,0,P|271:60|305:51,2,72,2|0|0,1:2|0:0|1:2,0:0:0:0:
143,238,114781,1,2,2:0:0:0:
272,156,114956,1,2,1:2:0:0:
272,156,115130,1,2,1:2:0:0:
134,111,115305,1,10,2:0:0:0:
134,111,115392,1,8,2:0:0:0:
134,111,115479,1,10,2:0:0:0:
198,308,115653,6,0,B|294:275|274:354|370:320,1,180,6|8,1:2|2:0,0:0:0:0:
461,239,116177,1,2,2:0:0:0:
369,134,116351,2,0,P|363:178|355:222,1,90,2|0,1:2|1:2,0:0:0:0:
449,71,116700,1,8,2:0:0:0:
266,135,116874,1,2,2:0:0:0:
449,258,117049,6,0,P|360:271|271:288,1,180,6|8,1:2|2:0,0:0:0:0:
114,227,117572,1,2,2:0:0:0:
249,156,117746,1,2,1:2:0:0:
175,338,117921,1,2,1:2:0:0:
0,241,118095,1,10,2:0:0:0:
3,218,118182,1,8,2:0:0:0:
7,196,118270,1,10,2:0:0:0:
10,174,118357,1,8,2:0:0:0:
14,152,118444,6,0,P|58:142|102:132,1,90,6|2,1:2|2:0,0:0:0:0:
165,0,118793,1,8,2:0:0:0:
24,52,118967,1,2,2:0:0:0:
188,203,119142,2,0,P|197:158|207:115,1,90,2|2,1:2|1:2,0:0:0:0:
93,253,119491,1,8,2:0:0:0:
254,346,119665,6,0,P|301:294|414:319,1,180,6|8,1:2|2:0,0:0:0:0:
423,331,120096,1,8,2:0:0:0:
423,331,120182,2,0,L|471:321,1,45,8|8,2:0|2:0,0:0:0:0:
512,219,120354,2,0,L|464:209,1,45,8|8,2:0|2:0,0:0:0:0:
377,101,120527,5,8,1:2:0:0:
346,88,120614,1,8,2:0:0:0:
312,89,120701,1,8,2:0:0:0:
282,104,120788,1,8,2:0:0:0:
261,130,120875,1,8,1:2:0:0:
217,137,120963,1,8,2:0:0:0:
174,122,121050,1,8,2:0:0:0:
144,90,121137,1,8,2:0:0:0:
132,47,121224,1,2,1:2:0:0:
376,158,121922,5,2,2:0:0:0:
363,240,122096,1,2,2:0:0:0:
350,322,122271,1,2,2:0:0:0:
350,322,122620,5,10,1:2:0:0:
317,352,122706,1,8,2:0:0:0:
273,359,122793,1,8,2:0:0:0:
232,342,122880,1,8,2:0:0:0:
207,305,122966,1,10,1:2:0:0:
198,267,123053,1,4,2:3:0:0:
169,242,123140,1,4,2:3:0:0:
132,239,123226,1,4,2:3:0:0:
106,256,123313,6,0,P|115:304|128:365,1,99,6|2,1:2|2:0,0:0:0:0:
306,235,123665,1,10,2:0:0:0:
222,140,123842,1,2,2:0:0:0:
420,230,124018,1,0,1:2:0:0:
232,342,124195,2,0,P|183:332|134:324,1,99,2|8,1:2|2:0,0:0:0:0:
53,98,124548,6,0,B|124:81|124:81|153:31|153:31|224:16,1,198.000006042481,6|0,1:2|1:2,0:0:0:0:
331,85,125070,1,10,2:0:0:0:
243,236,125245,2,0,P|234:188|222:140,1,99,2|0,2:0|1:2,0:0:0:0:
447,69,125594,1,2,1:2:0:0:
337,189,125768,1,8,2:0:0:0:
512,266,125942,6,0,P|413:278|318:302,1,198,6|0,1:2|1:2,0:0:0:0:
434,364,126466,1,10,2:0:0:0:
512,168,126640,2,0,P|463:160|414:149,1,99,2|0,2:0|1:2,0:0:0:0:
479,73,126989,1,2,1:2:0:0:
408,248,127163,1,8,2:0:0:0:
338,31,127338,6,0,P|272:95|177:66,1,198,6|2,1:2|1:2,0:0:0:0:
116,0,127861,1,10,2:0:0:0:
0,164,128035,1,10,2:0:0:0:
0,164,128123,1,8,2:0:0:0:
0,164,128210,2,0,P|51:203|113:183,1,135,10|0,1:2|0:0,0:0:0:0:
113,182,128559,2,0,P|119:203|123:225,3,45,10|8|8|8,1:2|2:0|2:0|2:0,0:0:0:0:
144,311,128908,6,0,P|186:300|252:290,1,99,6|2,1:2|2:0,0:0:0:0:
433,266,129256,1,10,2:0:0:0:
245,188,129431,1,2,2:0:0:0:
346,359,129605,1,0,1:2:0:0:
386,164,129780,2,0,P|371:116|361:68,1,99,2|8,1:2|2:0,0:0:0:0:
191,99,130128,6,0,P|100:125|29:58,1,198,6|0,1:2|1:2,0:0:0:0:
125,15,130652,1,10,2:0:0:0:
216,213,130826,2,0,P|202:260|193:309,1,99,2|0,2:0|1:2,0:0:0:0:
64,214,131175,1,2,1:2:0:0:
191,99,131349,1,8,2:0:0:0:
297,281,131524,6,0,B|400:249|382:335|485:304,1,198,6|0,1:2|1:2,0:0:0:0:
347,170,132047,1,10,2:0:0:0:
199,357,132221,2,0,P|248:366|296:380,1,99,2|0,2:0|1:2,0:0:0:0:
448,211,132570,2,0,P|457:162|470:114,1,99,2|8,1:2|2:0,0:0:0:0:
301,1,132919,6,0,P|205:28|107:38,1,198,6|10,1:2|2:0,0:0:0:0:
80,49,133355,1,8,2:0:0:0:
80,49,133442,2,0,P|85:78|89:114,1,49.5,10|8,2:0|2:0,0:0:0:0:
159,160,133617,2,0,P|154:189|150:225,1,49.5,10|8,2:0|2:0,0:0:0:0:
86,292,133791,1,10,2:0:0:0:
419,384,134140,6,0,B|462:292|381:232|381:232|371:291|322:321|322:321|256:261|176:298,1,441,6|0,1:2|1:2,0:0:0:0:
296,162,135535,1,10,2:0:0:0:
296,162,135884,6,0,P|283:100|274:37,1,126,6|0,1:2|0:0,0:0:0:0:
193,112,136408,1,2,1:2:0:0:
337,233,136582,2,0,P|288:196|228:210,1,126,10|2,2:0|1:2,0:0:0:0:
316,355,137105,2,0,P|364:318|424:332,1,126,2|0,1:2|0:0,0:0:0:0:
498,265,137628,2,0,P|490:234|480:187,1,62.9999999999999,2|0,2:0|1:2,0:0:0:0:
512,103,137977,2,0,P|450:118|388:126,1,126,10|2,2:0|1:2,0:0:0:0:
331,58,138501,6,0,P|272:62|262:120,1,126,2|0,1:2|0:0,0:0:0:0:
318,186,139024,2,0,P|309:216|305:247,1,62.9999999999999,2|0,2:0|1:2,0:0:0:0:
226,378,139373,2,0,P|218:314|203:254,1,126,10|2,2:0|1:2,0:0:0:0:
184,162,139896,6,0,B|144:123|94:140|94:140|68:183|14:177,1,189,2|0,1:2|0:0,0:0:0:0:
25,89,140594,1,2,1:2:0:0:
140,240,140768,2,0,P|172:245|202:254,1,62.9999999999999,10|10,2:0|2:3,0:0:0:0:
283,301,141117,1,6,2:3:0:0:
232,374,141291,1,4,2:3:0:0:
372,294,141466,6,0,P|364:231|354:169,1,126,6|0,1:2|0:0,0:0:0:0:
296,104,141989,1,2,1:2:0:0:
231,154,142163,2,0,P|170:167|116:126,1,126,10|2,2:0|2:0,0:0:0:0:
6,35,142687,2,0,P|67:48|121:7,1,126,2|0,2:0|0:0,0:0:0:0:
187,68,143210,2,0,P|217:62|248:56,1,62.9999999999999,2|0,2:0|0:0,0:0:0:0:
302,210,143559,2,0,P|315:148|331:87,1,126,10|2,2:0|2:0,0:0:0:0:
512,149,144082,6,0,P|462:185|402:176,1,126,2|0,1:2|0:0,0:0:0:0:
377,267,144605,2,0,P|382:298|387:329,1,62.9999999999999,2|0,1:2|0:0,0:0:0:0:
302,210,144954,2,0,P|239:199|178:187,1,126,10|2,2:0|2:0,0:0:0:0:
39,296,145477,2,0,P|97:258|166:274,1,144,2|10,1:2|2:0,0:0:0:0:
274,362,146001,2,0,P|242:366|199:373,1,72,2|2,2:0|2:0,0:0:0:0:
88,179,146349,1,10,2:0:0:0:
114,343,146524,1,2,2:0:0:0:
189,166,146698,1,10,2:0:0:0:
0,102,146873,2,0,L|7:141,1,40.5,8|8,2:0|2:0,0:0:0:0:
172,263,147047,6,0,P|258:237|346:219,1,180,6|8,1:2|2:0,0:0:0:0:
425,140,147570,1,2,2:0:0:0:
339,96,147745,1,2,1:2:0:0:
407,263,147919,1,2,1:2:0:0:
501,202,148094,1,8,2:0:0:0:
385,375,148268,6,0,P|373:285|353:197,1,180,6|2,1:2|1:2,0:0:0:0:
186,296,148791,2,0,P|229:305|273:317,1,90.0000000000001,10|0,2:0|0:0,0:0:0:0:
400,106,149140,2,0,P|356:96|312:84,1,90.0000000000001,2|0,1:2|1:2,0:0:0:0:
219,205,149489,1,10,2:0:0:0:
83,58,149663,1,8,2:0:0:0:
83,58,149751,1,8,2:0:0:0:
83,58,149838,6,0,P|166:72|228:3,1,180,6|8,1:2|2:0,0:0:0:0:
301,122,150361,1,2,2:0:0:0:
219,205,150535,1,2,1:2:0:0:
318,283,150710,1,2,1:2:0:0:
259,354,150884,1,8,2:0:0:0:
483,180,151059,6,0,P|394:165|306:147,1,180,6|2,1:2|1:2,0:0:0:0:
113,128,151582,1,10,2:0:0:0:
257,44,151756,1,0,0:0:0:0:
219,205,151931,2,0,P|209:160|198:117,1,90.0000000000001,2|2,1:2|1:2,0:0:0:0:
357,191,152280,1,10,2:0:0:0:
282,294,152454,1,8,2:0:0:0:
282,294,152541,1,8,2:0:0:0:
282,294,152628,6,0,P|197:314|126:259,1,180,6|8,1:2|2:0,0:0:0:0:
163,107,153152,1,2,2:0:0:0:
219,205,153326,1,2,1:2:0:0:
60,132,153501,1,0,1:2:0:0:
187,17,153675,1,10,2:0:0:0:
302,139,153849,6,0,B|365:123|365:123|391:79|391:79|454:66,1,180,6|2,1:2|1:2,0:0:0:0:
468,237,154373,2,0,P|423:228|379:219,1,90.0000000000001,10|2,2:0|2:0,0:0:0:0:
251,295,154721,1,2,1:2:0:0:
372,378,154896,1,0,1:2:0:0:
172,354,155070,1,10,2:0:0:0:
172,354,155158,1,8,2:0:0:0:
172,354,155245,2,0,P|163:309|154:265,1,90.0000000000001,8|0,2:0|1:2,0:0:0:0:
20,150,155594,6,0,B|64:108|118:126|118:126|147:171|202:161,1,198,14|0,2:0|1:2,0:0:0:0:
380,19,156117,2,0,P|309:12|310:129,1,198,14|0,2:0|1:2,0:0:0:0:
512,188,156640,2,0,P|414:204|317:226,1,198,14|0,2:0|1:2,0:0:0:0:
139,275,157163,2,0,B|210:292|210:292|239:342|239:342|310:357,1,198,14|8,2:0|1:2,0:0:0:0:
327,366,157599,1,8,2:0:0:0:
349,376,157687,1,10,2:0:0:0:
387,346,157774,1,8,2:0:0:0:
390,298,157861,1,8,2:0:0:0:
423,263,157948,1,8,2:0:0:0:
471,265,158035,2,0,L|485:315,1,49.5,8|8,2:0|2:0,0:0:0:0:
137,36,158908,6,0,P|149:83|161:131,1,99,6|2,1:2|2:0,0:0:0:0:
342,249,159256,1,10,2:0:0:0:
260,152,159431,2,0,P|247:199|235:247,1,99,2|0,2:0|1:2,0:0:0:0:
141,137,159780,1,2,1:2:0:0:
320,58,159954,1,8,2:0:0:0:
113,227,160128,6,0,P|45:161|72:71,1,198,6|0,1:2|1:2,0:0:0:0:
277,172,160652,1,10,2:0:0:0:
117,319,160826,2,0,P|165:308|213:297,1,99,2|0,2:0|1:2,0:0:0:0:
141,137,161175,2,0,P|151:88|162:40,1,99,2|8,1:2|2:0,0:0:0:0:
457,178,161524,6,0,B|386:195|386:195|357:245|357:245|286:260,1,198,6|0,1:2|1:2,0:0:0:0:
451,291,162047,1,10,2:0:0:0:
511,86,162221,2,0,P|462:77|414:64,1,99,2|0,2:0|1:2,0:0:0:0:
248,164,162570,1,2,1:2:0:0:
324,0,162745,1,8,2:0:0:0:
127,103,162919,6,0,P|155:197|180:293,1,198,6|2,1:2|1:2,0:0:0:0:
327,331,163442,1,10,2:0:0:0:
256,115,163617,2,0,P|251:139|248:164,1,49.5,10|8,2:0|2:0,0:0:0:0:
124,228,163791,2,0,P|60:243|7:203,1,135,10|0,1:2|0:0,0:0:0:0:
7,204,164140,2,0,P|21:137|32:71,1,135,10|0,1:2|0:0,0:0:0:0:
111,13,164489,5,6,1:2:0:0:
210,194,164663,1,2,2:0:0:0:
257,0,164838,1,10,2:0:0:0:
112,122,165012,2,0,P|160:112|208:100,1,99,2|0,2:0|1:2,0:0:0:0:
337,308,165361,2,0,P|288:296|240:286,1,99,2|8,1:2|2:0,0:0:0:0:
335,40,165710,6,0,P|398:110|490:88,1,198,6|0,1:2|1:2,0:0:0:0:
427,14,166233,1,10,2:0:0:0:
512,187,166408,2,0,P|463:195|415:206,1,99,2|0,2:0|1:2,0:0:0:0:
280,156,166756,1,2,1:2:0:0:
348,327,166931,1,8,2:0:0:0:
267,123,167105,6,0,B|222:81|168:99|168:99|139:142|84:134,1,198,6|0,1:2|1:2,0:0:0:0:
194,237,167628,1,10,2:0:0:0:
355,153,167803,2,0,P|364:104|379:57,1,99,2|0,2:0|1:2,0:0:0:0:
237,0,168152,2,0,P|189:14|141:24,1,99,2|8,1:2|2:0,0:0:0:0:
14,257,168501,6,0,B|85:274|85:274|114:324|114:324|185:339,1,198,6|10,1:2|2:0,0:0:0:0:
218,347,168937,1,8,2:0:0:0:
218,347,169024,2,0,L|234:274,1,49.5,10|8,2:0|2:0,0:0:0:0:
311,209,169198,2,0,L|327:282,1,49.5,10|8,2:0|2:0,0:0:0:0:
354,379,169373,1,10,2:0:0:0:
370,120,169721,6,0,B|296:76|203:113|300:164|101:232|18:45|191:-49|240:49,1,441,6|0,1:2|1:2,0:0:0:0:
311,209,171117,1,10,2:0:0:0:
131,285,171466,6,0,P|220:294|308:312,1,180,6|10,1:2|2:0,0:0:0:0:
478,256,171989,1,2,2:0:0:0:
400,384,172163,1,0,1:2:0:0:
311,209,172338,2,0,P|354:200|398:189,1,90,2|10,1:2|2:0,0:0:0:0:
268,25,172687,6,0,B|203:40|203:40|176:86|176:86|112:99,1,180,6|2,1:2|1:2,0:0:0:0:
0,31,173210,2,0,P|12:75|20:119,1,90,10|2,2:0|2:0,0:0:0:0:
147,250,173559,1,0,1:2:0:0:
23,306,173733,1,2,1:2:0:0:
125,156,173908,1,10,2:0:0:0:
219,329,174082,1,8,2:0:0:0:
219,329,174169,1,8,2:0:0:0:
219,329,174256,6,0,P|287:274|372:292,1,180,6|10,1:2|2:0,0:0:0:0:
306,371,174780,1,2,2:0:0:0:
387,200,174954,2,0,P|376:156|371:111,1,90,0|2,1:2|1:2,0:0:0:0:
198,241,175303,1,8,2:0:0:0:
117,33,175477,6,0,B|212:8|191:90|287:62,1,180,6|2,1:2|1:2,0:0:0:0:
126,149,176001,1,10,2:0:0:0:
198,241,176175,1,0,1:2:0:0:
198,241,176262,1,0,1:2:0:0:
198,241,176349,2,0,P|191:309|176:374,1,121.5,10|0,2:0|0:0,0:0:0:0:
179,360,176698,1,10,2:0:0:0:
419,174,177047,6,0,P|335:193|282:126,1,180,4|10,1:2|2:0,0:0:0:0:
184,3,177570,1,2,2:0:0:0:
100,131,177745,2,0,P|112:174|120:218,1,90,0|2,1:2|1:2,0:0:0:0:
233,126,178094,1,10,2:0:0:0:
10,42,178268,6,0,P|99:30|184:3,1,180,6|0,1:2|1:2,0:0:0:0:
270,210,178791,2,0,P|334:153|310:71,1,180,10|0,2:0|1:2,0:0:0:0:
233,126,179314,1,2,1:2:0:0:
366,267,179489,1,8,2:0:0:0:
388,263,179576,1,8,2:0:0:0:
410,259,179663,1,10,2:0:0:0:
432,254,179751,1,8,2:0:0:0:
454,250,179838,1,0,1:2:0:0:
277,317,180012,6,0,B|233:275|179:293|179:293|150:338|95:328,1,198,14|0,2:0|1:2,0:0:0:0:
120,101,180535,2,0,B|189:117|189:117|217:166|217:166|287:181,1,198,14|0,2:0|1:2,0:0:0:0:
450,47,181059,2,0,P|361:19|305:93,1,198,14|0,2:0|1:2,0:0:0:0:
102,239,181582,2,0,P|198:258|292:289,1,198,14|8,2:0|1:2,0:0:0:0:
321,297,182018,1,8,2:0:0:0:
321,297,182105,2,0,L|335:352,1,49.5,10|8,2:0|2:0,0:0:0:0:
465,225,182280,1,8,1:2:0:0:
441,194,182367,1,8,2:0:0:0:
407,176,182454,1,8,2:0:0:0:
368,174,182541,1,8,2:0:0:0:
331,189,182628,1,0,1:2:0:0:
178,62,182803,6,0,P|274:42|368:11,1,198,14|0,2:0|1:2,0:0:0:0:
198,182,183326,2,0,P|105:200|41:131,1,198,14|0,2:0|1:2,0:0:0:0:
229,314,183849,2,0,B|298:297|298:297|326:248|326:248|396:233,1,198,14|0,2:0|1:2,0:0:0:0:
140,35,184373,2,0,P|124:132|101:229,1,198,14|8,2:0|1:2,0:0:0:0:
101,260,184809,1,8,2:0:0:0:
101,260,184896,2,0,P|125:262|149:268,1,49.5,10|8,2:0|2:0,0:0:0:0:
223,200,185070,2,0,P|246:193|271:191,1,49.5,8|8,1:2|2:0,0:0:0:0:
161,137,185245,1,8,2:0:0:0:
161,137,185332,1,8,2:0:0:0:
161,137,185419,1,6,1:2:0:0:
256,192,185506,12,0,191001,2:0:0:0:
