osu file format v14

[General]
AudioFilename: audio.mp3
AudioLeadIn: 0
PreviewTime: 56308
Countdown: 0
SampleSet: Soft
StackLeniency: 0.4
Mode: 0
LetterboxInBreaks: 0
WidescreenStoryboard: 1

[Editor]
DistanceSpacing: 1.1
BeatDivisor: 4
GridSize: 32
TimelineZoom: 1.3

[Metadata]
Title:Centimeter (TV Size)
TitleUnicode:センチメートル (TV Size)
Artist:the peggies
ArtistUnicode:the peggies
Creator:dkblaze
Version:Normal
Source:彼女、お借りします
Tags:Kanojo Okarishimasu Rent-A-Girlfriend rental girlfriend KanoKari Opening OP TMS Entertainment jpop J-pop j pop anime japanese Kowari nautzz
BeatmapID:2491867
BeatmapSetID:1194221

[Difficulty]
HPDrainRate:3
CircleSize:3
OverallDifficulty:4
ApproachRate:5
SliderMultiplier:1
SliderTickRate:1

[Events]
//Background and Video events
0,0,"BG.jpg",0,0
Video,-1370,"video.mp4"
//Break Periods
//Storyboard Layer 0 (Background)
//Storyboard Layer 1 (Fail)
//Storyboard Layer 2 (Pass)
//Storyboard Layer 3 (Foreground)
//Storyboard Layer 4 (Overlay)
//Storyboard Sound Samples

[TimingPoints]
2148,428.571428571429,4,2,2,55,1,0
3433,-100,4,2,2,55,0,0
3862,-100,4,2,2,60,0,0
5576,-100,4,2,2,65,0,0
10719,-100,4,2,2,60,0,0
14148,-100,4,2,2,65,0,0
17576,-100,4,2,2,70,0,0
24433,-100,4,2,2,65,0,0
38148,-100,4,2,2,70,0,0
54005,-100,4,2,2,50,0,0
54433,-100,4,2,2,60,0,0
54862,-100,4,2,2,70,0,0
57005,-100,4,2,2,80,0,1
68996,422.535211267606,4,2,2,80,1,0
68996,-100,4,2,2,80,0,1
69418,-100,4,2,2,60,0,1
69841,-100,4,2,2,70,0,1
70272,441.176470588235,4,2,2,80,1,0
70272,-100,4,2,2,80,0,1
70719,428.571428571429,4,2,2,80,1,0
70719,-100,4,2,2,80,0,1
83147,-100,4,2,2,60,0,1
83576,-100,4,2,2,70,0,1
84004,-100,4,2,2,80,0,1
84433,-100,4,2,2,75,0,0
90433,-100,4,2,2,5,0,0

[Colours]
Combo1 : 244,208,142
Combo2 : 233,80,84
Combo3 : 251,162,162
Combo4 : 96,242,213

[HitObjects]
256,192,3433,5,4,0:3:0:0:
176,267,3862,2,0,P|185:310|196:365,2,100,6|2|2,3:2|0:0|0:0,0:0:0:0:
67,247,5148,2,0,L|81:183,1,50,10|2,0:0|0:0,0:0:0:0:
88,144,5576,5,4,3:2:0:0:
37,46,6005,1,0,3:0:0:0:
37,46,6219,1,14,0:0:0:0:
145,67,6648,2,0,L|210:53,1,50,10|2,0:3|3:2,0:0:0:0:
235,20,7076,1,2,0:0:0:0:
235,20,7290,6,0,P|228:78|223:129,1,100,4|2,3:2|3:2,0:0:0:0:
297,201,8148,2,0,P|302:224|306:252,2,50,6|10|10,0:0|0:3|0:3,0:0:0:0:
345,175,8790,1,6,3:2:0:0:
437,234,9219,1,2,3:2:0:0:
437,234,9433,1,14,0:0:0:0:
410,340,9862,2,0,L|352:358,1,50,10|2,0:0|0:0,0:0:0:0:
311,333,10290,2,0,L|253:351,1,50,10|0,0:0|0:0,0:0:0:0:
214,321,10719,5,4,3:2:0:0:
214,321,10933,2,0,L|156:339,2,50,2|2|2,0:0|3:2|0:0,0:0:0:0:
259,220,11790,2,0,L|317:238,2,50,2|2|2,0:0|3:2|0:0,0:0:0:0:
186,137,12648,2,0,L|128:155,2,50,2|2|2,0:0|3:2|0:0,0:0:0:0:
269,64,13505,2,0,L|327:82,2,50,2|2|2,0:0|3:2|0:0,0:0:0:0:
241,16,14148,6,0,P|217:17|188:38,1,50,14|10,3:2|0:0,0:0:0:0:
167,77,14576,1,10,0:0:0:0:
167,77,14790,2,0,P|173:102|179:133,2,50,10|10|10,0:0|0:0|0:0,0:0:0:0:
119,49,15433,2,0,P|90:60|56:73,1,50,10|10,0:0|0:0,0:0:0:0:
22,43,15862,6,0,B|17:107|9:163|9:163|58:193|58:193|49:260|42:330,1,300,2|10,3:2|0:0,0:0:0:0:
139,368,17576,5,2,3:2:0:0:
235,314,18005,1,10,0:0:0:0:
235,314,18219,2,0,P|264:323|292:332,1,50,2|0,3:2|3:0,0:0:0:0:
325,363,18648,1,10,0:0:0:0:
349,255,19076,1,2,3:2:0:0:
266,182,19505,1,2,3:2:0:0:
266,182,19719,2,0,P|237:192|203:205,1,50,10|2,0:0|3:2,0:0:0:0:
166,217,20148,1,10,0:0:0:0:
79,149,20576,1,6,0:3:0:0:
115,45,21005,5,2,3:2:0:0:
224,31,21433,1,10,0:0:0:0:
224,31,21648,2,0,P|230:60|235:90,1,50,2|0,3:2|3:0,0:0:0:0:
280,108,22076,1,10,0:0:0:0:
236,209,22505,1,2,3:2:0:0:
295,301,22933,1,2,3:2:0:0:
295,301,23148,2,0,P|322:309|350:317,1,50,10|2,0:0|0:0,0:0:0:0:
384,350,23576,2,0,P|400:311|426:281,1,75,14|14,0:0|0:0,0:0:0:0:
412,148,24433,5,4,3:2:0:0:
305,120,24862,2,0,P|282:127|249:137,1,50,10|2,0:0|3:2,0:0:0:0:
204,150,25290,1,2,3:2:0:0:
134,64,25719,2,0,P|114:58|76:47,1,50,2|10,0:0|0:0,0:0:0:0:
35,71,26148,2,0,P|31:51|23:10,2,50,2|2|10,3:2|3:2|0:0,0:0:0:0:
46,124,26790,1,2,3:2:0:0:
9,227,27219,2,0,P|40:262|109:264,1,100,10|10,0:0|0:0,0:0:0:0:
128,230,27862,5,0,3:0:0:0:
128,230,28076,2,0,P|171:243|237:263,1,100,2|2,3:2|3:2,0:0:0:0:
258,302,28719,1,2,3:2:0:0:
310,205,29148,2,0,P|304:180|295:146,1,50,2|10,0:0|0:0,0:0:0:0:
255,121,29576,2,0,P|260:98|267:70,2,50,2|0|10,3:2|3:0|0:0,0:0:0:0:
206,147,30219,1,2,3:2:0:0:
98,125,30648,2,0,P|107:182|116:241,1,100,10|10,0:0|0:0,0:0:0:0:
124,277,31290,5,0,3:0:0:0:
213,340,31719,2,0,P|237:331|269:321,1,50,10|2,0:0|3:2,0:0:0:0:
288,276,32148,1,2,3:2:0:0:
214,193,32576,2,0,P|220:165|230:125,1,50,2|10,0:0|0:0,0:0:0:0:
198,95,33005,2,0,P|176:85|144:71,2,50,2|2|10,3:2|3:2|0:0,0:0:0:0:
236,55,33648,1,2,3:2:0:0:
318,127,34076,2,0,P|359:140|412:118,1,100,10|10,0:0|0:0,0:0:0:0:
442,75,34719,5,0,3:0:0:0:
442,75,34933,2,0,P|437:53|429:17,2,50,2|10|2,3:2|0:0|3:2,0:0:0:0:
483,111,35576,1,2,3:2:0:0:
488,220,36005,2,0,P|483:250|479:280,1,50,10|2,0:0|3:2,0:0:0:0:
492,322,36433,2,0,B|476:334|460:350|460:350|430:340|396:329,1,100,14|0,0:0|3:0,0:0:0:0:
354,311,37076,1,14,0:0:0:0:
244,326,37505,2,0,P|237:354|232:385,2,50,2|10|10,0:0|0:0|0:0,0:0:0:0:
225,274,38148,5,6,3:2:0:0:
292,187,38576,1,2,3:2:0:0:
211,111,39005,2,0,P|216:89|222:63,2,50,2|2|2,3:2|0:0|3:2,0:0:0:0:
173,151,39648,1,10,0:0:0:0:
173,151,39862,1,2,3:2:0:0:
70,189,40290,1,2,3:2:0:0:
2,102,40719,2,0,P|10:73|23:35,1,50,2|0,3:2|0:0,0:0:0:0:
53,13,41148,2,0,P|82:20|112:27,1,50,2|10,3:2|0:0,0:0:0:0:
156,19,41576,5,2,3:2:0:0:
221,107,42005,1,2,3:2:0:0:
319,58,42433,2,0,P|323:36|330:1,2,50,2|2|2,3:2|0:0|3:2,0:0:0:0:
347,105,43076,1,10,0:0:0:0:
347,105,43290,2,0,P|354:137|359:165,1,50,10|2,0:0|0:0,0:0:0:0:
395,193,43719,2,0,P|388:225|383:253,1,50,2|2,3:2|3:2,0:0:0:0:
373,295,44148,1,2,3:2:0:0:
274,344,44576,1,8,0:0:0:0:
175,295,45005,5,2,3:2:0:0:
167,185,45433,1,2,3:2:0:0:
71,130,45862,2,0,P|75:110|83:78,2,50,2|2|2,3:2|0:0|3:2,0:0:0:0:
29,165,46505,1,10,0:0:0:0:
29,165,46719,1,2,3:2:0:0:
213,384,48005,1,8,0:3:0:0:
278,295,48433,5,2,3:2:0:0:
385,270,48862,1,2,3:2:0:0:
473,335,49290,2,0,P|468:358|461:394,2,50,2|2|2,3:2|0:0|3:2,0:0:0:0:
505,290,49933,1,10,0:0:0:0:
505,290,50148,2,0,P|499:264|489:226,1,50,14|2,0:0|3:2,0:0:0:0:
451,205,50576,2,0,P|457:178|464:140,1,50,2|2,3:2|3:2,0:0:0:0:
477,103,51005,1,2,0:0:0:0:
404,20,51433,1,10,0:3:0:0:
334,105,51862,6,0,P|293:129|230:115,1,100,2|2,3:2|3:2,0:0:0:0:
209,78,52505,1,8,0:0:0:0:
209,78,52719,2,0,P|178:87|147:95,1,50,2|2,3:2|0:0,0:0:0:0:
128,136,53148,1,2,3:2:0:0:
128,136,53362,1,10,0:0:0:0:
54,54,53790,2,0,P|49:32|43:3,2,50,2|10|10,0:0|0:0|0:0,0:0:0:0:
25,101,54433,2,0,P|19:130|13:158,1,50,8|8,0:0|0:0,0:0:0:0:
3,204,54862,1,8,0:0:0:0:
4,313,55290,6,0,B|17:323|32:336|32:336|52:329|76:323,2,75,10|10|10,0:0|0:0|0:0,0:0:0:0:
126,210,56576,1,4,0:3:0:0:
73,113,57005,5,6,0:0:0:0:
133,21,57433,1,10,0:0:0:0:
242,36,57862,2,0,P|247:62|251:87,1,50,2|2,3:2|3:2,0:0:0:0:
296,116,58290,1,10,0:0:0:0:
296,116,58505,1,2,0:0:0:0:
302,225,58933,1,2,3:2:0:0:
206,279,59362,1,2,0:0:0:0:
116,238,59790,2,0,P|92:248|57:259,1,50,2|10,0:0|0:0,0:0:0:0:
24,224,60219,6,0,P|2:267|18:329,1,100,2|2,0:0|3:2,0:0:0:0:
43,359,60862,1,10,0:0:0:0:
124,285,61290,2,0,L|133:226,2,50,2|2|10,3:2|3:2|0:0,0:0:0:0:
157,328,61933,1,2,0:0:0:0:
231,246,62362,2,0,P|253:254|288:264,1,50,2|10,3:2|0:0,0:0:0:0:
329,282,62790,1,2,0:0:0:0:
375,182,63219,1,2,3:2:0:0:
375,182,63433,2,0,P|372:156|351:126,1,50,10|2,0:0|0:0,0:0:0:0:
312,107,63862,5,4,3:2:0:0:
312,107,64076,2,0,L|303:56,2,50,2|10|2,3:2|0:0|0:0,0:0:0:0:
226,175,64933,2,0,L|217:226,2,50,2|10|2,3:2|0:0|0:0,0:0:0:0:
151,93,65790,2,0,L|142:42,2,50,2|10|2,3:2|0:0|0:0,0:0:0:0:
77,176,66648,2,0,L|68:227,2,50,2|10|2,3:2|0:0|0:0,0:0:0:0:
39,136,67290,5,14,0:0:0:0:
13,28,67719,1,10,0:0:0:0:
125,0,68148,2,0,P|151:7|181:15,1,50,10|2,0:0|3:2,0:0:0:0:
212,51,68576,2,0,P|238:44|268:36,1,50,10|2,0:0|0:0,0:0:0:0:
310,18,68996,1,14,3:2:0:0:
419,9,69418,1,10,3:2:0:0:
503,79,69841,1,10,3:2:0:0:
493,186,70272,1,10,3:2:0:0:
413,261,70719,5,6,3:2:0:0:
393,370,71147,1,10,0:0:0:0:
290,384,71576,2,0,P|264:375|235:365,1,50,2|0,3:2|3:0,0:0:0:0:
189,352,72004,1,10,0:0:0:0:
189,352,72219,1,2,0:0:0:0:
173,243,72647,1,2,3:2:0:0:
254,168,73076,1,2,0:0:0:0:
225,59,73504,2,0,P|201:54|163:42,1,50,2|10,3:2|0:0,0:0:0:0:
127,21,73933,6,0,P|83:49|79:108,1,100,2|2,0:0|3:2,0:0:0:0:
95,144,74576,1,10,0:0:0:0:
186,205,75004,2,0,P|206:197|245:185,2,50,2|2|10,3:2|3:2|0:0,0:0:0:0:
146,243,75647,1,2,0:0:0:0:
52,301,76076,2,0,P|47:326|54:357,1,50,2|10,3:2|0:0,0:0:0:0:
95,382,76504,1,2,0:0:0:0:
191,329,76933,1,2,3:2:0:0:
191,329,77147,2,0,P|216:336|248:344,1,50,10|2,0:0|0:0,0:0:0:0:
286,370,77576,5,4,3:2:0:0:
286,370,77790,2,0,P|305:363|349:349,2,50,2|10|2,3:2|0:0|0:0,0:0:0:0:
279,259,78647,2,0,P|259:252|216:238,2,50,2|10|2,3:2|0:0|0:0,0:0:0:0:
347,173,79504,2,0,P|366:166|410:152,2,50,2|10|2,3:2|0:0|0:0,0:0:0:0:
262,102,80361,2,0,P|242:95|199:81,2,50,2|10|2,3:2|0:0|0:0,0:0:0:0:
309,74,81004,5,14,0:0:0:0:
403,18,81433,1,10,0:0:0:0:
495,77,81861,2,0,P|501:106|505:130,1,50,10|2,0:0|3:2,0:0:0:0:
458,156,82290,2,0,P|452:185|448:209,1,50,10|2,0:0|0:0,0:0:0:0:
493,237,82719,1,12,0:0:0:0:
493,237,82933,2,0,P|499:266|503:290,1,50,10|10,0:0|3:2,0:0:0:0:
487,339,83361,1,10,0:0:0:0:
385,381,83790,1,10,0:0:0:0:
385,381,84004,2,0,P|357:370|329:360,1,50,10|10,3:2|0:0,0:0:0:0:
285,347,84433,5,6,3:2:0:0:
220,257,84861,1,10,0:0:0:0:
220,257,85076,2,0,P|191:264|157:272,1,50,2|0,3:2|3:0,0:0:0:0:
129,304,85504,1,10,0:0:0:0:
26,264,85933,1,10,0:0:0:0:
10,154,86361,1,2,3:2:0:0:
10,154,86576,2,0,P|16:128|24:91,1,50,10|2,0:0|0:0,0:0:0:0:
66,73,87004,2,0,P|60:38|53:-9,2,75,14|14|14,0:0|0:0|0:0,0:0:0:0:
256,192,87861,12,0,90433,0:0:0:0:
