osu file format v14

[General]
AudioFilename: audio.mp3
AudioLeadIn: 0
PreviewTime: 56308
Countdown: 0
SampleSet: Soft
StackLeniency: 0.7
Mode: 0
LetterboxInBreaks: 0
WidescreenStoryboard: 1

[Editor]
DistanceSpacing: 2
BeatDivisor: 4
GridSize: 32
TimelineZoom: 1

[Metadata]
Title:Centimeter (TV Size)
TitleUnicode:センチメートル (TV Size)
Artist:the peggies
ArtistUnicode:the peggies
Creator:dkblaze
Version:Kowari's Hard
Source:彼女、お借りします
Tags:Kanojo Okarishimasu Rent-A-Girlfriend rental girlfriend KanoKari Opening OP TMS Entertainment jpop J-pop j pop anime japanese Kowari nautzz
BeatmapID:2505660
BeatmapSetID:1194221

[Difficulty]
HPDrainRate:5
CircleSize:3.8
OverallDifficulty:6
ApproachRate:7
SliderMultiplier:1.5
SliderTickRate:1

[Events]
//Background and Video events
0,0,"BG.jpg",0,0
Video,-1370,"video.mp4"
//Break Periods
//Storyboard Layer 0 (Background)
//Storyboard Layer 1 (Fail)
//Storyboard Layer 2 (Pass)
//Storyboard Layer 3 (Foreground)
//Storyboard Layer 4 (Overlay)
//Storyboard Sound Samples

[TimingPoints]
2148,428.571428571429,4,2,2,55,1,0
3433,-100,4,2,2,55,0,0
3862,-142.857142857143,4,2,2,60,0,0
5576,-125,4,2,2,65,0,0
8790,-111.111111111111,4,2,2,65,0,0
10719,-111.111111111111,4,2,2,60,0,0
14148,-111.111111111111,4,2,2,65,0,0
17576,-99.9999999999999,4,2,2,70,0,0
24433,-125,4,2,2,65,0,0
38148,-111.111111111111,4,2,2,70,0,0
51862,-99.9999999999999,4,2,2,70,0,0
54005,-99.9999999999999,4,2,2,50,0,0
54433,-99.9999999999999,4,2,2,60,0,0
54862,-99.9999999999999,4,2,2,70,0,0
55290,-83.3333333333333,4,2,2,70,0,0
56148,-125,4,2,2,70,0,0
57005,-90.9090909090909,4,2,2,80,0,1
68996,422.535211267606,4,2,2,80,1,0
68996,-90.9090909090909,4,2,2,80,0,1
69418,-90.9090909090909,4,2,2,60,0,1
69841,-90.9090909090909,4,2,2,70,0,1
70272,441.176470588235,4,2,2,80,1,0
70272,-90.9090909090909,4,2,2,80,0,1
70719,428.571428571429,4,2,2,80,1,0
70719,-90.9090909090909,4,2,2,80,0,1
83147,-90.9090909090909,4,2,2,60,0,1
83576,-90.9090909090909,4,2,2,70,0,1
84004,-90.9090909090909,4,2,2,80,0,1
84433,-100,4,2,2,75,0,0
90433,-100,4,2,2,5,0,0

[Colours]
Combo1 : 244,208,142
Combo2 : 233,80,84
Combo3 : 251,162,162
Combo4 : 96,242,213

[HitObjects]
256,192,2148,12,4,3433,0:3:0:0:
448,45,3862,6,0,P|430:96|419:149,2,104.999996795654,6|2|2,3:2|0:0|0:0,0:0:0:0:
341,99,5148,1,10,0:0:0:0:
331,106,5576,6,0,P|281:103|244:35,1,120,4|0,3:2|3:0,0:0:0:0:
151,11,6219,2,0,P|136:68|132:92,1,60,14|2,0:0|0:0,0:0:0:0:
61,139,6648,1,10,0:3:0:0:
61,139,6862,2,0,P|76:181|83:210,1,60,2|2,3:2|0:0,0:0:0:0:
0,280,7290,6,0,B|65:267|59:312|126:289,1,120,4|2,3:2|3:2,0:0:0:0:
231,221,7933,2,0,P|189:213|162:206,1,60,8|6,0:3|0:0,0:0:0:0:
210,308,8362,2,0,P|223:345|231:371,1,60,10|10,0:3|0:3,0:0:0:0:
308,275,8790,6,0,P|345:239|434:253,1,134.999995880127,6|2,3:2|3:2,0:0:0:0:
490,320,9433,1,14,0:0:0:0:
391,363,9648,1,2,0:0:0:0:
424,246,9862,2,0,P|442:163|455:104,1,134.999995880127,10|10,0:0|0:0,0:0:0:0:
289,10,10719,6,0,P|303:63|309:100,1,67.4999979400635,4|2,3:2|0:0,0:0:0:0:
267,185,11148,1,2,3:2:0:0:
200,146,11362,2,0,P|212:97|216:71,1,67.4999979400635,2|0,0:0|3:0,0:0:0:0:
282,194,11790,2,0,P|327:206|359:216,1,67.4999979400635,2|2,0:0|3:2,0:0:0:0:
187,242,12219,2,0,P|142:254|110:264,1,67.4999979400635,2|0,0:0|3:0,0:0:0:0:
97,345,12648,5,2,0:0:0:0:
184,369,12862,1,2,3:2:0:0:
97,345,13076,2,0,P|46:319|40:238,1,134.999995880127,2|2,0:0|0:0,0:0:0:0:
110,128,13719,2,0,P|121:177|128:198,1,67.4999979400635,2|2,3:2|0:0,0:0:0:0:
227,228,14148,5,14,3:2:0:0:
293,157,14362,1,10,0:0:0:0:
367,248,14576,2,0,P|423:232|447:227,1,67.4999979400635,10|10,0:0|0:0,0:0:0:0:
299,137,15005,1,10,0:0:0:0:
217,240,15219,1,10,0:0:0:0:
147,165,15433,2,0,P|97:155|64:155,1,67.4999979400635,10|10,0:0|0:0,0:0:0:0:
6,215,15862,5,2,3:2:0:0:
504,298,17148,1,10,0:0:0:0:
504,298,17576,6,0,P|457:318|390:226,1,150,2|10,3:2|0:0,0:0:0:0:
483,140,18219,2,0,P|471:195|467:221,1,75,2|0,3:2|3:0,0:0:0:0:
385,159,18648,2,0,P|328:142|298:138,1,75,10|0,0:0|0:0,0:0:0:0:
192,191,19076,1,2,3:2:0:0:
252,264,19290,5,0,3:0:0:0:
252,264,19505,1,2,3:2:0:0:
193,341,19719,2,0,P|147:364|112:367,1,75,10|2,0:0|3:2,0:0:0:0:
47,271,20148,6,0,P|20:235|21:196,1,75,10|8,0:0|0:3,0:0:0:0:
123,100,20576,1,6,0:3:0:0:
123,100,20790,1,4,0:3:0:0:
13,123,21005,6,0,P|102:148|165:171,1,150,2|10,3:2|0:0,0:0:0:0:
220,60,21648,2,0,P|155:68|123:68,1,75,2|0,3:2|3:0,0:0:0:0:
301,128,22076,2,0,P|313:75|322:44,1,75,10|0,0:0|0:0,0:0:0:0:
419,158,22505,6,0,P|431:212|363:262,1,150,2|2,3:2|3:2,0:0:0:0:
292,379,23148,2,0,P|271:335|266:295,1,75,10|2,0:0|0:0,0:0:0:0:
285,220,23576,5,14,0:0:0:0:
274,214,23898,2,0,B|230:204|230:204|207:215|207:215|148:207,1,112.5,14|0,0:0|0:0,0:0:0:0:
95,280,24433,6,0,P|58:255|49:233,1,60,4|0,3:2|3:0,0:0:0:0:
0,161,24862,2,0,P|15:132|40:110,1,60,10|2,0:0|3:2,0:0:0:0:
0,41,25290,1,2,3:2:0:0:
0,41,25505,2,0,P|67:71|119:87,1,120,8|10,0:0|0:0,0:0:0:0:
219,131,26148,6,0,P|260:118|296:111,1,60,2|2,3:2|3:2,0:0:0:0:
192,45,26576,1,10,0:0:0:0:
298,117,26790,2,0,P|321:153|276:217,1,120,2|10,3:2|0:0,0:0:0:0:
186,215,27433,1,10,0:0:0:0:
186,215,27648,1,10,0:0:0:0:
248,310,27862,5,0,3:0:0:0:
248,310,28076,2,0,P|296:324|367:352,1,120,2|2,3:2|3:2,0:0:0:0:
447,252,28719,2,0,P|412:260|383:265,1,60,2|10,3:2|0:0,0:0:0:0:
331,187,29148,2,0,P|341:138|347:113,1,60,2|10,0:0|0:0,0:0:0:0:
422,32,29576,6,0,P|441:59|447:97,1,60,2|0,3:2|3:0,0:0:0:0:
419,179,30005,1,10,0:0:0:0:
345,89,30219,2,0,B|285:70|286:117|212:90,1,120,2|10,3:2|0:0,0:0:0:0:
23,11,31076,1,10,0:0:0:0:
91,84,31290,6,0,P|99:137|108:205,1,120,0|10,3:0|0:0,0:0:0:0:
36,276,31933,1,2,3:2:0:0:
122,351,32148,2,0,P|164:336|191:332,1,60,2|8,3:2|0:0,0:0:0:0:
258,254,32576,2,0,P|228:247|200:236,1,60,2|10,0:0|0:0,0:0:0:0:
303,341,33005,6,0,P|342:326|364:246,1,120,2|10,3:2|0:0,0:0:0:0:
332,131,33648,2,0,P|315:163|307:191,1,60,2|0,3:2|3:0,0:0:0:0:
433,160,34076,1,10,0:0:0:0:
389,50,34290,1,10,0:0:0:0:
433,160,34505,1,10,0:0:0:0:
310,197,34719,6,0,P|262:182|244:159,1,60,0|2,3:0|3:2,0:0:0:0:
189,86,35148,2,0,P|142:97|121:122,1,60,10|2,0:0|3:2,0:0:0:0:
19,148,35576,2,0,B|65:169|93:187,1,60,2|2,3:2|3:2,0:0:0:0:
91,307,36005,2,0,B|112:261|130:233,1,60,10|2,0:0|3:2,0:0:0:0:
200,182,36433,5,14,0:0:0:0:
256,271,36648,1,0,3:0:0:0:
352,185,36862,1,0,3:0:0:0:
249,287,37076,1,14,0:0:0:0:
447,366,37505,6,0,P|467:358|488:353,2,30,2|2|10,0:0|0:0|0:0,0:0:0:0:
362,301,37933,5,10,0:0:0:0:
355,291,38040,1,8,0:0:0:0:
342,287,38148,2,0,B|264:282|300:334|204:329,1,134.999995880127,6|2,3:2|3:2,0:0:0:0:
114,255,38790,1,8,0:0:0:0:
88,358,39005,2,0,P|109:306|125:288,1,67.4999979400635,2|2,3:2|0:0,0:0:0:0:
202,217,39433,1,2,3:2:0:0:
202,217,39648,2,0,P|181:165|165:147,1,67.4999979400635,10|2,0:0|3:2,0:0:0:0:
101,62,40076,6,0,P|89:129|77:167,1,101.249996910095,2|2,0:0|0:0,0:0:0:0:
56,173,40505,2,0,L|19:182,3,33.7499989700318,10|2|2|2,0:0|0:0|3:2|0:0,0:0:0:0:
112,269,41040,1,2,0:0:0:0:
120,270,41148,2,0,P|154:283|191:302,1,67.4999979400635,2|10,3:2|0:0,0:0:0:0:
267,373,41576,6,0,P|313:370|355:283,1,134.999995880127,2|2,3:2|3:2,0:0:0:0:
294,213,42219,1,8,0:0:0:0:
389,173,42433,2,0,P|336:184|309:194,1,67.4999979400635,2|2,3:2|0:0,0:0:0:0:
259,108,42862,2,0,P|225:102|193:92,1,67.4999979400635,2|10,3:2|0:0,0:0:0:0:
127,11,43290,5,10,0:0:0:0:
48,83,43505,1,2,0:0:0:0:
131,168,43719,1,2,3:2:0:0:
10,221,43933,1,2,3:2:0:0:
95,330,44148,2,0,P|104:264|109:243,1,67.4999979400635,2|0,3:2|3:0,0:0:0:0:
9,315,44576,1,8,0:0:0:0:
268,232,45005,6,0,B|309:226|348:211|348:211|373:273,1,134.999995880127,2|2,3:2|3:2,0:0:0:0:
398,353,45648,1,8,0:0:0:0:
488,297,45862,2,0,P|509:261|511:219,1,67.4999979400635,2|2,3:2|0:0,0:0:0:0:
428,124,46290,1,2,3:2:0:0:
351,195,46505,2,0,P|399:178|427:164,1,67.4999979400635,10|2,0:0|3:2,0:0:0:0:
248,363,48005,5,8,0:3:0:0:
162,288,48219,1,4,0:3:0:0:
159,276,48326,1,4,0:3:0:0:
163,267,48433,2,0,P|183:203|198:120,1,134.999995880127,2|2,3:2|3:2,0:0:0:0:
111,42,49076,1,8,0:0:0:0:
26,145,49290,2,0,P|74:134|103:130,1,67.4999979400635,2|2,3:2|0:0,0:0:0:0:
210,42,49719,2,0,P|176:36|143:28,1,67.4999979400635,2|10,3:2|0:0,0:0:0:0:
262,145,50148,5,14,0:0:0:0:
359,85,50362,1,2,3:2:0:0:
262,145,50576,2,0,P|272:192|296:212,1,67.4999979400635,2|2,3:2|3:2,0:0:0:0:
370,229,51005,1,2,0:0:0:0:
509,131,51433,6,0,P|497:190|490:255,1,89.999997253418,10|2,0:3|0:0,0:0:0:0:
501,264,51862,6,0,B|423:261|452:316|357:319,1,150,2|2,3:2|3:2,0:0:0:0:
278,260,52505,1,8,0:0:0:0:
247,372,52719,2,0,P|268:322|296:299,1,75,2|2,3:2|0:0,0:0:0:0:
206,188,53148,2,0,P|256:159|291:164,1,75,2|10,3:2|0:0,0:0:0:0:
172,285,53576,6,0,P|82:262|56:259,1,112.5,2|0,3:2|0:0,0:0:0:0:
31,257,54005,2,0,L|42:213,3,37.5,10|8|10|8,0:0|0:0|0:0|0:0,0:0:0:0:
76,183,54433,2,0,L|65:139,3,37.5,8|8|8|8,0:0|0:0|0:0|0:0,0:0:0:0:
38,102,54862,1,8,0:0:0:0:
37,88,54969,1,8,0:0:0:0:
47,79,55076,1,8,0:0:0:0:
183,97,55290,6,0,B|223:87|267:77|267:77|282:133,2,134.999995880127,10|10|10,0:0|0:0|0:0,0:0:0:0:
166,194,56148,2,0,P|187:231|269:235,1,120,0|4,0:0|0:3,0:0:0:0:
439,384,57005,6,0,B|415:303|487:314|457:207,1,165.000005035401,6|10,0:0|0:0,0:0:0:0:
351,116,57648,1,2,0:0:0:0:
343,123,57755,1,8,0:0:0:0:
338,136,57862,2,0,P|342:183|365:213,1,82.5000025177003,2|2,3:2|3:2,0:0:0:0:
445,114,58290,1,10,0:0:0:0:
362,19,58505,6,0,P|280:32|196:66,1,165.000005035401,2|2,0:0|3:2,0:0:0:0:
98,156,59148,1,8,0:0:0:0:
10,66,59362,1,2,0:0:0:0:
21,67,59469,1,8,0:0:0:0:
30,72,59576,2,0,P|84:98|108:130,1,82.5000025177003,2|2,3:2|0:0,0:0:0:0:
221,150,60005,2,0,P|233:199|216:241,1,82.5000025177003,10|2,0:0|0:0,0:0:0:0:
137,303,60433,5,4,3:2:0:0:
38,241,60648,1,2,3:2:0:0:
137,303,60862,2,0,P|190:320|249:232,1,165.000005035401,10|2,0:0|3:2,0:0:0:0:
139,119,61505,2,0,P|148:187|158:214,1,82.5000025177003,2|10,3:2|0:0,0:0:0:0:
251,68,61933,6,0,B|298:57|350:31|350:31|378:93,1,165.000005035401,2|2,0:0|3:2,0:0:0:0:
457,16,62576,1,10,0:0:0:0:
506,140,62790,1,2,0:0:0:0:
489,132,62898,1,8,0:0:0:0:
472,140,63005,2,0,P|434:178|429:212,1,82.5000025177003,0|2,3:0|3:2,0:0:0:0:
350,322,63433,1,10,0:0:0:0:
350,322,63648,1,2,0:0:0:0:
505,319,63862,6,0,P|446:296|338:272,1,165.000005035401,4|10,3:2|0:0,0:0:0:0:
210,200,64505,1,2,0:0:0:0:
222,202,64612,1,8,0:0:0:0:
230,212,64719,2,0,P|249:275|256:315,1,82.5000025177003,0|2,3:0|3:2,0:0:0:0:
329,173,65148,2,0,P|338:132|351:93,1,82.5000025177003,10|2,0:0|0:0,0:0:0:0:
256,5,65576,1,0,3:0:0:0:
177,77,65790,6,0,P|224:67|253:37,1,82.5000025177003,2|10,3:2|0:0,0:0:0:0:
82,28,66219,1,2,0:0:0:0:
72,39,66326,1,8,0:0:0:0:
66,54,66433,2,0,P|80:116|100:136,1,82.5000025177003,0|2,3:0|3:2,0:0:0:0:
152,250,66862,2,0,P|166:191|179:160,1,82.5000025177003,10|2,0:0|0:0,0:0:0:0:
77,326,67290,6,0,P|24:341|-6:356,1,82.5000025177003,14|2,0:0|3:2,0:0:0:0:
200,337,67719,2,0,P|237:353|277:363,1,82.5000025177003,10|2,0:0|0:0,0:0:0:0:
298,358,68040,1,0,3:0:0:0:
308,346,68148,1,10,0:0:0:0:
387,252,68362,1,2,3:2:0:0:
282,179,68576,2,0,P|302:223|298:258,1,82.5000025177003,10|2,0:0|0:0,0:0:0:0:
185,177,68996,5,14,3:2:0:0:
106,239,69207,1,2,0:0:0:0:
21,153,69418,1,10,3:2:0:0:
116,252,69629,1,10,0:0:0:0:
117,268,69735,1,8,0:0:0:0:
107,288,69841,2,0,L|94:343,3,41.2500012588501,10|8|10|8,3:2|0:0|0:0|0:0,0:0:0:0:
145,344,70272,2,0,L|158:399,2,41.2500012588501,10|8|10,3:2|0:0|0:0,0:0:0:0:
231,245,70719,6,0,P|265:186|364:188,1,165.000005035401,6|10,3:2|0:0,0:0:0:0:
448,267,71361,1,0,0:0:0:0:
476,150,71576,2,0,P|455:203|446:232,1,82.5000025177003,2|0,3:2|3:0,0:0:0:0:
367,353,72004,1,10,0:0:0:0:
512,350,72219,6,0,P|421:322|345:307,1,165.000005035401,2|2,0:0|3:2,0:0:0:0:
254,353,72861,1,8,0:0:0:0:
167,252,73076,1,2,0:0:0:0:
179,247,73183,1,0,0:0:0:0:
197,249,73290,2,0,P|237:277|252:309,1,82.5000025177003,0|2,3:0|3:2,0:0:0:0:
96,327,73719,2,0,P|56:339|20:359,1,82.5000025177003,10|2,0:0|0:0,0:0:0:0:
98,219,74147,5,0,3:0:0:0:
1,147,74361,1,2,3:2:0:0:
98,219,74576,2,0,P|105:173|115:137,1,82.5000025177003,10|0,0:0|0:0,0:0:0:0:
185,8,75004,2,0,P|191:37|197:74,2,41.2500012588501,2|0|2,3:2|3:0|3:2,0:0:0:0:
282,50,75433,1,10,0:0:0:0:
119,103,75647,6,0,P|174:87|236:181,1,165.000005035401,2|2,0:0|3:2,0:0:0:0:
212,297,76290,1,10,0:0:0:0:
152,207,76504,2,0,P|166:237|183:289,1,82.5000025177003,2|0,0:0|3:0,0:0:0:0:
294,356,76933,1,2,3:2:0:0:
305,342,77040,1,2,0:0:0:0:
321,333,77147,2,0,P|374:336|397:358,1,82.5000025177003,10|2,0:0|0:0,0:0:0:0:
512,258,77576,6,0,P|473:323|379:301,1,165.000005035401,4|10,3:2|0:0,0:0:0:0:
311,218,78219,1,2,0:0:0:0:
328,214,78326,1,2,0:0:0:0:
347,215,78433,2,0,P|397:226|432:241,1,82.5000025177003,0|2,3:0|3:2,0:0:0:0:
504,167,78861,1,10,0:0:0:0:
497,66,79076,2,0,P|476:122|468:156,1,82.5000025177003,2|0,0:0|3:0,0:0:0:0:
396,33,79504,6,0,P|345:11|299:8,1,82.5000025177003,2|10,3:2|0:0,0:0:0:0:
231,110,79933,1,2,0:0:0:0:
244,125,80040,1,2,0:0:0:0:
262,133,80147,2,0,P|312:123|335:91,1,82.5000025177003,2|2,3:2|3:2,0:0:0:0:
193,214,80576,2,0,P|173:267|164:308,1,82.5000025177003,10|2,0:0|0:0,0:0:0:0:
105,155,81004,6,0,P|57:132|21:122,1,82.5000025177003,14|2,0:0|3:2,0:0:0:0:
169,71,81433,2,0,P|208:58|244:39,1,82.5000025177003,10|2,0:0|0:0,0:0:0:0:
252,27,81754,1,0,3:0:0:0:
251,12,81861,1,10,0:0:0:0:
361,101,82076,1,2,3:2:0:0:
289,178,82290,2,0,P|298:130|326:103,1,82.5000025177003,10|2,0:0|0:0,0:0:0:0:
455,136,82719,5,12,0:0:0:0:
381,229,82933,1,10,0:0:0:0:
510,277,83147,1,10,3:2:0:0:
363,239,83361,1,10,0:0:0:0:
351,253,83469,1,8,0:0:0:0:
343,271,83576,2,0,P|335:307|332:340,3,41.2500012588501,8|8|10|8,3:2|0:0|0:0|0:0,0:0:0:0:
252,375,84004,2,0,P|248:354|243:334,3,41.2500012588501,10|8|10|8,3:2|0:0|0:0|0:0,0:0:0:0:
188,258,84433,6,0,B|108:244|128:307|41:279,1,150,6|10,3:2|0:0,0:0:0:0:
121,174,85076,2,0,P|133:112|136:84,1,75,2|0,3:2|3:0,0:0:0:0:
22,26,85504,2,0,P|26:75|46:101,1,75,10|0,0:0|0:0,0:0:0:0:
138,17,85933,1,10,0:0:0:0:
219,76,86147,5,0,3:0:0:0:
219,76,86361,1,2,3:2:0:0:
265,167,86576,2,0,P|252:205|219:231,1,75,10|2,0:0|0:0,0:0:0:0:
87,236,87004,5,14,0:0:0:0:
220,317,87326,1,14,0:0:0:0:
330,260,87647,1,14,0:0:0:0:
256,192,87861,12,0,90433,0:0:0:0:
