osu file format v14

[General]
AudioFilename: audio.mp3
AudioLeadIn: 0
PreviewTime: 56308
Countdown: 0
SampleSet: Soft
StackLeniency: 0.7
Mode: 0
LetterboxInBreaks: 0
WidescreenStoryboard: 0

[Editor]
DistanceSpacing: 1.2
BeatDivisor: 4
GridSize: 32
TimelineZoom: 1.6

[Metadata]
Title:Centimeter (TV Size)
TitleUnicode:センチメートル (TV Size)
Artist:the peggies
ArtistUnicode:the peggies
Creator:dkblaze
Version:Insane
Source:彼女、お借りします
Tags:Kanojo Okarishimasu Rent-A-Girlfriend rental girlfriend KanoKari Opening OP TMS Entertainment jpop J-pop j pop anime japanese Kowari nautzz
BeatmapID:2488019
BeatmapSetID:1194221

[Difficulty]
HPDrainRate:6
CircleSize:3.8
OverallDifficulty:8
ApproachRate:8.5
SliderMultiplier:1.6
SliderTickRate:1

[Events]
//Background and Video events
0,0,"BG.jpg",0,0
Video,-1370,"video.mp4"
//Break Periods
//Storyboard Layer 0 (Background)
//Storyboard Layer 1 (Fail)
//Storyboard Layer 2 (Pass)
//Storyboard Layer 3 (Foreground)
//Storyboard Layer 4 (Overlay)
//Storyboard Sound Samples

[TimingPoints]
2148,428.571428571429,4,2,2,55,1,0
3433,-250,4,2,2,55,0,0
3755,-250,4,2,2,5,0,0
3862,-142.857142857143,4,2,2,60,0,0
5576,-111.111111111111,4,2,2,65,0,0
10719,-111.111111111111,4,2,2,60,0,0
14148,-111.111111111111,4,2,2,65,0,0
15862,-249.999999999999,4,2,2,65,0,0
17148,-166.666666666666,4,2,2,65,0,0
17469,-166.666666666666,4,2,2,5,0,0
17576,-90.9090909090908,4,2,2,70,0,0
17898,-90.9090909090908,4,2,2,5,0,0
18005,-90.9090909090908,4,2,2,70,0,0
20898,-90.9090909090908,4,2,2,5,0,0
21005,-90.9090909090908,4,2,2,70,0,0
23576,-66.6666666666667,4,2,2,70,0,0
23683,-66.6666666666667,4,2,2,5,0,0
23790,-66.6666666666667,4,2,2,70,0,0
23898,-100,4,2,2,70,0,0
24326,-100,4,2,2,5,0,0
24433,-125,4,2,2,65,0,0
38148,-100,4,2,2,70,0,0
38469,-100,4,2,2,5,0,0
38576,-100,4,2,2,70,0,0
41898,-100,4,2,2,5,0,0
42005,-100,4,2,2,70,0,0
44576,-125,4,2,2,70,0,0
44898,-125,4,2,2,5,0,0
45005,-100,4,2,2,70,0,0
45326,-100,4,2,2,5,0,0
45433,-100,4,2,2,70,0,0
48755,-100,4,2,2,5,0,0
48862,-100,4,2,2,70,0,0
51433,-125,4,2,2,70,0,0
51862,-100,4,2,2,70,0,0
54005,-100,4,2,2,50,0,0
54433,-100,4,2,2,60,0,0
54862,-100,4,2,2,70,0,0
55290,-66.6666666666667,4,2,2,70,0,0
55398,-66.6666666666667,4,2,2,5,0,0
55505,-66.6666666666667,4,2,2,70,0,0
55719,-66.6666666666667,4,2,2,5,0,0
55826,-66.6666666666667,4,2,2,70,0,0
55933,-83.3333333333333,4,2,2,70,0,0
56576,-250,4,2,2,70,0,0
56898,-250,4,2,2,5,0,0
57005,-76.9230769230769,4,2,2,80,0,1
57326,-76.9230769230769,4,2,2,5,0,1
57433,-76.9230769230769,4,2,2,80,0,1
58826,-76.9230769230769,4,2,2,5,0,1
58933,-76.9230769230769,4,2,2,80,0,1
62255,-76.9230769230769,4,2,2,5,0,1
62362,-76.9230769230769,4,2,2,80,0,1
68996,422.535211267606,4,2,2,80,1,0
68996,-76.9230769230769,4,2,2,80,0,1
69418,-76.9230769230769,4,2,2,60,0,1
69841,-76.9230769230769,4,2,2,70,0,1
70272,441.176470588235,4,2,2,80,1,0
70272,-76.9230769230769,4,2,2,80,0,1
70719,428.571428571429,4,2,2,80,1,0
70719,-76.9230769230769,4,2,2,80,0,1
71040,-76.9230769230769,4,2,2,5,0,1
71147,-76.9230769230769,4,2,2,80,0,1
72540,-76.9230769230769,4,2,2,5,0,1
72647,-76.9230769230769,4,2,2,80,0,1
75969,-76.9230769230769,4,2,2,5,0,1
76076,-76.9230769230769,4,2,2,80,0,1
83147,-76.9230769230769,4,2,2,60,0,1
83576,-76.9230769230769,4,2,2,70,0,1
84004,-76.9230769230769,4,2,2,80,0,1
84433,-90.9090909090909,4,2,2,75,0,0
84754,-90.9090909090909,4,2,2,5,0,0
84861,-90.9090909090909,4,2,2,75,0,0
87004,-66.6666666666667,4,2,2,75,0,0
87111,-66.6666666666667,4,2,2,5,0,0
87219,-66.6666666666667,4,2,2,75,0,0
87433,-66.6666666666667,4,2,2,5,0,0
87540,-66.6666666666667,4,2,2,75,0,0
90433,-66.6666666666667,4,2,2,5,0,0

[Colours]
Combo1 : 244,208,142
Combo2 : 233,80,84
Combo3 : 251,162,162
Combo4 : 96,242,213

[HitObjects]
144,151,3433,6,0,P|149:179|154:209,1,48,4|0,0:3|0:0,0:0:0:0:
221,250,3862,6,0,P|211:311|203:367,2,111.999996582031,6|2|2,3:2|0:0|0:0,0:0:0:0:
364,111,5148,1,10,0:0:0:0:
432,181,5362,1,2,0:0:0:0:
302,282,5576,6,0,P|326:272|373:255,1,71.9999978027344,4|2,3:2|0:0,0:0:0:0:
369,256,5898,1,0,0:0:0:0:
369,256,6005,1,0,3:0:0:0:
258,95,6219,2,0,P|266:124|277:166,1,71.9999978027344,14|2,0:0|0:0,0:0:0:0:
445,45,6648,1,10,0:3:0:0:
509,122,6862,1,2,3:2:0:0:
432,181,7076,1,2,0:0:0:0:
292,18,7290,5,4,3:2:0:0:
159,187,7505,1,2,0:0:0:0:
159,187,7612,1,2,0:0:0:0:
159,187,7719,2,0,P|166:156|177:107,1,71.9999978027344,2|8,3:2|0:3,0:0:0:0:
81,24,8148,1,6,0:0:0:0:
0,95,8362,1,10,0:3:0:0:
80,14,8576,1,10,0:3:0:0:
159,187,8790,6,0,P|127:178|85:165,1,71.9999978027344,6|0,3:2|0:0,0:0:0:0:
267,125,9219,1,2,3:2:0:0:
219,249,9433,1,14,0:0:0:0:
89,166,9648,1,2,0:0:0:0:
229,35,9862,5,10,0:0:0:0:
269,328,10290,1,10,0:0:0:0:
416,153,10719,5,4,3:2:0:0:
344,230,10933,1,2,0:0:0:0:
344,230,11148,1,2,3:2:0:0:
449,309,11362,2,0,P|456:272|466:221,1,71.9999978027344,2|0,0:0|3:0,0:0:0:0:
490,86,11790,5,2,0:0:0:0:
490,86,12005,1,2,3:2:0:0:
416,153,12219,2,0,L|338:127,1,71.9999978027344,2|0,0:0|3:0,0:0:0:0:
207,94,12648,5,2,0:0:0:0:
207,94,12862,1,2,3:2:0:0:
302,0,13076,2,0,P|293:43|286:80,1,71.9999978027344,2|0,0:0|3:0,0:0:0:0:
252,245,13505,5,2,0:0:0:0:
337,217,13719,1,2,3:2:0:0:
270,158,13933,1,2,0:0:0:0:
231,332,14148,5,14,3:2:0:0:
95,251,14362,1,10,0:0:0:0:
270,158,14576,1,10,0:0:0:0:
382,305,14790,1,10,0:0:0:0:
500,236,15005,1,10,0:0:0:0:
380,322,15219,1,10,0:0:0:0:
273,137,15433,1,10,0:0:0:0:
91,268,15648,1,10,0:0:0:0:
182,57,15862,6,0,B|191:41|207:-1|207:-1|198:55|193:97,1,160,2|2,3:2|0:0,0:0:0:0:
70,199,17148,6,0,P|81:235|93:276,1,71.9999978027344,10|0,0:0|0:0,0:0:0:0:
110,352,17576,6,0,B|177:337|144:287|227:271,1,132.00000402832,2|0,3:2|0:0,0:0:0:0:
268,276,18005,1,10,0:0:0:0:
376,375,18219,2,0,P|365:337|350:284,1,88.000002685547,2|0,3:2|3:0,0:0:0:0:
307,123,18648,1,10,0:0:0:0:
307,123,19076,6,0,P|348:108|399:89,1,88.000002685547,2|0,3:2|3:0,0:0:0:0:
319,26,19505,1,2,3:2:0:0:
235,175,19719,1,10,0:0:0:0:
164,100,19933,1,2,3:2:0:0:
6,241,20148,2,0,P|16:209|31:154,1,88.000002685547,10|8,0:0|0:3,0:0:0:0:
231,278,20576,2,0,B|207:272|181:268|181:268|163:238|163:238|130:232|101:226,1,132.00000402832,6|0,0:3|0:0,0:0:0:0:
71,300,21005,6,0,P|83:335|98:388,1,88.000002685547,2|0,3:2|3:0,0:0:0:0:
280,210,21433,1,10,0:0:0:0:
215,32,21648,2,0,P|204:74|192:124,1,88.000002685547,2|0,3:2|3:0,0:0:0:0:
150,260,22076,1,10,0:0:0:0:
150,260,22505,6,0,P|191:274|235:289,1,88.000002685547,2|0,3:2|3:0,0:0:0:0:
381,192,22933,1,2,3:2:0:0:
493,297,23148,1,10,0:0:0:0:
417,384,23362,1,2,0:0:0:0:
317,275,23576,6,0,P|324:310|332:346,1,60.0000022888184,14|0,0:0|0:0,0:0:0:0:
381,192,23898,6,0,B|350:186|321:181|321:181|303:146|303:146|264:138|214:127,1,160,14|0,0:0|0:0,0:0:0:0:
214,98,24433,6,0,P|176:115|137:131,1,64,4|0,3:2|3:0,0:0:0:0:
18,104,24862,1,10,0:0:0:0:
18,104,25076,1,2,3:2:0:0:
101,49,25290,1,2,3:2:0:0:
159,144,25505,2,0,L|139:227,1,64,8|2,0:0|0:0,0:0:0:0:
109,343,25933,1,10,0:0:0:0:
222,266,26148,5,2,3:2:0:0:
222,266,26362,1,2,3:2:0:0:
281,340,26576,1,10,0:0:0:0:
365,251,26790,2,0,P|335:238|304:224,1,64,2|2,3:2|3:2,0:0:0:0:
437,369,27219,1,10,0:0:0:0:
437,369,27326,1,2,0:0:0:0:
437,369,27433,1,10,0:0:0:0:
512,317,27648,1,10,0:0:0:0:
484,165,27862,6,0,P|474:198|466:232,1,64,0|2,3:0|3:2,0:0:0:0:
363,138,28290,1,8,0:0:0:0:
363,138,28505,1,2,3:2:0:0:
295,204,28719,1,2,3:2:0:0:
188,116,28933,2,0,P|215:104|258:84,1,64,10|2,0:0|0:0,0:0:0:0:
354,24,29362,1,10,0:0:0:0:
453,157,29576,5,2,3:2:0:0:
453,157,29790,1,0,3:0:0:0:
361,128,30005,1,10,0:0:0:0:
512,16,30219,2,0,P|504:57|497:97,1,64,2|2,3:2|3:2,0:0:0:0:
460,280,30648,5,10,0:0:0:0:
163,131,31076,1,10,0:0:0:0:
71,254,31290,6,0,P|62:225|47:177,1,64,0|0,3:0|3:0,0:0:0:0:
10,52,31719,1,10,0:0:0:0:
10,52,31933,1,2,3:2:0:0:
84,96,32148,1,2,3:2:0:0:
208,22,32362,2,0,P|197:59|187:98,1,64,8|2,0:0|0:0,0:0:0:0:
148,216,32790,1,10,0:0:0:0:
304,317,33005,5,2,3:2:0:0:
304,317,33219,1,2,3:2:0:0:
235,373,33433,1,10,0:0:0:0:
131,318,33648,2,0,P|162:306|206:288,1,64,2|0,3:2|3:0,0:0:0:0:
388,219,34076,1,10,0:0:0:0:
388,219,34183,1,2,0:0:0:0:
388,219,34290,1,10,0:0:0:0:
467,296,34505,1,10,0:0:0:0:
327,384,34719,6,0,P|320:352|307:299,1,64,0|2,3:0|3:2,0:0:0:0:
283,175,35148,1,10,0:0:0:0:
283,175,35362,1,2,3:2:0:0:
417,145,35576,2,0,P|405:185|396:220,1,64,2|2,3:2|3:2,0:0:0:0:
350,377,36005,1,10,0:0:0:0:
350,377,36219,1,2,3:2:0:0:
158,273,36433,5,14,0:0:0:0:
253,216,36648,1,0,3:0:0:0:
347,359,36862,1,0,3:0:0:0:
495,242,37076,1,14,0:0:0:0:
495,242,37505,1,2,0:0:0:0:
495,242,37612,1,2,0:0:0:0:
495,242,37719,1,10,0:0:0:0:
424,305,37933,1,10,0:0:0:0:
271,176,38148,6,0,P|311:136|388:153,1,120,6|0,3:2|0:0,0:0:0:0:
385,154,38576,2,0,P|374:199|367:243,1,80,2|8,3:2|0:0,0:0:0:0:
338,367,39005,1,2,3:2:0:0:
338,367,39219,1,2,0:0:0:0:
422,311,39433,1,2,3:2:0:0:
275,194,39648,2,0,P|239:210|197:225,1,80,10|2,0:0|3:2,0:0:0:0:
98,284,40076,5,2,0:0:0:0:
98,284,40183,1,2,0:0:0:0:
98,284,40290,2,0,P|78:278|59:273,3,40,2|2|10|2,3:2|0:0|0:0|0:0,0:0:0:0:
149,357,40719,1,2,3:2:0:0:
149,357,40826,2,0,P|168:350|199:340,1,40,2|0,0:0|0:0,0:0:0:0:
245,287,41040,1,2,0:0:0:0:
245,287,41148,2,0,P|263:293|294:302,1,40,2|0,3:2|0:0,0:0:0:0:
343,372,41362,2,0,P|362:365|393:355,1,40,10|0,0:0|0:0,0:0:0:0:
498,277,41576,6,0,P|485:231|465:143,1,120,2|0,3:2|0:0,0:0:0:0:
455,153,42005,2,0,P|464:118|474:72,1,80,2|8,3:2|0:0,0:0:0:0:
269,105,42433,2,0,P|281:143|292:181,1,80,2|2,3:2|0:0,0:0:0:0:
308,227,42755,1,8,0:0:0:0:
308,227,42862,1,2,3:2:0:0:
372,86,43076,1,10,0:0:0:0:
203,0,43290,5,10,0:0:0:0:
203,0,43505,1,2,0:0:0:0:
112,82,43719,1,2,3:2:0:0:
192,161,43933,1,2,3:2:0:0:
38,254,44148,1,2,3:2:0:0:
152,349,44362,5,0,3:0:0:0:
309,203,44576,2,0,P|299:253|289:307,1,96,8|0,0:0|0:0,0:0:0:0:
313,339,45005,6,0,P|340:296|424:312,1,120,2|0,3:2|0:0,0:0:0:0:
427,307,45433,2,0,P|412:266|399:225,1,80,2|8,3:2|0:0,0:0:0:0:
346,84,45862,1,2,3:2:0:0:
346,84,46076,1,2,0:0:0:0:
418,138,46290,1,2,3:2:0:0:
496,96,46505,1,10,0:0:0:0:
282,169,46719,1,2,3:2:0:0:
282,169,48005,5,8,0:3:0:0:
140,40,48219,1,4,0:3:0:0:
140,40,48326,1,4,0:3:0:0:
140,40,48433,6,0,P|152:97|164:162,1,120,2|0,3:2|0:0,0:0:0:0:
172,173,48862,2,0,P|145:201|84:201,1,80,2|8,3:2|0:0,0:0:0:0:
0,146,49290,1,2,3:2:0:0:
0,146,49505,1,2,0:0:0:0:
71,93,49719,1,2,3:2:0:0:
166,185,49933,1,10,0:0:0:0:
64,293,50148,5,14,0:0:0:0:
64,293,50362,1,2,3:2:0:0:
148,356,50576,1,2,3:2:0:0:
251,244,50790,1,2,3:2:0:0:
345,384,51005,1,2,0:0:0:0:
474,257,51219,5,2,0:0:0:0:
474,257,51326,1,2,0:0:0:0:
474,257,51433,2,0,P|434:268|381:288,1,85.3333333333333,10|2,0:3|0:0,0:0:0:0:
366,296,51862,6,0,B|336:268|336:268|345:231|351:205,1,80,2|0,3:2|0:0,0:0:0:0:
404,175,52183,1,2,0:0:0:0:
404,175,52290,2,0,P|396:141|386:95,1,80,2|8,3:2|0:0,0:0:0:0:
370,21,52612,1,2,0:0:0:0:
370,21,52719,1,2,3:2:0:0:
486,102,52933,1,2,0:0:0:0:
366,4,53148,1,2,3:2:0:0:
258,150,53362,1,10,0:0:0:0:
258,150,53469,1,2,0:0:0:0:
258,150,53576,5,2,3:2:0:0:
153,68,53790,1,2,0:0:0:0:
59,203,54005,1,10,0:0:0:0:
57,199,54112,1,8,0:0:0:0:
56,194,54219,1,10,0:0:0:0:
55,191,54326,1,8,0:0:0:0:
54,186,54433,1,8,0:0:0:0:
87,158,54540,1,8,0:0:0:0:
130,150,54648,1,8,0:0:0:0:
171,169,54755,1,8,0:0:0:0:
195,205,54862,1,8,0:0:0:0:
195,248,54969,1,8,0:0:0:0:
174,286,55076,1,8,0:0:0:0:
408,186,55290,6,0,P|379:176|351:166,1,60.0000022888184,10|0,0:0|0:0,0:0:0:0:
347,158,55612,6,0,P|375:168|403:177,1,60.0000022888184,10|0,0:0|0:0,0:0:0:0:
210,7,55933,6,0,B|172:16|137:23|137:23|122:62|122:62|83:72|36:85,1,191.999994140625,10|0,0:0|0:0,0:0:0:0:
8,258,56576,6,0,P|16:281|25:307,1,48,4|0,0:3|0:0,0:0:0:0:
42,384,57005,6,0,B|121:366|78:307|176:289,1,155.999992858887,6|0,0:0|0:0,0:0:0:0:
246,282,57433,2,0,P|235:338|225:391,1,103.999995239258,10|2,0:0|0:0,0:0:0:0:
321,353,57755,1,8,0:0:0:0:
317,337,57862,1,2,3:2:0:0:
282,203,58076,1,2,3:2:0:0:
411,270,58290,1,10,0:0:0:0:
161,292,58505,6,0,L|190:121,1,155.999992858887,2|0,0:0|0:0,0:0:0:0:
196,84,58933,1,2,3:2:0:0:
296,218,59148,1,8,0:0:0:0:
51,171,59362,1,2,0:0:0:0:
51,171,59469,1,8,0:0:0:0:
51,171,59576,1,2,3:2:0:0:
161,292,59790,1,2,0:0:0:0:
50,347,60005,1,10,0:0:0:0:
11,97,60219,6,0,P|62:87|137:172,1,155.999992858887,2|2,0:0|0:0,0:0:0:0:
161,292,60648,2,0,P|135:278|99:261,1,51.999997619629,2|2,3:2|0:0,0:0:0:0:
271,173,60862,2,0,P|263:224|254:279,1,103.999995239258,10|0,0:0|0:0,0:0:0:0:
247,323,61183,1,8,0:0:0:0:
247,323,61290,1,2,3:2:0:0:
364,149,61505,1,2,3:2:0:0:
431,231,61719,1,10,0:0:0:0:
231,31,61933,6,0,B|197:74|197:74|210:130|222:181,1,155.999992858887,2|0,0:0|0:0,0:0:0:0:
235,222,62362,1,2,3:2:0:0:
369,137,62576,1,10,0:0:0:0:
208,311,62790,1,2,0:0:0:0:
208,311,62898,1,8,0:0:0:0:
208,311,63005,1,0,3:0:0:0:
137,189,63219,1,2,3:2:0:0:
0,342,63433,1,10,0:0:0:0:
121,277,63648,1,2,0:0:0:0:
252,384,63862,5,4,3:2:0:0:
396,219,64076,1,2,3:2:0:0:
375,340,64290,1,10,0:0:0:0:
396,219,64505,2,0,L|413:116,1,103.999995239258,2|0,0:0|3:0,0:0:0:0:
280,181,64933,5,2,3:2:0:0:
413,116,65148,1,10,0:0:0:0:
280,181,65362,2,0,P|224:163|160:141,1,103.999995239258,2|0,0:0|3:0,0:0:0:0:
25,96,65790,5,2,3:2:0:0:
71,238,66005,1,10,0:0:0:0:
25,96,66219,1,2,0:0:0:0:
25,96,66326,1,8,0:0:0:0:
25,96,66433,1,0,3:0:0:0:
152,163,66648,5,2,3:2:0:0:
265,43,66862,1,10,0:0:0:0:
332,106,67076,1,2,0:0:0:0:
128,69,67290,5,14,0:0:0:0:
412,119,67505,1,2,3:2:0:0:
230,283,67719,5,10,0:0:0:0:
254,122,67933,1,2,0:0:0:0:
254,122,68040,1,0,3:0:0:0:
254,122,68148,5,10,0:0:0:0:
331,278,68362,1,2,3:2:0:0:
254,122,68576,5,10,0:0:0:0:
158,336,68790,1,2,0:0:0:0:
51,184,68996,6,0,L|63:238,1,51.999997619629,14|0,3:2|0:0,0:0:0:0:
158,336,69207,2,0,L|170:282,1,51.999997619629,2|0,0:0|0:0,0:0:0:0:
254,122,69418,2,0,L|266:176,1,51.999997619629,10|8,3:2|0:0,0:0:0:0:
351,371,69629,2,0,L|363:317,1,51.999997619629,10|8,0:0|0:0,0:0:0:0:
493,164,69841,5,10,3:2:0:0:
458,187,69946,1,8,0:0:0:0:
416,182,70052,1,10,0:0:0:0:
384,154,70157,1,8,0:0:0:0:
364,106,70272,1,10,3:2:0:0:
323,64,70382,1,8,0:0:0:0:
268,45,70492,1,10,0:0:0:0:
207,60,70602,1,8,0:0:0:0:
176,114,70719,6,0,P|193:196|211:296,1,155.999992858887,6|0,3:2|0:0,0:0:0:0:
179,343,71147,2,0,P|144:322|127:259,1,103.999995239258,10|0,0:0|0:0,0:0:0:0:
272,164,71576,1,2,3:2:0:0:
367,275,71790,1,0,3:0:0:0:
485,100,72004,1,10,0:0:0:0:
272,164,72219,6,0,B|194:148|231:96|134:72,1,155.999992858887,2|0,0:0|0:0,0:0:0:0:
101,67,72647,1,2,3:2:0:0:
3,185,72861,1,8,0:0:0:0:
176,291,73076,2,0,P|215:270|270:245,1,103.999995239258,2|0,0:0|3:0,0:0:0:0:
148,166,73504,1,2,3:2:0:0:
100,326,73719,1,10,0:0:0:0:
0,98,73933,6,0,P|17:178|33:255,1,155.999992858887,2|2,0:0|0:0,0:0:0:0:
109,319,74361,2,0,P|102:348|95:384,1,51.999997619629,2|2,3:2|0:0,0:0:0:0:
137,233,74576,2,0,P|169:204|245:214,1,103.999995239258,10|0,0:0|0:0,0:0:0:0:
266,253,74897,1,0,0:0:0:0:
266,253,75004,1,2,3:2:0:0:
349,172,75219,1,2,3:2:0:0:
464,261,75433,1,10,0:0:0:0:
333,377,75647,6,0,P|343:322|361:218,1,155.999992858887,2|0,0:0|0:0,0:0:0:0:
349,172,76076,1,2,3:2:0:0:
258,297,76290,1,10,0:0:0:0:
464,261,76504,2,0,P|450:210|437:160,1,103.999995239258,2|0,0:0|3:0,0:0:0:0:
400,0,76933,1,2,3:2:0:0:
280,104,77147,1,10,0:0:0:0:
197,44,77361,1,2,0:0:0:0:
415,83,77576,5,4,3:2:0:0:
288,198,77790,1,2,3:2:0:0:
197,44,78004,1,10,0:0:0:0:
288,198,78219,2,0,P|343:184|412:168,1,103.999995239258,2|0,0:0|3:0,0:0:0:0:
162,265,78647,5,2,3:2:0:0:
247,120,78861,1,10,0:0:0:0:
162,265,79076,2,0,P|110:251|45:236,1,103.999995239258,2|0,0:0|3:0,0:0:0:0:
283,361,79504,5,2,3:2:0:0:
201,192,79719,1,10,0:0:0:0:
283,361,79933,1,2,0:0:0:0:
283,361,80040,1,2,0:0:0:0:
283,361,80147,1,2,3:2:0:0:
394,166,80361,5,2,3:2:0:0:
300,242,80576,1,10,0:0:0:0:
472,310,80790,1,2,0:0:0:0:
456,96,81004,5,14,0:0:0:0:
390,251,81219,1,2,3:2:0:0:
317,58,81433,5,10,0:0:0:0:
394,230,81647,1,2,0:0:0:0:
183,119,81861,5,10,0:0:0:0:
390,209,82076,1,2,3:2:0:0:
146,281,82290,5,10,0:0:0:0:
378,191,82504,1,2,0:0:0:0:
57,170,82719,5,12,0:0:0:0:
290,242,82933,1,10,0:0:0:0:
47,364,83147,5,10,3:2:0:0:
41,344,83254,1,8,0:0:0:0:
35,324,83361,1,10,0:0:0:0:
29,304,83469,1,8,0:0:0:0:
23,284,83576,1,8,3:2:0:0:
19,331,83683,1,8,0:0:0:0:
46,370,83790,1,10,0:0:0:0:
92,382,83897,1,8,0:0:0:0:
137,367,84004,1,10,3:2:0:0:
172,318,84111,1,8,0:0:0:0:
225,290,84219,1,10,0:0:0:0:
284,294,84326,1,8,0:0:0:0:
330,340,84433,6,0,P|321:304|302:200,1,132.00000402832,6|0,3:2|0:0,0:0:0:0:
295,157,84861,1,10,0:0:0:0:
474,100,85076,2,0,P|503:137|498:188,1,88.000002685547,2|0,3:2|3:0,0:0:0:0:
418,331,85504,1,10,0:0:0:0:
418,331,85933,6,0,P|380:317|321:297,1,88.000002685547,10|0,0:0|3:0,0:0:0:0:
154,252,86361,1,2,3:2:0:0:
320,162,86576,1,10,0:0:0:0:
230,307,86790,1,2,0:0:0:0:
58,211,87004,6,0,P|46:242|49:279,1,60.0000022888184,14|0,0:0|0:0,0:0:0:0:
235,189,87326,6,0,P|219:167|172:150,1,60.0000022888184,14|0,0:0|0:0,0:0:0:0:
149,344,87647,5,14,0:0:0:0:
256,192,87754,12,0,90433,0:0:0:0:
