osu file format v14

[General]
AudioFilename: audio.mp3
AudioLeadIn: 0
PreviewTime: 54364
Countdown: 0
SampleSet: Normal
StackLeniency: 0.3
Mode: 0
LetterboxInBreaks: 0
WidescreenStoryboard: 0

[Editor]
DistanceSpacing: 1.2
BeatDivisor: 4
GridSize: 16
TimelineZoom: 1

[Metadata]
Title:Centimeter (TV Size)
TitleUnicode:センチメートル (TV Size)
Artist:the peggies
ArtistUnicode:the peggies
Creator:Momochikun
Version:Insane
Source:彼女、お借りします
Tags:Kanojo, Okarishimasu opening rent a girlfriend japanese anime pop
BeatmapID:2529907
BeatmapSetID:1215748

[Difficulty]
HPDrainRate:7
CircleSize:4
OverallDifficulty:8
ApproachRate:8.3
SliderMultiplier:1.6
SliderTickRate:1

[Events]
//Background and Video events
0,0,"BG.jpg",0,0
Video,-3400,"video.mp4"
//Break Periods
//Storyboard Layer 0 (Background)
//Storyboard Layer 1 (Fail)
//Storyboard Layer 2 (Pass)
//Storyboard Layer 3 (Foreground)
//Storyboard Layer 4 (Overlay)
//Storyboard Sound Samples

[TimingPoints]
1922,428.571428571429,4,2,1,45,1,0
1922,-125,4,2,1,45,0,0
7922,-111.111111111111,4,2,1,50,0,0
8779,-111.111111111111,4,2,1,60,0,0
12207,-111.111111111111,4,1,1,45,0,0
12850,-111.111111111111,4,1,1,55,0,0
13279,-111.111111111111,4,1,1,65,0,0
13707,-111.111111111111,4,1,1,75,0,0
14029,-111.111111111111,4,1,1,40,0,0
15636,-100,4,2,1,60,0,0
21636,-117.647058823529,4,2,1,60,0,0
21957,-133.333333333333,4,2,1,60,0,0
22493,-111.111111111111,4,1,1,40,0,0
36207,-100,4,1,1,50,0,0
44779,-100,4,2,1,50,0,0
46493,-100,4,1,1,50,0,0
49922,-111.111111111111,4,1,1,55,0,0
52493,-111.111111111111,4,1,1,60,0,0
55064,-100,4,1,1,65,0,1
67064,-100,4,1,1,45,0,1
67922,-100,4,1,1,50,0,1
68350,-100,4,1,1,55,0,1
68672,-100,4,1,1,60,0,0
68779,-100,4,1,1,65,0,1
82493,-100,4,1,1,60,0,0
85814,-100,4,2,1,30,0,0

[Colours]
Combo1 : 203,152,152
Combo2 : 255,166,255
Combo3 : 210,210,210
Combo4 : 151,151,255

[HitObjects]
164,86,1922,6,0,P|230:49|288:58,1,128,4|0,0:0|0:0,0:0:0:0:
340,277,2779,2,0,P|284:248|256:192,1,128,2|8,0:0|0:0,0:0:0:0:
256,192,3636,6,0,L|235:323,1,128,4|0,0:0|1:0,0:0:0:0:
340,139,4279,2,0,L|329:75,1,64,8|0,1:0|1:0,0:0:0:0:
359,247,4707,1,8,1:3:0:0:
256,192,4922,2,0,P|200:166|131:178,1,128,8|4,1:3|0:0,0:0:0:0:
58,295,5564,5,2,0:0:0:0:
20,213,5779,2,0,P|29:171|49:153,1,64,4|4,1:3|1:3,1:3:0:0:
9,74,6207,2,0,P|47:53|74:55,1,64,4|0,0:0|1:0,0:0:0:0:
154,76,6636,1,2,1:0:0:0:
256,144,6850,6,0,P|323:153|385:111,1,128,4|2,0:0|1:0,0:0:0:0:
303,72,7493,1,8,0:0:0:0:
343,226,7707,1,0,0:0:0:0:
135,149,7922,6,0,L|40:177,1,71.9999978027344,8|0,1:0|0:0,0:0:0:0:
365,328,8350,2,0,L|433:307,1,71.9999978027344,8|0,1:0|0:0,0:0:0:0:
502,197,8779,5,4,0:0:0:0:
441,116,8993,2,0,P|450:76|479:48,2,71.9999978027344,0|0|0,0:0|1:0|0:0,0:0:0:0:
502,197,9636,1,0,1:0:0:0:
374,253,9850,2,0,P|332:251|299:228,1,71.9999978027344,0|0,0:0|1:0,0:0:0:0:
173,151,10279,1,0,0:0:0:0:
220,75,10493,6,0,P|262:77|295:100,1,71.9999978027344,0|0,1:0|0:0,0:0:0:0:
358,174,10922,1,0,1:0:0:0:
256,320,11136,2,0,P|185:329|123:295,1,143.999995605469
40,243,11779,2,0,L|23:333,1,71.9999978027344,0|0,1:0|0:0,0:0:0:0:
195,202,12207,5,4,0:0:0:0:
74,168,12422,1,0,0:0:0:0:
123,295,12636,5,0,0:0:0:0:
194,92,12850,1,0,0:0:0:0:
74,168,13064,5,0,0:0:0:0:
303,219,13279,1,0,0:0:0:0:
217,65,13493,5,0,0:0:0:0:
139,256,13707,1,0,0:0:0:0:
350,358,13922,5,0,0:0:0:0:
256,192,14029,12,8,15207,0:0:0:0:
208,320,15636,6,0,P|168:325|117:294,1,80,4|0,1:2|1:0,0:0:0:0:
50,246,16064,1,8,0:0:0:0:
163,143,16279,2,0,L|145:221,1,80,0|0,1:0|1:0,0:0:0:0:
309,96,16707,2,0,L|291:18,1,80,8|0,0:0|0:0,0:0:0:0:
350,198,17136,6,0,B|392:185|392:185|446:247|525:201,1,160,8|0,0:0|1:0,0:0:0:0:
476,99,17779,1,8,0:0:0:0:
392,30,17993,1,0,1:0:0:0:
233,126,18207,5,8,0:0:0:0:
350,198,18422,1,8,0:3:0:0:
195,118,18636,1,4,0:3:0:0:
368,227,18850,1,4,0:3:0:0:
153,109,19064,6,0,P|135:150|137:195,1,80,4|0,0:0|1:0,0:0:0:0:
109,273,19493,1,8,0:0:0:0:
27,320,19707,2,0,P|107:307|176:347,1,160,0|8,1:0|0:0,0:0:0:0:
277,315,20350,1,0,0:0:0:0:
212,138,20564,1,8,0:0:0:0:
212,138,20993,5,0,1:0:0:0:
173,344,21207,1,12,0:0:0:0:
319,234,21422,1,0,1:0:0:0:
212,138,21636,6,0,P|218:94|224:50,1,68.0000012969971,8|0,1:0|2:0,0:0:0:0:
266,52,21957,6,0,B|320:66|320:66|348:59|348:59|403:76,1,120.000004577637,8|0,1:0|0:0,0:0:0:0:
403,86,22493,6,0,P|429:123|433:148,1,71.9999978027344,4|0,0:2|1:0,0:0:0:0:
345,256,22922,2,0,P|319:219|315:194,1,71.9999978027344,8|0,0:0|1:0,0:0:0:0:
271,118,23350,1,0,0:0:0:0:
206,237,23564,2,0,P|167:270|78:284,1,143.999995605469,8|8,0:0|0:0,0:0:0:0:
0,193,24207,6,0,P|34:170|82:167,1,71.9999978027344
150,178,24636,1,8,0:0:0:0:
85,76,24850,2,0,P|110:47|154:38,1,71.9999978027344
234,77,25279,1,8,0:0:0:0:
327,115,25493,1,8,0:0:0:0:
412,61,25707,1,8,0:0:0:0:
510,38,25922,6,0,L|497:115,1,71.9999978027344
455,184,26350,1,8,0:0:0:0:
327,115,26564,2,0,P|257:110|191:164,1,143.999995605469,0|8,0:0|0:0,0:0:0:0:
211,258,27207,2,0,P|249:245|273:216,1,71.9999978027344,0|8,2:0|0:0,0:0:0:0:
347,297,27636,6,0,P|327:344|336:391,1,71.9999978027344
433,247,28064,1,8,0:0:0:0:
269,221,28279,2,0,L|125:269,2,143.999995605469,0|8|8,0:0|0:0|0:0,0:0:0:0:
385,175,29350,5,0,0:0:0:0:
341,100,29564,1,0,0:0:0:0:
389,27,29779,1,8,0:0:0:0:
251,87,29993,1,0,0:0:0:0:
173,49,30207,2,0,P|138:51|103:78,1,71.9999978027344,0|8,0:0|0:0,0:0:0:0:
49,204,30636,2,0,P|84:202|119:175,1,71.9999978027344,0|8,2:0|0:0,0:0:0:0:
239,221,31064,6,0,P|259:250|261:285,1,71.9999978027344
183,324,31493,1,8,0:0:0:0:
113,181,31707,2,0,P|100:114|166:62,1,143.999995605469,0|8,0:0|0:0,0:0:0:0:
280,106,32350,1,8,0:0:0:0:
201,167,32564,1,8,0:0:0:0:
242,17,32779,5,0,0:0:0:0:
280,106,32993,1,0,0:0:0:0:
360,75,33207,2,0,L|435:98,1,71.9999978027344,8|0,0:0|2:0,0:0:0:0:
300,198,33636,2,0,L|276:285,1,71.9999978027344
135,175,34064,2,0,P|120:143|127:102,1,71.9999978027344,8|0,0:0|0:0,0:0:0:0:
189,297,34493,5,8,0:0:0:0:
236,61,34707,1,0,0:0:0:0:
135,175,34922,1,0,0:0:0:0:
392,251,35136,1,8,0:0:0:0:
392,251,35564,1,0,2:0:0:0:
399,267,35672,1,0,0:0:0:0:
406,283,35779,1,8,0:0:0:0:
256,352,35993,5,0,0:0:0:0:
256,352,36100,1,0,0:0:0:0:
256,352,36207,2,0,L|174:331,1,80,4|0,0:0|0:0,0:0:0:0:
100,170,36636,2,0,L|177:189,1,80,0|8,0:0|0:0,0:0:0:0:
208,170,36957,1,0,0:0:0:0:
208,170,37064,2,0,P|230:130|228:94,1,80
399,215,37493,2,0,P|377:255|379:291,1,80,0|8,0:0|0:0,0:0:0:0:
401,322,37814,5,0,0:0:0:0:
401,322,37922,2,0,P|359:347|307:345,1,80
205,264,38350,1,0,0:0:0:0:
175,259,38457,1,0,0:0:0:0:
146,266,38564,1,8,0:0:0:0:
121,282,38671,1,0,0:0:0:0:
104,307,38778,1,0,0:0:0:0:
87,332,38886,2,0,P|58:282|69:211,1,120
164,51,39422,1,8,0:0:0:0:
78,135,39636,6,0,L|-5:118,1,80
244,23,40064,2,0,P|247:66|223:104,1,80,0|8,0:0|0:0,0:0:0:0:
207,130,40386,1,0,0:0:0:0:
207,130,40493,2,0,P|206:179|231:214,1,80
404,167,40922,2,0,P|441:166|483:190,1,80,0|8,0:0|0:0,0:0:0:0:
256,336,41350,5,4,0:0:0:0:
305,106,41564,1,2,0:0:0:0:
221,204,41779,1,0,0:0:0:0:
353,252,41993,1,2,0:0:0:0:
216,67,42207,1,2,0:0:0:0:
391,122,42422,5,0,0:0:0:0:
169,320,42636,1,8,0:0:0:0:
409,295,43064,6,0,P|359:304|297:273,1,120,4|0,0:0|0:0,0:0:0:0:
239,219,43493,2,0,L|158:237,1,80,0|8,0:0|0:0,0:0:0:0:
160,236,43814,1,0,0:0:0:0:
160,236,43922,1,0,0:0:0:0:
34,115,44136,2,0,L|112:97,1,80
206,47,44564,1,8,0:0:0:0:
348,160,44779,6,0,P|379:186|387:229,1,80,0|2,1:0|0:0,0:0:0:0:
376,249,45100,1,0,0:0:0:0:
369,276,45207,2,0,L|358:333,3,40
288,346,45636,2,0,P|245:333|189:342,1,80,2|0,0:0|0:0,0:0:0:0:
183,342,45957,1,0,0:0:0:0:
156,351,46064,1,8,0:3:0:0:
72,253,46279,1,4,0:3:0:0:
213,169,46493,6,0,P|240:120|222:45,1,120,4|0,0:0|0:0,0:0:0:0:
160,24,46922,2,0,L|78:48,1,80,0|8,0:0|0:0,0:0:0:0:
329,115,47350,2,0,L|405:92,1,80
437,119,47672,1,0,0:0:0:0:
437,119,47779,2,0,P|420:162|414:202,1,80,0|8,0:0|0:0,0:0:0:0:
440,352,48207,5,12,0:0:0:0:
347,252,48422,1,0,0:0:0:0:
165,303,48636,1,0,0:0:0:0:
179,127,48850,1,0,0:0:0:0:
66,179,49064,1,0,2:0:0:0:
2,99,49279,5,0,2:0:0:0:
32,272,49493,1,4,0:3:0:0:
32,272,49922,6,0,P|79:303|146:300,1,107.999996704102,4|0,0:2|2:0,0:0:0:0:
156,287,50350,2,0,P|190:269|230:269,1,71.9999978027344
370,370,50779,2,0,P|337:340|332:310,1,71.9999978027344,4|0,0:2|0:0,0:0:0:0:
285,178,51207,2,0,L|269:99,1,71.9999978027344
270,107,51529,1,0,0:0:0:0:
270,107,51636,1,4,0:2:0:0:
136,12,51850,6,0,L|121:82,1,71.9999978027344
163,237,52279,1,0,0:0:0:0:
197,244,52386,1,0,0:0:0:0:
232,236,52493,1,0,0:0:0:0:
264,219,52600,1,0,0:0:0:0:
297,206,52707,1,0,0:0:0:0:
333,207,52814,1,0,0:0:0:0:
367,218,52922,2,0,L|391:175,1,35.9999989013672
466,250,53136,2,0,L|477:309,1,35.9999989013672
401,344,53350,6,0,B|359:357|359:357|318:342|285:359,2,107.999996704102
401,344,54636,5,4,0:3:0:0:
463,168,54850,1,0,2:0:0:0:
285,230,55064,6,0,P|244:231|196:201,1,80,4|0,0:2|0:0,0:0:0:0:
30,108,55493,2,0,P|71:107|119:137,1,80,8|0,0:0|0:0,0:0:0:0:
132,147,55814,1,0,0:0:0:0:
132,147,55922,2,0,L|111:224,1,80,2|0,0:0|0:0,0:0:0:0:
42,328,56350,1,8,0:0:0:0:
247,357,56564,6,0,B|289:333|289:333|359:365|405:311,1,160,2|2,2:0|0:0,0:0:0:0:
467,243,57207,1,8,0:0:0:0:
352,110,57422,1,2,0:0:0:0:
352,110,57529,2,0,P|315:168|332:240,1,120,8|0,0:0|0:0,0:0:0:0:
474,85,58064,2,0,P|497:46|486:-6,1,80,8|0,0:0|2:0,0:0:0:0:
329,77,58493,6,0,L|244:100,1,80,2|0,0:0|0:0,0:0:0:0:
96,166,58922,1,8,0:0:0:0:
203,231,59136,1,0,2:0:0:0:
158,103,59350,1,2,0:0:0:0:
191,265,59564,1,0,0:0:0:0:
315,214,59779,1,8,0:0:0:0:
96,166,59993,6,0,P|44:229|54:314,1,160,2|2,2:0|0:0,0:0:0:0:
191,265,60636,1,8,0:0:0:0:
135,96,60850,1,0,0:0:0:0:
118,86,60957,1,0,0:0:0:0:
100,80,61064,2,0,P|52:92|23:117,1,80,2|0,0:0|0:0,0:0:0:0:
233,38,61493,2,0,P|190:12|152:9,1,80,12|0,0:2|2:0,0:0:0:0:
256,192,61922,5,4,0:2:0:0:
364,118,62136,1,0,0:0:0:0:
444,171,62350,2,0,L|420:267,1,80,8|2,0:0|2:0,0:0:0:0:
256,192,62779,5,0,0:0:0:0:
132,148,62993,1,0,0:0:0:0:
128,52,63207,2,0,L|219:14,1,80,8|2,0:0|2:0,0:0:0:0:
256,192,63636,5,0,0:0:0:0:
240,322,63850,1,0,0:0:0:0:
148,347,64064,2,0,L|91:266,1,80,8|2,0:0|2:0,0:0:0:0:
65,144,64493,5,0,0:0:0:0:
195,116,64707,1,0,0:0:0:0:
256,192,64922,2,0,L|339:211,1,80,12|2,0:2|2:0,0:0:0:0:
211,317,65350,5,12,0:2:0:0:
313,116,65564,1,0,0:0:0:0:
414,196,65779,1,8,0:0:0:0:
204,81,65993,5,0,0:0:0:0:
367,289,66207,1,8,0:0:0:0:
190,191,66422,1,0,0:0:0:0:
273,26,66636,5,12,0:2:0:0:
306,222,66850,1,0,2:0:0:0:
68,282,67064,6,0,L|12:301,3,40,12|0|0|0,0:0|0:0|0:0|0:0,0:0:0:0:
190,346,67493,2,0,L|227:333,3,40,8|0|0|0,0:0|0:0|0:0|0:0,0:0:0:0:
152,235,67922,5,8,0:0:0:0:
157,212,68029,1,0,0:0:0:0:
162,192,68136,1,0,0:0:0:0:
168,172,68243,1,0,0:0:0:0:
174,150,68350,5,8,0:0:0:0:
204,126,68457,1,8,0:0:0:0:
241,113,68564,1,8,0:0:0:0:
280,110,68672,1,8,0:0:0:0:
317,123,68779,6,0,P|372:131|441:88,1,120,4|0,0:2|2:0,0:0:0:0:
457,81,69207,2,0,P|440:127|441:160,1,80,8|0,0:0|2:0,0:0:0:0:
456,313,69636,1,2,1:0:0:0:
352,202,69850,1,0,0:0:0:0:
456,313,70064,1,8,0:0:0:0:
252,352,70279,6,0,B|215:364|215:364|191:353|191:353|131:368|91:331,1,160,2|2,2:0|0:0,0:0:0:0:
37,242,70922,1,8,0:0:0:0:
184,164,71136,2,0,P|253:172|332:124,1,160,2|2,2:0|0:0,0:0:0:0:
270,17,71779,2,0,P|243:56|242:100,1,80,8|2,0:0|2:0,0:0:0:0:
324,267,72207,6,0,L|403:248,1,80,0|2,0:0|0:0,0:0:0:0:
184,164,72636,2,0,L|106:182,1,80,8|0,0:0|2:0,0:0:0:0:
233,282,73064,2,0,P|219:322|216:367,1,80,2|0,0:0|0:0,0:0:0:0:
345,187,73493,1,8,0:0:0:0:
153,81,73707,6,0,P|74:81|5:138,1,160,2|0,2:0|0:0,0:0:0:0:
106,181,74350,1,8,0:0:0:0:
231,125,74564,2,0,P|260:87|260:44,1,80,2|0,2:0|0:0,0:0:0:0:
106,181,74993,1,0,0:0:0:0:
135,267,75207,1,8,0:0:0:0:
207,322,75422,1,0,2:0:0:0:
368,191,75636,5,4,0:2:0:0:
294,284,75850,1,0,0:0:0:0:
390,370,76064,1,8,0:0:0:0:
190,200,76279,2,0,P|131:226|93:318,1,160,2|2,2:0|0:0,0:0:0:0:
303,331,76922,1,0,0:0:0:0:
212,106,77136,6,0,P|137:66|53:82,1,160,2|2,2:0|0:0,0:0:0:0:
127,230,77779,1,8,0:0:0:0:
391,281,77993,2,0,P|446:231|441:132,1,160,2|2,2:0|0:0,0:0:0:0:
374,50,78636,1,8,0:0:0:0:
472,119,78850,1,2,2:0:0:0:
256,96,79064,5,12,0:2:0:0:
317,330,79279,1,0,0:0:0:0:
146,202,79493,1,8,0:0:0:0:
343,148,79707,5,0,0:0:0:0:
184,292,79922,1,8,0:0:0:0:
232,47,80136,1,0,0:0:0:0:
358,240,80350,5,12,0:2:0:0:
153,124,80564,1,0,2:0:0:0:
339,82,80779,6,0,L|387:65,3,40
409,154,81207,2,0,L|419:204,3,40
368,271,81636,5,8,0:0:0:0:
336,287,81743,1,0,0:0:0:0:
301,296,81850,1,0,0:0:0:0:
264,295,81957,1,0,0:0:0:0:
229,287,82064,1,8,0:0:0:0:
194,279,82171,1,8,0:0:0:0:
158,279,82278,1,8,0:0:0:0:
123,288,82385,1,8,0:0:0:0:
90,304,82493,6,0,B|67:254|88:196|88:196|56:155,1,160,4|8,1:2|0:0,0:0:0:0:
67,55,83136,2,0,L|160:28,1,80
258,118,83564,2,0,L|345:144,1,80,8|0,0:0|2:0,0:0:0:0:
469,298,83993,6,0,P|405:312|316:268,1,160,8|0,0:0|0:0,0:0:0:0:
258,118,84636,1,8,0:0:0:0:
390,211,84850,1,0,1:0:0:0:
209,345,85064,5,12,0:2:0:0:
334,140,85386,1,8,0:0:0:0:
512,258,85707,1,8,0:0:0:0:
256,192,85814,12,0,88707,0:0:0:0:
