osu file format v14

[General]
AudioFilename: audio.mp3
AudioLeadIn: 0
PreviewTime: 54364
Countdown: 0
SampleSet: Soft
StackLeniency: 0.3
Mode: 0
LetterboxInBreaks: 0
WidescreenStoryboard: 0

[Editor]
DistanceSpacing: 1.2
BeatDivisor: 4
GridSize: 16
TimelineZoom: 1

[Metadata]
Title:Centimeter (TV Size)
TitleUnicode:センチメートル (TV Size)
Artist:the peggies
ArtistUnicode:the peggies
Creator:Momochikun
Version:Hard
Source:彼女、お借りします
Tags:Kanojo, Okarishimasu opening rent a girlfriend japanese anime pop
BeatmapID:2531804
BeatmapSetID:1215748

[Difficulty]
HPDrainRate:5
CircleSize:4
OverallDifficulty:6
ApproachRate:7
SliderMultiplier:1.4
SliderTickRate:1

[Events]
//Background and Video events
0,0,"BG.jpg",0,0
Video,-3400,"video.mp4"
//Break Periods
//Storyboard Layer 0 (Background)
//Storyboard Layer 1 (Fail)
//Storyboard Layer 2 (Pass)
//Storyboard Layer 3 (Foreground)
//Storyboard Layer 4 (Overlay)
//Storyboard Sound Samples

[TimingPoints]
1922,428.571428571429,4,2,1,45,1,0
1922,-117.647058823529,4,2,1,45,0,0
7922,-105.263157894737,4,2,1,50,0,0
8779,-105.263157894737,4,2,1,60,0,0
12207,-105.263157894737,4,1,1,45,0,0
12850,-105.263157894737,4,1,1,55,0,0
13279,-105.263157894737,4,1,1,65,0,0
13707,-105.263157894737,4,1,1,75,0,0
14029,-105.263157894737,4,1,1,40,0,0
15636,-100,4,2,1,60,0,0
22493,-111.111111111111,4,1,1,40,0,0
36207,-100,4,1,1,50,0,0
44779,-100,4,2,1,50,0,0
46493,-100,4,1,1,50,0,0
49922,-111.111111111111,4,1,1,55,0,0
55064,-100,4,1,1,65,0,1
67064,-100,4,1,1,45,0,1
67922,-100,4,1,1,50,0,1
68350,-100,4,1,1,55,0,1
68672,-100,4,1,1,60,0,0
68779,-100,4,1,1,65,0,1
82493,-100,4,1,1,60,0,0
85814,-100,4,2,1,30,0,0

[Colours]
Combo1 : 203,152,152
Combo2 : 255,166,255
Combo3 : 210,210,210
Combo4 : 151,151,255

[HitObjects]
80,128,1922,6,0,B|55:195|55:195|66:255,1,119.000002269745,4|0,0:0|0:0,0:0:0:0:
175,364,2779,2,0,P|213:324|209:257,1,119.000002269745,2|8,0:0|0:0,0:0:0:0:
181,185,3422,1,0,0:0:0:0:
181,185,3636,2,0,P|230:218|301:213,1,119.000002269745,4|0,0:0|1:0,0:0:0:0:
246,109,4279,2,0,P|197:76|126:81,1,119.000002269745,8|8,1:0|1:3,0:0:0:0:
69,29,4922,6,0,P|42:85|56:151,1,119.000002269745,8|4,1:3|0:0,0:0:0:0:
67,220,5564,1,2,0:0:0:0:
67,220,5779,2,0,L|50:290,1,59.5000011348725,0|0,1:0|1:3,0:0:0:0:
141,307,6207,2,0,L|155:370,1,59.5000011348725,4|0,0:0|1:0,0:0:0:0:
240,325,6636,1,4,1:3:0:0:
326,347,6850,1,4,0:0:0:0:
338,169,7279,5,2,1:0:0:0:
309,90,7493,1,8,0:0:0:0:
380,47,7707,1,0,0:0:0:0:
309,90,7922,2,0,L|243:71,1,66.4999982242585,8|0,1:0|0:0,0:0:0:0:
84,104,8350,2,0,L|147:122,1,66.4999982242585,8|0,1:0|0:0,0:0:0:0:
256,192,8779,5,4,0:0:0:0:
187,244,8993,2,0,P|175:276|175:318,1,66.4999982242585,0|0,0:0|1:0,0:0:0:0:
230,373,9422,2,0,P|177:350|87:363,1,132.999996448517,0|0,0:0|0:0,0:0:0:0:
25,255,10064,1,0,1:0:0:0:
99,210,10279,2,0,P|112:169|59:97,1,132.999996448517,0|0,0:0|0:0,0:0:0:0:
70,11,10922,1,0,1:0:0:0:
166,46,11136,2,0,B|218:30|218:30|242:39|242:39|305:21,1,132.999996448517,0|0,0:0|0:0,0:0:0:0:
436,68,11779,2,0,L|364:90,1,66.4999982242585,0|0,1:0|0:0,0:0:0:0:
286,177,12207,6,0,P|325:195|358:191,1,66.4999982242585,4|0,0:0|0:0,0:0:0:0:
256,288,12636,2,0,P|220:302|197:332,1,66.4999982242585,0|0,0:0|0:0,0:0:0:0:
356,360,13064,2,0,P|374:326|373:288,1,66.4999982242585,0|0,0:0|0:0,0:0:0:0:
266,115,13493,2,0,P|268:147|285:176,1,66.4999982242585,0|0,0:0|0:0,0:0:0:0:
447,224,13922,5,0,0:0:0:0:
447,224,15207,1,8,0:0:0:0:
447,224,15636,6,0,L|381:249,1,70,4|0,1:2|0:0,0:0:0:0:
315,197,16064,1,8,0:0:0:0:
371,323,16279,2,0,P|316:331|235:282,1,140,0|8,1:0|0:0,0:0:0:0:
189,228,16922,1,0,0:0:0:0:
109,256,17136,6,0,P|90:196|132:118,1,140,8|0,0:0|1:0,0:0:0:0:
193,87,17779,2,0,P|204:50|192:14,1,70,8|0,0:0|1:0,0:0:0:0:
284,140,18207,2,0,P|273:177|285:213,2,70,8|8|4,0:0|0:3|0:3,0:0:0:0:
376,109,18850,1,4,0:3:0:0:
362,226,19064,6,0,B|319:241|319:241|293:233|293:233|226:262,1,140,4|8,0:0|0:0,0:0:0:0:
168,315,19707,2,0,P|126:305|103:283,1,70,0|0,1:0|0:0,0:0:0:0:
23,300,20136,2,0,P|0:263|0:231,1,70,8|0,0:0|0:0,0:0:0:0:
16,155,20564,6,0,L|161:109,1,140,8|0,0:0|1:0,0:0:0:0:
207,52,21207,2,0,L|296:73,1,70,12|0,0:0|1:0,0:0:0:0:
365,33,21636,2,0,P|387:86|367:147,1,105,8|8,1:0|1:0,0:0:0:0:
256,352,22493,5,4,0:2:0:0:
201,290,22707,1,0,1:0:0:0:
228,212,22922,2,0,P|183:191|147:194,1,62.9999980773926,8|0,0:0|1:0,0:0:0:0:
90,208,23350,1,0,0:0:0:0:
105,102,23564,2,0,B|146:90|146:90|181:121|242:99,1,125.999996154785,8|8,0:0|0:0,0:0:0:0:
325,136,24207,2,0,L|309:68,2,62.9999980773926,0|0|8,0:0|0:0|0:0,0:0:0:0:
387,247,24850,2,0,P|336:251|268:201,1,125.999996154785,0|8,0:0|0:0,0:0:0:0:
203,171,25493,1,8,0:0:0:0:
145,229,25707,1,8,0:0:0:0:
186,300,25922,6,0,L|170:364,1,62.9999980773926,0|0,0:0|0:0,0:0:0:0:
81,315,26350,2,0,L|65:253,1,62.9999980773926,8|0,0:0|0:0,0:0:0:0:
49,173,26779,1,0,0:0:0:0:
120,90,26993,2,0,P|164:85|249:130,1,125.999996154785,8|8,0:0|0:0,0:0:0:0:
232,214,27636,2,0,P|282:193|314:193,1,62.9999980773926,0|0,0:0|0:0,0:0:0:0:
369,213,28064,1,8,0:0:0:0:
429,268,28279,2,0,L|403:137,2,125.999996154785,0|8|8,0:0|0:0|0:0,0:0:0:0:
361,350,29350,6,0,L|288:329,1,62.9999980773926,0|0,0:0|0:0,0:0:0:0:
251,232,29779,2,0,L|311:249,1,62.9999980773926,8|0,0:0|0:0,0:0:0:0:
201,308,30207,1,0,0:0:0:0:
201,308,30422,2,0,P|159:266|168:195,1,125.999996154785,8|8,0:0|0:0,0:0:0:0:
201,109,31064,2,0,P|187:78|160:60,1,62.9999980773926,0|0,0:0|0:0,0:0:0:0:
95,142,31493,1,8,0:0:0:0:
162,203,31707,2,0,B|201:222|201:222|243:195|291:213,1,125.999996154785,0|8,0:0|0:0,0:0:0:0:
382,316,32350,2,0,P|347:311|322:285,1,62.9999980773926,8|8,0:0|0:0,0:0:0:0:
353,169,32779,5,0,0:0:0:0:
386,94,32993,1,0,0:0:0:0:
319,45,33207,2,0,L|243:68,1,62.9999980773926,8|0,0:0|2:0,0:0:0:0:
182,33,33636,2,0,L|136:100,1,62.9999980773926,0|0,0:0|0:0,0:0:0:0:
78,130,34064,2,0,L|93:210,1,62.9999980773926,8|0,0:0|0:0,0:0:0:0:
109,278,34493,1,8,0:0:0:0:
188,235,34707,1,0,0:0:0:0:
272,260,34922,1,0,0:0:0:0:
311,338,35136,1,8,0:0:0:0:
311,338,35564,2,0,L|300:376,2,31.4999990386963,0|0|8,2:0|0:0|0:0,0:0:0:0:
390,249,35993,5,0,0:0:0:0:
390,249,36100,1,0,0:0:0:0:
390,249,36207,2,0,B|411:199|383:160|383:160|394:134|394:111,1,140,4|0,0:0|0:0,0:0:0:0:
365,35,36850,1,8,0:0:0:0:
282,140,37064,2,0,P|221:152|139:101,1,140
56,130,37707,6,0,P|47:173|75:212,1,70,8|0,0:0|0:0,0:0:0:0:
135,275,38136,1,0,0:0:0:0:
135,275,38243,1,0,0:0:0:0:
135,275,38350,2,0,L|174:262,3,35,0|0|8|0,0:0|0:0|0:0|0:0,0:0:0:0:
208,250,38779,2,0,L|241:261,3,35,0|0|0|0,0:0|0:0|0:0|0:0,0:0:0:0:
279,278,39207,2,0,L|365:251,1,70,0|8,0:0|0:0,0:0:0:0:
427,234,39636,6,0,P|440:178|403:101,1,140,0|0,0:0|0:0,0:0:0:0:
344,49,40279,1,8,0:0:0:0:
307,124,40493,2,0,P|266:125|235:101,1,70,0|0,0:0|0:0,0:0:0:0:
162,37,40922,2,0,P|121:47|92:82,1,70,0|8,0:0|0:0,0:0:0:0:
66,141,41350,6,0,L|52:224,1,70,4|2,0:0|0:0,0:0:0:0:
162,299,41779,2,0,L|173:229,1,70,0|2,0:0|0:0,0:0:0:0:
233,170,42207,1,2,0:0:0:0:
291,251,42422,1,0,0:0:0:0:
384,223,42636,1,8,0:0:0:0:
384,223,43064,6,0,P|421:260|419:347,1,140,4|0,0:0|0:0,0:0:0:0:
341,372,43707,1,8,0:0:0:0:
285,285,43922,2,0,P|247:289|214:318,1,70,0|0,0:0|0:0,0:0:0:0:
116,274,44350,2,0,P|97:236|108:193,1,70,0|8,0:0|0:0,0:0:0:0:
101,107,44779,5,0,1:0:0:0:
168,50,44993,1,2,0:0:0:0:
168,50,45100,1,0,0:0:0:0:
168,50,45207,2,0,L|208:38,3,35,0|0|0|0,0:0|0:0|0:0|0:0,0:0:0:0:
243,47,45636,2,0,L|323:64,1,70,2|0,0:0|0:0,0:0:0:0:
349,42,45957,1,0,0:0:0:0:
390,32,46064,2,0,L|412:104,1,70,8|4,0:3|0:3,0:0:0:0:
486,135,46493,6,0,P|426:128|362:174,1,140,4|0,0:0|0:0,0:0:0:0:
311,238,47136,1,8,0:0:0:0:
311,238,47350,2,0,P|255:250|178:202,1,140,0|0,0:0|0:0,0:0:0:0:
120,158,47993,1,8,0:0:0:0:
43,230,48207,6,0,L|29:304,1,70,12|0,0:0|0:0,0:0:0:0:
120,158,48636,2,0,L|106:89,1,70,0|0,0:0|0:0,0:0:0:0:
186,27,49064,2,0,P|225:27|261:46,2,70,0|0|4,2:0|2:0|0:3,0:0:0:0:
36,133,49922,6,0,L|56:259,1,125.999996154785,4|0,0:2|0:0,0:0:0:0:
111,325,50564,1,0,0:0:0:0:
195,297,50779,2,0,B|235:287|235:287|265:317|323:300,1,125.999996154785,4|0,0:2|0:0,0:0:0:0:
391,345,51422,1,0,0:0:0:0:
437,250,51636,6,0,P|451:221|444:182,1,62.9999980773926,4|0,0:2|0:0,0:0:0:0:
367,114,52064,2,0,P|334:116|304:141,1,62.9999980773926,0|0,0:0|0:0,0:0:0:0:
256,224,52493,2,0,L|205:211,3,31.4999990386963,0|0|0|0,0:0|0:0|0:0|0:0,0:0:0:0:
184,199,52922,2,0,L|153:206,3,31.4999990386963,0|0|0|0,0:0|0:0|0:0|0:0,0:0:0:0:
111,220,53350,2,0,L|96:326,2,94.499997116089,0|0|0,0:0|0:0|0:0,0:0:0:0:
111,220,54636,5,4,0:3:0:0:
60,146,54850,1,0,2:0:0:0:
155,47,55064,6,0,P|223:36|290:79,1,140,4|8,0:2|0:0,0:0:0:0:
250,147,55707,1,0,0:0:0:0:
309,207,55922,2,0,P|360:216|450:168,1,140,2|8,0:0|0:0,0:0:0:0:
484,116,56564,6,0,P|458:173|486:265,1,140,2|2,2:0|0:0,0:0:0:0:
453,328,57207,1,8,0:0:0:0:
352,285,57422,2,0,B|304:296|304:296|270:285|270:285|206:300,1,140,2|0,0:0|0:0,0:0:0:0:
143,255,58064,1,8,0:0:0:0:
76,197,58279,6,0,P|30:184|9:178,1,70,0|2,2:0|0:0,0:0:0:0:
60,93,58707,1,0,0:0:0:0:
60,93,58922,2,0,P|18:68|0:57,1,70,8|0,0:0|2:0,0:0:0:0:
141,37,59350,2,0,P|150:70|160:104,2,70,2|0|8,0:0|0:0|0:0,0:0:0:0:
256,64,59993,6,0,B|298:79|298:79|342:41|408:71,1,140,2|2,2:0|0:0,0:0:0:0:
462,102,60636,1,8,0:0:0:0:
392,180,60850,2,0,P|334:207|302:280,1,140,0|0,0:0|0:0,0:0:0:0:
420,363,61493,2,0,P|387:345|340:339,1,70,12|0,0:2|2:0,0:0:0:0:
221,289,61922,6,0,P|184:291|138:264,1,70,4|0,0:2|0:0,0:0:0:0:
85,231,62350,1,8,0:0:0:0:
53,153,62564,2,0,L|22:304,1,140,2|0,2:0|0:0,0:0:0:0:
158,206,63207,5,8,0:0:0:0:
158,206,63422,2,0,L|129:68,1,140,2|0,2:0|0:0,0:0:0:0:
292,13,64064,1,8,0:0:0:0:
292,13,64279,2,0,L|263:150,1,140,2|0,2:0|0:0,0:0:0:0:
158,206,64922,1,12,0:2:0:0:
210,283,65136,1,2,2:0:0:0:
119,338,65350,6,0,L|52:359,1,70,12|0,0:2|0:0,0:0:0:0:
210,283,65779,2,0,L|281:309,1,70,8|0,0:0|0:0,0:0:0:0:
399,236,66207,2,0,L|333:211,1,70,8|0,0:0|0:0,0:0:0:0:
420,126,66636,2,0,L|485:101,1,70,12|0,0:2|2:0,0:0:0:0:
339,38,67064,6,0,L|297:24,3,35,12|0|0|0,0:0|0:0|0:0|0:0,0:0:0:0:
264,18,67493,2,0,L|230:29,3,35,8|0|0|0,0:0|0:0|0:0|0:0,0:0:0:0:
195,52,67922,2,0,L|161:40,3,35,8|0|0|0,0:0|0:0|0:0|0:0,0:0:0:0:
122,54,68350,2,0,L|75:79,3,35,8|8|8|8,0:0|0:0|0:0|0:0,0:0:0:0:
56,94,68779,6,0,P|16:150|19:221,1,140,4|8,0:2|0:0,0:0:0:0:
217,348,69636,2,0,P|218:306|202:280,1,70,2|0,1:0|0:0,0:0:0:0:
220,193,70064,1,8,0:0:0:0:
307,276,70279,6,0,P|366:310|451:306,1,140,2|2,2:0|0:0,0:0:0:0:
509,224,70922,1,8,0:0:0:0:
509,224,71136,2,0,P|450:190|365:194,1,140,2|2,2:0|0:0,0:0:0:0:
303,226,71779,1,8,0:0:0:0:
334,112,71993,6,0,B|353:53|286:26|286:26|301:55|275:77,1,140,2|2,2:0|0:0,0:0:0:0:
214,133,72636,2,0,P|217:185|243:210,1,70,8|0,0:0|2:0,0:0:0:0:
259,300,73064,2,0,P|218:284|182:285,2,70,2|0|8,0:0|0:0|0:0,0:0:0:0:
351,360,73707,6,0,P|407:367|474:313,1,140,2|0,2:0|0:0,0:0:0:0:
499,239,74350,1,8,0:0:0:0:
433,186,74564,2,0,L|363:198,1,70,2|0,2:0|0:0,0:0:0:0:
302,140,74993,1,0,0:0:0:0:
302,140,75207,2,0,L|224:117,1,70,12|0,0:2|2:0,0:0:0:0:
139,60,75636,5,4,0:2:0:0:
84,123,75850,2,0,P|63:160|61:209,1,70,0|8,0:0|0:0,0:0:0:0:
5,251,76279,2,0,P|66:212|146:227,1,140,2|2,2:0|0:0,0:0:0:0:
196,271,76922,1,0,0:0:0:0:
269,372,77136,6,0,P|224:378|133:312,1,140,2|2,2:0|0:0,0:0:0:0:
168,198,77779,1,8,0:0:0:0:
280,127,77993,2,0,P|306:201|274:271,1,140,2|2,2:0|0:0,0:0:0:0:
210,314,78636,2,0,P|167:332|123:328,1,70,8|2,0:0|2:0,0:0:0:0:
309,274,79064,6,0,P|343:310|348:337,1,70,12|0,0:2|0:0,0:0:0:0:
241,192,79493,2,0,P|255:153|291:129,1,70,8|0,0:2|0:0,0:0:0:0:
462,190,79922,2,0,P|416:181|392:155,1,70,8|0,0:0|0:0,0:0:0:0:
233,48,80350,2,0,P|274:27|314:33,1,70,12|0,0:2|2:0,0:0:0:0:
410,95,80779,6,0,L|423:140,3,35
400,167,81207,2,0,L|387:212,3,35,0|0|0|0,0:0|0:0|0:0|0:0,0:0:0:0:
386,242,81636,2,0,L|399:287,3,35,8|0|0|0,0:0|0:0|0:0|0:0,0:0:0:0:
429,300,82064,2,0,L|416:345,3,35,8|8|8|8,0:0|0:0|0:0|0:0,0:0:0:0:
387,361,82493,6,0,P|339:369|244:312,1,140,4|8,1:2|0:0,0:0:0:0:
197,273,83136,2,0,P|149:265|54:322,1,140,0|8,0:0|0:0,0:0:0:0:
118,370,83779,1,0,2:0:0:0:
197,273,83993,6,0,P|214:207|169:131,1,140,8|0,0:0|0:0,0:0:0:0:
131,78,84636,2,0,P|96:91|64:129,1,70,8|0,0:0|1:0,0:0:0:0:
184,144,85064,2,0,L|298:112,2,105,12|8|8,0:2|0:0|0:0,0:0:0:0:
256,192,85814,12,0,88707,0:0:0:0:
