osu file format v14

[General]
AudioFilename: the peggies - Centimeter (TV Size).mp3
AudioLeadIn: 0
PreviewTime: 54372
Countdown: 0
SampleSet: Normal
StackLeniency: 0.7
Mode: 1
LetterboxInBreaks: 0
WidescreenStoryboard: 0

[Editor]
Bookmarks: 1980,8837,15694,22551,36265,49980,55122,68837,82551,89408
DistanceSpacing: 1.5
BeatDivisor: 4
GridSize: 32
TimelineZoom: 2.2

[Metadata]
Title:Centimeter (TV Size)
TitleUnicode:センチメートル (TV Size)
Artist:the peggies
ArtistUnicode:the peggies
Creator:Amiichii
Version:Roger's Oni
Source:彼女、お借りします
Tags:op opening anime ver version japanese pop jpop j-pop kanojo okarishimasu kanokari rent-a-girlfriend rent a girlfriend 北澤ゆうほ kitazawa yuuho yuho 江口亮 eguchi ryo Roger ][ -GH- ][
BeatmapID:2521933
BeatmapSetID:1204419

[Difficulty]
HPDrainRate:6
CircleSize:2
OverallDifficulty:5
ApproachRate:0
SliderMultiplier:1.4
SliderTickRate:1

[Events]
//Background and Video events
0,0,"bg1.jpg",0,0
Video,-1033,"blobheart.mp4",0,130
//Break Periods
//Storyboard Layer 0 (Background)
//Storyboard Layer 1 (Fail)
//Storyboard Layer 2 (Pass)
//Storyboard Layer 3 (Foreground)
//Storyboard Layer 4 (Overlay)
//Storyboard Sound Samples

[TimingPoints]
1980,428.571428571429,4,1,0,85,1,0
1980,-100,4,1,0,85,0,0
8837,-100,4,1,0,75,0,0
12265,-100,4,1,0,80,0,0
15694,-100,4,1,0,85,0,0
22551,-100,4,1,0,80,0,0
36265,-100,4,1,0,85,0,0
53408,-100,4,1,0,80,0,0
55122,428.571428571429,4,1,0,90,1,1
55122,-100,4,1,0,90,0,1
82550,-100,4,1,0,85,0,0
85979,-100,4,1,0,40,0,0

[HitObjects]
32,192,1551,5,0,0:0:0:0:
32,192,1980,1,4,0:0:0:0:
32,192,3265,1,8,0:0:0:0:
32,192,3694,1,0,0:0:0:0:
32,192,4122,1,0,0:0:0:0:
32,192,4337,1,8,0:0:0:0:
32,192,4765,1,0,0:0:0:0:
32,192,4980,1,0,0:0:0:0:
32,192,5408,1,12,0:0:0:0:
32,192,5837,1,0,0:0:0:0:
32,192,6051,1,0,0:0:0:0:
32,192,6265,1,8,0:0:0:0:
32,192,6480,1,8,0:0:0:0:
32,192,6694,1,0,0:0:0:0:
32,192,6908,1,8,0:0:0:0:
32,192,7337,1,8,0:0:0:0:
32,192,7551,1,0,0:0:0:0:
32,192,7765,1,0,0:0:0:0:
32,192,7980,1,8,0:0:0:0:
32,192,8194,1,0,0:0:0:0:
32,192,8408,1,8,0:0:0:0:
32,192,8837,1,4,0:0:0:0:
32,192,9051,1,8,0:0:0:0:
32,192,9265,1,0,0:0:0:0:
32,192,9480,1,8,0:0:0:0:
32,192,9694,1,0,0:0:0:0:
32,192,10122,1,0,0:0:0:0:
32,192,10551,1,0,0:0:0:0:
32,192,10765,1,8,0:0:0:0:
32,192,10980,1,0,0:0:0:0:
32,192,11194,1,8,0:0:0:0:
32,192,11622,1,8,0:0:0:0:
32,192,11837,1,0,0:0:0:0:
32,192,12051,1,0,0:0:0:0:
32,192,12265,1,8,0:0:0:0:
32,192,12480,1,0,0:0:0:0:
32,192,12587,1,0,0:0:0:0:
32,192,12694,1,0,0:0:0:0:
32,192,12908,1,0,0:0:0:0:
32,192,13122,1,8,0:0:0:0:
32,192,13337,1,0,0:0:0:0:
32,192,13444,1,0,0:0:0:0:
32,192,13551,1,8,0:0:0:0:
32,192,13765,1,8,0:0:0:0:
32,192,13980,1,4,0:0:0:0:
32,192,15051,1,0,0:0:0:0:
32,192,15265,1,8,0:0:0:0:
32,192,15694,1,4,0:0:0:0:
32,192,16122,1,8,0:0:0:0:
32,192,16337,1,0,0:0:0:0:
32,192,16444,1,0,0:0:0:0:
32,192,16551,1,0,0:0:0:0:
32,192,16765,1,8,0:0:0:0:
32,192,17194,1,8,0:0:0:0:
32,192,17408,1,0,0:0:0:0:
32,192,17622,1,0,0:0:0:0:
32,192,17730,1,0,0:0:0:0:
32,192,17837,1,8,0:0:0:0:
32,192,18051,1,0,0:0:0:0:
32,192,18265,1,8,0:0:0:0:
32,192,18480,1,0,0:0:0:0:
32,192,18694,1,0,0:0:0:0:
32,192,19122,1,4,0:0:0:0:
32,192,19551,1,8,0:0:0:0:
32,192,19765,1,0,0:0:0:0:
32,192,19872,1,0,0:0:0:0:
32,192,19980,1,0,0:0:0:0:
32,192,20194,1,8,0:0:0:0:
32,192,20622,1,8,0:0:0:0:
32,192,20837,1,0,0:0:0:0:
32,192,21051,1,8,0:0:0:0:
32,192,21158,1,0,0:0:0:0:
32,192,21265,1,8,0:0:0:0:
32,192,21480,1,0,0:0:0:0:
32,192,21694,1,12,0:0:0:0:
32,192,22015,1,12,0:0:0:0:
32,192,22551,1,4,0:0:0:0:
32,192,22980,1,8,0:0:0:0:
32,192,23194,1,0,0:0:0:0:
32,192,23301,1,0,0:0:0:0:
32,192,23408,1,0,0:0:0:0:
32,192,23622,1,8,0:0:0:0:
32,192,24051,1,8,0:0:0:0:
32,192,24265,1,0,0:0:0:0:
32,192,24480,1,0,0:0:0:0:
32,192,24587,1,0,0:0:0:0:
32,192,24694,1,8,0:0:0:0:
32,192,24908,1,0,0:0:0:0:
32,192,25337,1,8,0:0:0:0:
32,192,25551,1,8,0:0:0:0:
32,192,25765,1,8,0:0:0:0:
32,192,25980,1,0,0:0:0:0:
32,192,26194,1,8,0:0:0:0:
32,192,26301,1,0,0:0:0:0:
32,192,26408,1,8,0:0:0:0:
32,192,26622,1,0,0:0:0:0:
32,192,26837,1,8,0:0:0:0:
32,192,26944,1,8,0:0:0:0:
32,192,27051,1,0,0:0:0:0:
32,192,27265,1,8,0:0:0:0:
32,192,27480,1,8,0:0:0:0:
32,192,27694,1,0,0:0:0:0:
32,192,27908,1,0,0:0:0:0:
32,192,28015,1,0,0:0:0:0:
32,192,28122,1,8,0:0:0:0:
32,192,28337,1,0,0:0:0:0:
32,192,28765,1,8,0:0:0:0:
32,192,29194,1,8,0:0:0:0:
32,192,29408,1,0,0:0:0:0:
32,192,29622,1,0,0:0:0:0:
32,192,29837,1,8,0:0:0:0:
32,192,30051,1,0,0:0:0:0:
32,192,30158,1,0,0:0:0:0:
32,192,30265,1,0,0:0:0:0:
32,192,30480,1,8,0:0:0:0:
32,192,30908,1,8,0:0:0:0:
32,192,31122,1,0,0:0:0:0:
32,192,31337,1,0,0:0:0:0:
32,192,31444,1,0,0:0:0:0:
32,192,31551,1,8,0:0:0:0:
32,192,31765,1,0,0:0:0:0:
32,192,32194,1,8,0:0:0:0:
32,192,32408,1,8,0:0:0:0:
32,192,32622,1,8,0:0:0:0:
32,192,32837,1,0,0:0:0:0:
32,192,33051,1,0,0:0:0:0:
32,192,33158,1,0,0:0:0:0:
32,192,33265,1,8,0:0:0:0:
32,192,33480,1,0,0:0:0:0:
32,192,33694,1,8,0:0:0:0:
32,192,33801,1,8,0:0:0:0:
32,192,33908,1,0,0:0:0:0:
32,192,34122,1,8,0:0:0:0:
32,192,34337,1,0,0:0:0:0:
32,192,34551,1,8,0:0:0:0:
32,192,34765,1,0,0:0:0:0:
32,192,34872,1,0,0:0:0:0:
32,192,34980,1,0,0:0:0:0:
32,192,35194,1,8,0:0:0:0:
32,192,35622,1,0,0:0:0:0:
32,192,35730,1,0,0:0:0:0:
32,192,35837,1,8,0:0:0:0:
32,192,36051,1,0,0:0:0:0:
32,192,36265,1,4,0:0:0:0:
32,192,36694,1,8,0:0:0:0:
32,192,36908,1,0,0:0:0:0:
32,192,37015,1,0,0:0:0:0:
32,192,37122,1,8,0:0:0:0:
32,192,37337,1,0,0:0:0:0:
32,192,37551,1,8,0:0:0:0:
32,192,37658,1,0,0:0:0:0:
32,192,37765,1,8,0:0:0:0:
32,192,37980,1,0,0:0:0:0:
32,192,38194,1,8,0:0:0:0:
32,192,38301,1,0,0:0:0:0:
32,192,38515,1,0,0:0:0:0:
32,192,38622,1,8,0:0:0:0:
32,192,38730,1,0,0:0:0:0:
32,192,38837,1,0,0:0:0:0:
32,192,38944,1,8,0:0:0:0:
32,192,39158,1,8,0:0:0:0:
32,192,39265,1,0,0:0:0:0:
32,192,39480,1,0,0:0:0:0:
32,192,39694,1,8,0:0:0:0:
32,192,40122,1,0,0:0:0:0:
32,192,40337,1,0,0:0:0:0:
32,192,40444,1,0,0:0:0:0:
32,192,40551,1,8,0:0:0:0:
32,192,40765,1,0,0:0:0:0:
32,192,40872,1,8,0:0:0:0:
32,192,40980,1,0,0:0:0:0:
32,192,41194,1,0,0:0:0:0:
32,192,41408,1,8,0:0:0:0:
32,192,41622,1,8,0:0:0:0:
32,192,41730,1,0,0:0:0:0:
32,192,41837,1,0,0:0:0:0:
32,192,42051,1,0,0:0:0:0:
32,192,42158,1,0,0:0:0:0:
32,192,42265,1,0,0:0:0:0:
32,192,42480,1,0,0:0:0:0:
32,192,42694,1,8,0:0:0:0:
32,192,43122,1,4,0:0:0:0:
32,192,43337,1,0,0:0:0:0:
32,192,43444,1,0,0:0:0:0:
32,192,43551,1,8,0:0:0:0:
32,192,43765,1,0,0:0:0:0:
32,192,43980,1,8,0:0:0:0:
32,192,44087,1,0,0:0:0:0:
32,192,44301,1,0,0:0:0:0:
32,192,44408,1,8,0:0:0:0:
32,192,44622,1,8,0:0:0:0:
32,192,44730,1,8,0:0:0:0:
32,192,44837,1,0,0:0:0:0:
32,192,46122,1,0,0:0:0:0:
32,192,46337,1,0,0:0:0:0:
32,192,46551,1,8,0:0:0:0:
32,192,46872,1,8,0:0:0:0:
32,192,46980,1,0,0:0:0:0:
32,192,47194,1,0,0:0:0:0:
32,192,47408,1,8,0:0:0:0:
32,192,47515,1,0,0:0:0:0:
32,192,47622,1,0,0:0:0:0:
32,192,47837,1,8,0:0:0:0:
32,192,48051,1,0,0:0:0:0:
32,192,48158,1,0,0:0:0:0:
32,192,48265,1,8,0:0:0:0:
32,192,48480,1,8,0:0:0:0:
32,192,48694,1,0,0:0:0:0:
32,192,48908,1,0,0:0:0:0:
32,192,49337,1,8,0:0:0:0:
32,192,49551,1,8,0:0:0:0:
32,192,49980,1,4,0:0:0:0:
32,192,50194,1,0,0:0:0:0:
32,192,50408,1,8,0:0:0:0:
32,192,50622,1,0,0:0:0:0:
32,192,50730,1,0,0:0:0:0:
32,192,50837,1,8,0:0:0:0:
32,192,51051,1,0,0:0:0:0:
32,192,51265,1,8,0:0:0:0:
32,192,51372,1,0,0:0:0:0:
32,192,51480,1,8,0:0:0:0:
32,192,51694,1,0,0:0:0:0:
32,192,51908,1,8,0:0:0:0:
32,192,52015,1,8,0:0:0:0:
32,192,52122,1,0,0:0:0:0:
32,192,52337,1,0,0:0:0:0:
32,192,52551,1,8,0:0:0:0:
32,192,52658,1,8,0:0:0:0:
32,192,52765,1,0,0:0:0:0:
32,192,52872,1,8,0:0:0:0:
32,192,52980,1,0,0:0:0:0:
32,192,53087,1,0,0:0:0:0:
32,192,53194,1,8,0:0:0:0:
32,192,53408,1,4,0:0:0:0:
32,192,53730,1,4,0:0:0:0:
32,192,54051,1,4,0:0:0:0:
32,192,54694,1,0,0:0:0:0:
32,192,55122,1,4,0:0:0:0:
32,192,55336,1,0,0:0:0:0:
32,192,55550,1,8,0:0:0:0:
32,192,55872,1,8,0:0:0:0:
32,192,55979,1,0,0:0:0:0:
32,192,56193,1,0,0:0:0:0:
32,192,56407,1,8,0:0:0:0:
32,192,56514,1,0,0:0:0:0:
32,192,56622,1,8,0:0:0:0:
32,192,56836,1,0,0:0:0:0:
32,192,57050,1,0,0:0:0:0:
32,192,57157,1,0,0:0:0:0:
32,192,57264,1,8,0:0:0:0:
32,192,57479,1,0,0:0:0:0:
32,192,57586,1,0,0:0:0:0:
32,192,57693,1,0,0:0:0:0:
32,192,57907,1,0,0:0:0:0:
32,192,58122,1,8,0:0:0:0:
32,192,58336,1,8,0:0:0:0:
32,192,58443,1,8,0:0:0:0:
32,192,58550,1,0,0:0:0:0:
32,192,58764,1,0,0:0:0:0:
32,192,58979,1,8,0:0:0:0:
32,192,59300,1,8,0:0:0:0:
32,192,59407,1,0,0:0:0:0:
32,192,59622,1,0,0:0:0:0:
32,192,59729,1,0,0:0:0:0:
32,192,59836,1,8,0:0:0:0:
32,192,60050,1,8,0:0:0:0:
32,192,60264,1,0,0:0:0:0:
32,192,60479,1,8,0:0:0:0:
32,192,60586,1,8,0:0:0:0:
32,192,60693,1,0,0:0:0:0:
32,192,60907,1,0,0:0:0:0:
32,192,61014,1,8,0:0:0:0:
32,192,61122,1,0,0:0:0:0:
32,192,61336,1,0,0:0:0:0:
32,192,61550,1,8,0:0:0:0:
32,192,61979,1,4,0:0:0:0:
32,192,62193,1,0,0:0:0:0:
32,192,62407,1,8,0:0:0:0:
32,192,62729,1,8,0:0:0:0:
32,192,62836,1,0,0:0:0:0:
32,192,63050,1,0,0:0:0:0:
32,192,63264,1,8,0:0:0:0:
32,192,63479,1,8,0:0:0:0:
32,192,63586,1,8,0:0:0:0:
32,192,63693,1,0,0:0:0:0:
32,192,63907,1,0,0:0:0:0:
32,192,64014,1,0,0:0:0:0:
32,192,64122,1,8,0:0:0:0:
32,192,64336,1,8,0:0:0:0:
32,192,64764,1,8,0:0:0:0:
32,192,64979,1,0,0:0:0:0:
32,192,65193,1,0,0:0:0:0:
32,192,65300,1,0,0:0:0:0:
32,192,65407,1,8,0:0:0:0:
32,192,65622,1,0,0:0:0:0:
32,192,65836,1,8,0:0:0:0:
32,192,65943,1,0,0:0:0:0:
32,192,66157,1,0,0:0:0:0:
32,192,66264,1,8,0:0:0:0:
32,192,66479,1,0,0:0:0:0:
32,192,66693,1,8,0:0:0:0:
32,192,66907,1,8,0:0:0:0:
32,192,67122,1,0,0:0:0:0:
32,192,67336,1,8,0:0:0:0:
32,192,67443,1,8,0:0:0:0:
32,192,67550,1,0,0:0:0:0:
32,192,67657,1,0,0:0:0:0:
32,192,67764,1,8,0:0:0:0:
32,192,67979,1,0,0:0:0:0:
32,192,68086,1,0,0:0:0:0:
32,192,68193,1,8,0:0:0:0:
32,192,68300,1,0,0:0:0:0:
32,192,68407,1,8,0:0:0:0:
32,192,68514,1,8,0:0:0:0:
32,192,68622,1,0,0:0:0:0:
32,192,68836,1,4,0:0:0:0:
32,192,69050,1,0,0:0:0:0:
32,192,69264,1,8,0:0:0:0:
32,192,69586,1,8,0:0:0:0:
32,192,69693,1,0,0:0:0:0:
32,192,69907,1,0,0:0:0:0:
32,192,70122,1,8,0:0:0:0:
32,192,70229,1,0,0:0:0:0:
32,192,70336,1,8,0:0:0:0:
32,192,70550,1,0,0:0:0:0:
32,192,70764,1,0,0:0:0:0:
32,192,70872,1,0,0:0:0:0:
32,192,70979,1,8,0:0:0:0:
32,192,71193,1,0,0:0:0:0:
32,192,71300,1,0,0:0:0:0:
32,192,71407,1,0,0:0:0:0:
32,192,71622,1,0,0:0:0:0:
32,192,71836,1,8,0:0:0:0:
32,192,72050,1,8,0:0:0:0:
32,192,72157,1,8,0:0:0:0:
32,192,72264,1,0,0:0:0:0:
32,192,72479,1,0,0:0:0:0:
32,192,72693,1,8,0:0:0:0:
32,192,73014,1,8,0:0:0:0:
32,192,73122,1,0,0:0:0:0:
32,192,73336,1,0,0:0:0:0:
32,192,73443,1,0,0:0:0:0:
32,192,73550,1,8,0:0:0:0:
32,192,73764,1,8,0:0:0:0:
32,192,73979,1,0,0:0:0:0:
32,192,74193,1,8,0:0:0:0:
32,192,74300,1,0,0:0:0:0:
32,192,74407,1,8,0:0:0:0:
32,192,74622,1,8,0:0:0:0:
32,192,74729,1,8,0:0:0:0:
32,192,74836,1,0,0:0:0:0:
32,192,75050,1,0,0:0:0:0:
32,192,75264,1,8,0:0:0:0:
32,192,75693,1,4,0:0:0:0:
32,192,75907,1,0,0:0:0:0:
32,192,76122,1,8,0:0:0:0:
32,192,76443,1,8,0:0:0:0:
32,192,76550,1,0,0:0:0:0:
32,192,76764,1,0,0:0:0:0:
32,192,76979,1,8,0:0:0:0:
32,192,77193,1,8,0:0:0:0:
32,192,77300,1,8,0:0:0:0:
32,192,77407,1,0,0:0:0:0:
32,192,77622,1,0,0:0:0:0:
32,192,77729,1,0,0:0:0:0:
32,192,77836,1,8,0:0:0:0:
32,192,78050,1,0,0:0:0:0:
32,192,78479,1,0,0:0:0:0:
32,192,78693,1,8,0:0:0:0:
32,192,78907,1,0,0:0:0:0:
32,192,79014,1,0,0:0:0:0:
32,192,79122,1,8,0:0:0:0:
32,192,79336,1,0,0:0:0:0:
32,192,79550,1,8,0:0:0:0:
32,192,79657,1,0,0:0:0:0:
32,192,79872,1,0,0:0:0:0:
32,192,79979,1,8,0:0:0:0:
32,192,80193,1,0,0:0:0:0:
32,192,80407,1,8,0:0:0:0:
32,192,80622,1,8,0:0:0:0:
32,192,80836,1,0,0:0:0:0:
32,192,81050,1,0,0:0:0:0:
32,192,81157,1,0,0:0:0:0:
32,192,81264,1,8,0:0:0:0:
32,192,81372,1,8,0:0:0:0:
32,192,81479,1,0,0:0:0:0:
32,192,81693,1,8,0:0:0:0:
32,192,81800,1,0,0:0:0:0:
32,192,81907,1,8,0:0:0:0:
32,192,82014,1,8,0:0:0:0:
32,192,82122,1,0,0:0:0:0:
32,192,82229,1,0,0:0:0:0:
32,192,82336,1,8,0:0:0:0:
32,192,82550,1,4,0:0:0:0:
32,192,82978,1,8,0:0:0:0:
32,192,83193,1,0,0:0:0:0:
32,192,83300,1,0,0:0:0:0:
32,192,83407,1,0,0:0:0:0:
32,192,83621,1,8,0:0:0:0:
32,192,84050,1,8,0:0:0:0:
32,192,84264,1,0,0:0:0:0:
32,192,84478,1,0,0:0:0:0:
32,192,84586,1,0,0:0:0:0:
32,192,84693,1,8,0:0:0:0:
32,192,84907,1,0,0:0:0:0:
32,192,85121,1,12,0:0:0:0:
32,192,85443,1,12,0:0:0:0:
32,192,85764,1,12,0:0:0:0:
256,192,85979,12,12,88979,0:0:0:0:
