osu file format v14

[General]
AudioFilename: the peggies - Centimeter (TV Size).mp3
AudioLeadIn: 0
PreviewTime: 54372
Countdown: 0
SampleSet: Normal
StackLeniency: 0.7
Mode: 1
LetterboxInBreaks: 0
WidescreenStoryboard: 0

[Editor]
Bookmarks: 1980,8837,15694,22551,36265,49980,55122,68837,82551,89408
DistanceSpacing: 1.5
BeatDivisor: 2
GridSize: 32
TimelineZoom: 0.6999998

[Metadata]
Title:Centimeter (TV Size)
TitleUnicode:センチメートル (TV Size)
Artist:the peggies
ArtistUnicode:the peggies
Creator:Amiichii
Version:Roger's Kantan
Source:彼女、お借りします
Tags:op opening anime ver version japanese pop jpop j-pop kanojo okarishimasu kanokari rent-a-girlfriend rent a girlfriend 北澤ゆうほ kitazawa yuuho yuho 江口亮 eguchi ryo Roger ][ -GH- ][
BeatmapID:2509131
BeatmapSetID:1204419

[Difficulty]
HPDrainRate:9
CircleSize:2
OverallDifficulty:2
ApproachRate:0
SliderMultiplier:1.4
SliderTickRate:1

[Events]
//Background and Video events
0,0,"bg1.jpg",0,0
Video,-1033,"blobheart.mp4",0,130
//Break Periods
//Storyboard Layer 0 (Background)
//Storyboard Layer 1 (Fail)
//Storyboard Layer 2 (Pass)
//Storyboard Layer 3 (Foreground)
//Storyboard Layer 4 (Overlay)
//Storyboard Sound Samples

[TimingPoints]
1980,428.571428571429,4,1,0,85,1,0
1980,-100,4,1,0,85,0,0
8837,-100,4,1,0,75,0,0
12265,-100,4,1,0,80,0,0
15694,-100,4,1,0,85,0,0
22551,-100,4,1,0,80,0,0
36265,-100,4,1,0,85,0,0
53408,-100,4,1,0,80,0,0
55122,428.571428571429,4,1,0,90,1,1
55122,-100,4,1,0,90,0,1
82550,-100,4,1,0,85,0,0
85979,-100,4,1,0,40,0,0

[HitObjects]
32,192,1980,5,4,0:0:0:0:
32,192,3265,1,8,0:0:0:0:
32,192,3694,1,0,0:0:0:0:
32,192,4337,1,0,0:0:0:0:
32,192,5408,1,12,0:0:0:0:
32,192,6265,1,0,0:0:0:0:
32,192,6908,1,8,0:0:0:0:
32,192,7980,1,8,0:0:0:0:
32,192,8408,1,8,0:0:0:0:
32,192,8837,1,4,0:0:0:0:
32,192,9694,1,0,0:0:0:0:
32,192,10551,1,0,0:0:0:0:
32,192,11408,1,0,0:0:0:0:
32,192,12265,1,8,0:0:0:0:
32,192,12694,1,0,0:0:0:0:
32,192,13122,1,0,0:0:0:0:
32,192,13980,1,4,0:0:0:0:
32,192,15265,1,8,0:0:0:0:
32,192,15694,1,4,0:0:0:0:
32,192,16337,1,0,0:0:0:0:
32,192,17194,1,8,0:0:0:0:
32,192,17837,1,0,0:0:0:0:
32,192,18265,1,8,0:0:0:0:
32,192,19122,1,4,0:0:0:0:
32,192,19765,1,0,0:0:0:0:
32,192,20622,1,8,0:0:0:0:
32,192,21265,1,0,0:0:0:0:
32,192,21694,1,8,0:0:0:0:
32,192,22980,1,8,0:0:0:0:
32,192,23408,1,0,0:0:0:0:
32,192,24265,1,0,0:0:0:0:
32,192,24908,1,8,0:0:0:0:
32,192,26408,1,8,0:0:0:0:
32,192,26837,1,0,0:0:0:0:
32,192,27694,1,0,0:0:0:0:
32,192,28337,1,8,0:0:0:0:
32,192,28765,1,8,0:0:0:0:
32,192,29837,1,8,0:0:0:0:
32,192,30265,1,0,0:0:0:0:
32,192,31122,1,0,0:0:0:0:
32,192,31765,1,8,0:0:0:0:
32,192,33265,1,8,0:0:0:0:
32,192,33694,1,0,0:0:0:0:
32,192,34551,1,8,0:0:0:0:
32,192,35194,1,8,0:0:0:0:
32,192,36265,1,4,0:0:0:0:
32,192,37122,1,8,0:0:0:0:
32,192,37551,1,0,0:0:0:0:
32,192,38408,1,0,0:0:0:0:
32,192,38837,1,8,0:0:0:0:
32,192,39694,1,0,0:0:0:0:
32,192,40551,1,8,0:0:0:0:
32,192,41408,1,0,0:0:0:0:
32,192,41837,1,0,0:0:0:0:
32,192,42265,1,0,0:0:0:0:
32,192,43122,1,4,0:0:0:0:
32,192,43980,1,8,0:0:0:0:
32,192,44837,1,0,0:0:0:0:
32,192,46122,1,0,0:0:0:0:
32,192,46551,1,8,0:0:0:0:
32,192,47408,1,0,0:0:0:0:
32,192,48265,1,8,0:0:0:0:
32,192,48908,1,0,0:0:0:0:
32,192,49980,1,4,0:0:0:0:
32,192,50837,1,8,0:0:0:0:
32,192,51694,1,0,0:0:0:0:
32,192,52551,1,8,0:0:0:0:
32,192,52980,1,8,0:0:0:0:
32,192,53408,1,0,0:0:0:0:
32,192,54051,1,0,0:0:0:0:
32,192,55122,1,4,0:0:0:0:
32,192,55979,1,8,0:0:0:0:
32,192,56836,1,0,0:0:0:0:
32,192,57264,1,8,0:0:0:0:
32,192,58122,1,8,0:0:0:0:
32,192,58550,1,0,0:0:0:0:
32,192,59407,1,8,0:0:0:0:
32,192,60264,1,0,0:0:0:0:
32,192,61122,1,8,0:0:0:0:
32,192,61550,1,8,0:0:0:0:
32,192,61979,1,4,0:0:0:0:
32,192,63264,1,8,0:0:0:0:
32,192,63693,1,0,0:0:0:0:
32,192,64122,1,8,0:0:0:0:
32,192,64979,1,8,0:0:0:0:
32,192,65407,1,0,0:0:0:0:
32,192,66264,1,8,0:0:0:0:
32,192,67122,1,0,0:0:0:0:
32,192,67550,1,0,0:0:0:0:
32,192,67979,1,0,0:0:0:0:
32,192,68836,1,12,0:0:0:0:
32,192,69693,1,0,0:0:0:0:
32,192,70550,1,8,0:0:0:0:
32,192,70979,1,0,0:0:0:0:
32,192,71836,1,0,0:0:0:0:
32,192,72264,1,8,0:0:0:0:
32,192,73122,1,0,0:0:0:0:
32,192,73979,1,8,0:0:0:0:
32,192,74836,1,0,0:0:0:0:
32,192,75264,1,0,0:0:0:0:
32,192,75693,1,12,0:0:0:0:
32,192,76979,1,0,0:0:0:0:
32,192,77407,1,8,0:0:0:0:
32,192,77836,1,0,0:0:0:0:
32,192,78693,1,0,0:0:0:0:
32,192,79122,1,8,0:0:0:0:
32,192,79979,1,0,0:0:0:0:
32,192,80836,1,8,0:0:0:0:
32,192,81264,1,8,0:0:0:0:
32,192,81693,1,8,0:0:0:0:
32,192,82550,1,4,0:0:0:0:
32,192,83193,1,0,0:0:0:0:
32,192,84050,1,8,0:0:0:0:
32,192,84693,1,0,0:0:0:0:
32,192,85122,1,8,0:0:0:0:
32,192,85764,1,8,0:0:0:0:
256,192,86193,12,8,88979,0:0:0:0:
