osu file format v14

[General]
AudioFilename: the peggies - Centimeter (TV Size).mp3
AudioLeadIn: 0
PreviewTime: 54372
Countdown: 0
SampleSet: Soft
StackLeniency: 0.7
Mode: 3
LetterboxInBreaks: 0
SpecialStyle: 0
WidescreenStoryboard: 0

[Editor]
DistanceSpacing: 1.5
BeatDivisor: 8
GridSize: 32
TimelineZoom: 1.5

[Metadata]
Title:Centimeter (TV Size)
TitleUnicode:センチメートル (TV Size)
Artist:the peggies
ArtistUnicode:the peggies
Creator:Amiichii
Version:Hard
Source:彼女、お借りします
Tags:op opening anime ver version japanese pop jpop j-pop kanojo okarishimasu kanokari rent-a-girlfriend rent a girlfriend 北澤ゆうほ kitazawa yuuho yuho 江口亮 eguchi ryo Roger ][ -GH- ][
BeatmapID:2509127
BeatmapSetID:1204419

[Difficulty]
HPDrainRate:8
CircleSize:4
OverallDifficulty:7.5
ApproachRate:5
SliderMultiplier:1.4
SliderTickRate:1

[Events]
//Background and Video events
0,0,"bg2.jpg",0,0
Video,-1033,"blobheart.mp4"
//Break Periods
//Storyboard Layer 0 (Background)
//Storyboard Layer 1 (Fail)
//Storyboard Layer 2 (Pass)
//Storyboard Layer 3 (Foreground)
//Storyboard Layer 4 (Overlay)
//Storyboard Sound Samples

[TimingPoints]
1980,428.571428571429,4,2,1,50,1,0
55122,428.571428571429,4,2,1,50,1,1
67122,-100,4,2,1,50,0,0
68836,-100,4,2,1,50,0,1
82550,-100,4,2,1,50,0,0

[HitObjects]
64,192,1551,1,0,0:0:0:50:Tom3.wav
320,192,1551,1,0,0:0:0:0:
64,192,1980,1,4,0:0:0:0:
192,192,1980,1,2,0:0:0:0:
448,192,1980,128,0,2408:0:0:0:0:
64,192,2408,128,0,2837:0:0:0:0:
320,192,2837,128,0,3265:0:0:0:0:
192,192,3265,1,8,0:0:0:0:
448,192,3265,1,0,0:0:0:0:
64,192,3480,128,0,3694:0:0:0:0:
192,192,3694,1,4,0:0:0:0:
320,192,3694,1,2,0:0:0:0:
448,192,3694,1,0,0:0:0:0:
320,192,3908,128,0,4122:0:0:0:0:
64,192,4122,1,2,0:0:0:0:
192,192,4122,1,0,0:0:0:0:
320,192,4337,1,8,0:0:0:0:
448,192,4337,128,0,4551:0:0:0:0:
192,192,4551,1,2,0:0:0:0:
64,192,4765,1,0,0:0:0:50:Tom1.wav
448,192,4765,1,0,0:0:0:0:
320,192,4980,1,0,0:0:0:50:Tom2.wav
64,192,5194,128,0,5408:0:0:0:0:
192,192,5408,1,4,0:0:0:0:
320,192,5408,1,2,0:0:0:0:
448,192,5408,1,0,0:0:0:0:
448,192,5622,128,0,5837:0:0:0:0:
64,192,5837,128,0,6051:0:0:0:50:Tom2.wav
192,192,5837,1,0,0:0:0:0:
320,192,6051,1,0,0:0:0:50:Tom3.wav
448,192,6051,1,0,0:0:0:0:
192,192,6265,128,4,6480:0:0:0:0:
64,192,6480,1,0,0:0:0:50:Tom2.wav
320,192,6480,128,0,6694:0:0:0:0:
192,192,6694,1,0,0:0:0:50:Tom3.wav
448,192,6694,128,0,6908:0:0:0:0:
64,192,6908,128,4,7337:0:0:0:0:
192,192,6908,1,0,0:0:0:50:Tom3.wav
320,192,6908,1,0,0:0:0:0:
192,192,7337,1,2,0:0:0:0:
448,192,7337,1,0,0:0:0:0:
64,192,7551,1,8,0:0:0:0:
320,192,7551,128,0,7980:0:0:0:0:
192,192,7765,128,2,7980:0:0:0:0:
64,192,7980,1,8,0:0:0:0:
448,192,7980,1,0,0:0:0:50:Tom3.wav
320,192,8194,128,0,8408:0:0:0:0:
64,192,8408,128,8,8837:0:0:0:0:
192,192,8408,1,0,0:0:0:50:Tom3.wav
192,192,8837,1,2,0:0:0:0:
320,192,8837,1,4,0:0:0:0:
448,192,8837,1,0,0:0:0:0:
64,192,9051,1,0,0:0:0:0:
192,192,9265,1,2,0:0:0:0:
448,192,9265,1,0,0:0:0:0:
64,192,9480,1,0,0:0:0:0:
320,192,9694,1,2,0:0:0:0:
448,192,9694,1,0,0:0:0:0:
192,192,9908,1,0,0:0:0:0:
320,192,10122,1,2,0:0:0:0:
448,192,10122,1,0,0:0:0:0:
192,192,10337,1,0,0:0:0:0:
64,192,10551,1,2,0:0:0:0:
448,192,10551,1,0,0:0:0:0:
320,192,10765,1,0,0:0:0:0:
192,192,10980,1,2,0:0:0:0:
448,192,10980,1,0,0:0:0:0:
64,192,11194,1,0,0:0:0:0:
320,192,11408,1,2,0:0:0:0:
448,192,11408,1,0,0:0:0:0:
192,192,11622,1,0,0:0:0:0:
320,192,11837,1,2,0:0:0:0:
448,192,11837,1,0,0:0:0:0:
192,192,12051,1,0,0:0:0:0:
64,192,12265,1,2,0:0:0:0:
320,192,12265,1,8,0:0:0:0:
448,192,12265,1,0,0:0:0:0:
192,192,12480,1,2,0:0:0:0:
448,192,12480,1,0,0:0:0:0:
192,192,12694,1,2,0:0:0:0:
320,192,12694,1,0,0:0:0:0:
64,192,12908,1,2,0:0:0:0:
448,192,12908,1,0,0:0:0:0:
64,192,13122,1,2,0:0:0:0:
320,192,13122,1,8,0:0:0:0:
192,192,13337,1,2,0:0:0:0:
448,192,13337,1,8,0:0:0:0:
192,192,13551,1,8,0:0:0:0:
320,192,13551,1,2,0:0:0:0:
64,192,13765,1,2,0:0:0:0:
448,192,13765,1,8,0:0:0:0:
192,192,13980,1,2,0:0:0:0:
320,192,13980,1,8,0:0:0:0:
448,192,13980,128,0,15265:0:0:0:0:
64,192,14194,128,0,14408:0:0:0:0:
320,192,14408,128,0,14622:0:0:0:0:
192,192,14622,128,0,14837:0:0:0:0:
320,192,15051,128,2,15265:0:0:0:0:
64,192,15265,1,8,0:0:0:0:
192,192,15265,1,0,0:0:0:0:
192,192,15480,128,0,15694:0:0:0:0:
64,192,15694,1,4,0:0:0:0:
320,192,15694,1,2,0:0:0:0:
448,192,15694,128,0,16122:0:0:0:0:
320,192,15908,1,2,0:0:0:0:
64,192,16122,1,8,0:0:0:0:
192,192,16122,128,0,16337:0:0:0:0:
320,192,16337,1,2,0:0:0:0:
320,192,16551,1,2,0:0:0:0:
448,192,16551,1,0,0:0:0:0:
64,192,16765,1,8,0:0:0:0:
320,192,16765,128,0,16980:0:0:0:0:
448,192,16980,1,0,0:0:0:0:
64,192,17194,1,8,0:0:0:0:
320,192,17194,128,0,17408:0:0:0:0:
192,192,17408,1,2,0:0:0:0:
448,192,17408,1,0,0:0:0:0:
64,192,17622,128,2,17837:0:0:0:0:
320,192,17837,1,8,0:0:0:0:
448,192,17837,128,0,18051:0:0:0:0:
64,192,18051,128,2,18265:0:0:0:0:
320,192,18265,128,8,18480:0:0:0:0:
448,192,18265,1,0,0:0:0:0:
192,192,18480,1,0,0:0:0:50:Tom1.wav
64,192,18694,1,0,0:0:0:50:Tom2.wav
320,192,18694,128,0,19122:0:0:0:0:
448,192,18908,1,0,0:0:0:50:Tom3.wav
64,192,19122,128,4,19551:0:0:0:0:
192,192,19122,1,2,0:0:0:0:
448,192,19122,1,0,0:0:0:0:
192,192,19337,1,2,0:0:0:0:
320,192,19551,1,8,0:0:0:0:
448,192,19551,128,0,19765:0:0:0:0:
192,192,19765,1,2,0:0:0:0:
64,192,19980,1,2,0:0:0:0:
192,192,19980,1,0,0:0:0:0:
192,192,20194,128,8,20408:0:0:0:0:
448,192,20194,1,0,0:0:0:0:
64,192,20408,1,0,0:0:0:0:
192,192,20622,128,8,20837:0:0:0:0:
448,192,20622,1,0,0:0:0:0:
320,192,20837,1,2,0:0:0:0:
448,192,20837,1,0,0:0:0:0:
64,192,21051,128,2,21265:0:0:0:0:
192,192,21265,1,8,0:0:0:0:
448,192,21265,128,0,21480:0:0:0:0:
64,192,21480,128,0,21694:0:0:0:0:
320,192,21694,128,8,21908:0:0:0:0:
448,192,21694,1,0,0:0:0:0:
64,192,22015,1,8,0:0:0:0:
320,192,22015,128,0,22551:0:0:0:0:
64,192,22551,1,2,0:0:0:0:
192,192,22551,1,4,0:0:0:0:
448,192,22551,1,0,0:0:0:0:
448,192,22765,1,2,0:0:0:0:
64,192,22980,1,8,0:0:0:0:
320,192,22980,1,0,0:0:0:0:
192,192,23194,1,2,0:0:0:0:
192,192,23408,1,2,0:0:0:0:
64,192,23622,1,8,0:0:0:0:
448,192,23622,1,0,0:0:0:0:
320,192,23837,1,0,0:0:0:0:
64,192,24051,1,8,0:0:0:0:
448,192,24051,1,0,0:0:0:0:
192,192,24265,1,2,0:0:0:0:
192,192,24480,1,2,0:0:0:0:
320,192,24694,1,8,0:0:0:0:
448,192,24694,1,0,0:0:0:0:
64,192,24908,1,2,0:0:0:0:
448,192,25122,1,2,0:0:0:0:
192,192,25337,1,8,0:0:0:0:
320,192,25337,1,0,0:0:0:0:
192,192,25551,1,8,0:0:0:0:
320,192,25551,1,0,0:0:0:0:
192,192,25765,1,8,0:0:0:0:
320,192,25765,1,0,0:0:0:0:
448,192,25980,1,2,0:0:0:0:
448,192,26194,1,2,0:0:0:0:
64,192,26408,1,8,0:0:0:0:
320,192,26408,1,0,0:0:0:0:
192,192,26622,1,2,0:0:0:0:
192,192,26837,1,2,0:0:0:0:
64,192,27051,1,8,0:0:0:0:
448,192,27051,1,0,0:0:0:0:
320,192,27265,1,0,0:0:0:0:
64,192,27480,1,8,0:0:0:0:
448,192,27480,1,0,0:0:0:0:
192,192,27694,1,2,0:0:0:0:
192,192,27908,1,2,0:0:0:0:
320,192,28122,1,8,0:0:0:0:
448,192,28122,1,0,0:0:0:0:
64,192,28337,128,2,28551:0:0:0:0:
320,192,28551,1,2,0:0:0:0:
192,192,28765,1,8,0:0:0:0:
448,192,28765,128,0,28980:0:0:0:0:
192,192,29194,1,8,0:0:0:0:
448,192,29194,1,0,0:0:0:0:
64,192,29408,1,2,0:0:0:0:
64,192,29622,1,2,0:0:0:0:
192,192,29837,1,8,0:0:0:0:
448,192,29837,1,0,0:0:0:0:
320,192,30051,1,2,0:0:0:0:
320,192,30265,1,2,0:0:0:0:
64,192,30480,1,8,0:0:0:0:
448,192,30480,1,0,0:0:0:0:
192,192,30694,1,0,0:0:0:0:
64,192,30908,1,8,0:0:0:0:
448,192,30908,1,0,0:0:0:0:
320,192,31122,1,2,0:0:0:0:
320,192,31337,1,2,0:0:0:0:
64,192,31551,1,8,0:0:0:0:
192,192,31551,1,0,0:0:0:0:
448,192,31765,1,2,0:0:0:0:
64,192,31980,1,2,0:0:0:0:
320,192,32194,1,8,0:0:0:0:
448,192,32194,1,0,0:0:0:0:
320,192,32408,1,8,0:0:0:0:
448,192,32408,1,0,0:0:0:0:
320,192,32622,1,8,0:0:0:0:
448,192,32622,1,0,0:0:0:0:
64,192,32837,1,2,0:0:0:0:
64,192,33051,1,2,0:0:0:0:
192,192,33265,1,8,0:0:0:0:
448,192,33265,1,0,0:0:0:0:
320,192,33480,1,2,0:0:0:0:
320,192,33694,1,2,0:0:0:0:
192,192,33908,1,2,0:0:0:0:
64,192,34122,1,8,0:0:0:0:
448,192,34122,1,0,0:0:0:0:
320,192,34337,1,2,0:0:0:0:
192,192,34551,1,8,0:0:0:0:
448,192,34551,1,0,0:0:0:0:
64,192,34765,1,2,0:0:0:0:
64,192,34980,1,2,0:0:0:0:
320,192,35194,1,8,0:0:0:0:
448,192,35194,1,0,0:0:0:0:
192,192,35622,1,0,0:0:0:0:
320,192,35730,1,2,0:0:0:0:
64,192,35837,1,8,0:0:0:0:
448,192,35837,1,0,0:0:0:0:
320,192,36051,1,8,0:0:0:0:
192,192,36158,1,8,0:0:0:0:
64,192,36265,1,2,0:0:0:0:
320,192,36265,1,4,0:0:0:0:
448,192,36265,128,0,36694:0:0:0:0:
192,192,36587,1,0,0:0:0:0:
64,192,36694,128,2,37122:0:0:0:0:
320,192,36694,1,4,0:0:0:0:
192,192,36908,1,8,0:0:0:0:
320,192,37122,1,4,0:0:0:0:
448,192,37122,128,2,37337:0:0:0:0:
192,192,37337,128,0,37551:0:0:0:0:
64,192,37444,1,0,0:0:0:0:
320,192,37551,128,2,37765:0:0:0:0:
448,192,37551,1,4,0:0:0:0:
448,192,37765,128,8,37980:0:0:0:0:
64,192,37980,1,4,0:0:0:0:
320,192,37980,1,2,0:0:0:0:
192,192,38194,128,0,38301:0:0:0:0:
448,192,38301,128,0,38408:0:0:0:0:
64,192,38408,1,2,0:0:0:0:
320,192,38408,1,4,0:0:0:0:
192,192,38515,128,0,38622:0:0:0:0:
320,192,38622,128,8,38730:0:0:0:0:
448,192,38730,128,0,38837:0:0:0:0:
64,192,38837,128,4,38944:0:0:0:0:
192,192,38837,1,2,0:0:0:0:
448,192,38944,128,0,39051:0:0:0:0:
192,192,39158,128,0,39265:0:0:0:0:
320,192,39265,1,2,0:0:0:0:
448,192,39265,128,4,39480:0:0:0:0:
64,192,39480,128,8,39694:0:0:0:0:
192,192,39480,1,0,0:0:0:0:
320,192,39694,128,4,40122:0:0:0:0:
448,192,39694,1,2,0:0:0:0:
192,192,40015,1,0,0:0:0:0:
64,192,40122,1,2,0:0:0:0:
448,192,40122,128,4,40551:0:0:0:0:
320,192,40337,1,8,0:0:0:0:
64,192,40551,128,4,40765:0:0:0:0:
192,192,40551,1,2,0:0:0:0:
320,192,40765,128,0,40980:0:0:0:0:
448,192,40872,1,8,0:0:0:0:
64,192,40980,1,2,0:0:0:0:
192,192,40980,128,4,41194:0:0:0:0:
64,192,41194,128,8,41408:0:0:0:0:
320,192,41408,1,14,0:0:0:0:
64,192,41622,1,2,0:0:0:0:
192,192,41622,1,0,0:0:0:0:
64,192,41837,1,2,0:0:0:0:
320,192,41837,1,0,0:0:0:0:
192,192,42051,1,2,0:0:0:0:
448,192,42051,1,0,0:0:0:0:
320,192,42265,1,2,0:0:0:0:
448,192,42265,1,0,0:0:0:0:
64,192,42480,128,2,42694:0:0:0:0:
448,192,42694,128,8,43122:0:0:0:0:
320,192,42908,128,0,43122:0:0:0:0:
64,192,43122,128,2,43551:0:0:0:0:
192,192,43122,1,4,0:0:0:0:
192,192,43444,1,8,0:0:0:0:
320,192,43551,1,4,0:0:0:0:
448,192,43551,128,2,43980:0:0:0:0:
192,192,43765,1,8,0:0:0:0:
64,192,43980,128,2,44194:0:0:0:0:
320,192,43980,1,4,0:0:0:0:
192,192,44194,128,0,44408:0:0:0:0:
448,192,44301,1,8,0:0:0:0:
64,192,44408,1,4,0:0:0:0:
320,192,44408,128,2,44622:0:0:0:0:
192,192,44622,1,8,0:0:0:0:
448,192,44622,128,0,44837:0:0:0:0:
64,192,44837,1,2,0:0:0:0:
192,192,44837,1,4,0:0:0:0:
320,192,45051,1,0,0:0:0:0:
192,192,45158,1,0,0:0:0:0:
320,192,45265,1,0,0:0:0:0:
64,192,45372,1,0,0:0:0:0:
192,192,45480,1,0,0:0:0:0:
320,192,45587,1,0,0:0:0:0:
448,192,45694,128,0,45908:0:0:0:0:
64,192,45908,1,0,0:0:0:0:
192,192,46015,1,0,0:0:0:0:
320,192,46122,128,0,46337:0:0:0:50:Tom1.wav
448,192,46337,1,0,0:0:0:50:Tom2.wav
192,192,46444,1,0,0:0:0:50:Tom3.wav
64,192,46551,1,2,0:0:0:0:
320,192,46551,1,4,0:0:0:0:
448,192,46551,128,0,46980:0:0:0:0:
320,192,46872,1,0,0:0:0:0:
64,192,46980,1,4,0:0:0:0:
192,192,46980,128,2,47408:0:0:0:0:
320,192,47194,1,8,0:0:0:0:
64,192,47408,1,2,0:0:0:0:
448,192,47408,128,4,47622:0:0:0:0:
192,192,47622,128,0,47837:0:0:0:0:
64,192,47730,1,8,0:0:0:0:
320,192,47837,128,2,48051:0:0:0:0:
448,192,47837,1,4,0:0:0:0:
64,192,48051,128,8,48265:0:0:0:0:
192,192,48051,1,0,0:0:0:0:
320,192,48265,1,4,0:0:0:0:
448,192,48265,1,8,0:0:0:0:
64,192,48480,1,2,0:0:0:0:
320,192,48480,1,0,0:0:0:0:
192,192,48694,1,2,0:0:0:0:
448,192,48694,1,0,0:0:0:0:
320,192,48908,1,2,0:0:0:0:
448,192,48908,1,0,0:0:0:0:
64,192,49122,128,0,49337:0:0:0:0:
448,192,49337,1,0,0:0:0:0:
320,192,49408,1,0,0:0:0:0:
192,192,49480,1,0,0:0:0:0:
64,192,49551,128,0,49980:0:0:0:50:Tom3.wav
448,192,49551,1,0,0:0:0:0:
320,192,49765,128,0,49980:0:0:0:0:
192,192,49980,1,4,0:0:0:0:
448,192,49980,1,2,0:0:0:0:
320,192,50194,1,8,0:0:0:0:
64,192,50301,1,8,0:0:0:0:
192,192,50408,1,0,0:0:0:50:Tom3.wav
448,192,50408,1,0,0:0:0:0:
64,192,50622,1,8,0:0:0:0:
320,192,50730,1,8,0:0:0:0:
64,192,50837,1,4,0:0:0:0:
192,192,50837,1,2,0:0:0:0:
448,192,50837,1,0,0:0:0:0:
320,192,51051,1,8,0:0:0:0:
192,192,51158,1,8,0:0:0:0:
64,192,51265,1,0,0:0:0:50:Tom3.wav
448,192,51265,1,0,0:0:0:0:
192,192,51480,1,8,0:0:0:0:
320,192,51587,1,8,0:0:0:0:
64,192,51694,1,2,0:0:0:0:
192,192,51694,1,4,0:0:0:0:
448,192,51694,1,0,0:0:0:0:
320,192,51908,1,0,0:0:0:0:
64,192,52015,1,0,0:0:0:0:
448,192,52122,1,8,0:0:0:0:
192,192,52230,1,8,0:0:0:0:
320,192,52337,1,8,0:0:0:0:
64,192,52444,1,8,0:0:0:0:
448,192,52551,1,10,0:0:0:0:
320,192,52658,1,10,0:0:0:0:
192,192,52765,1,10,0:0:0:0:
448,192,52872,1,10,0:0:0:0:
64,192,52980,1,10,0:0:0:0:
192,192,53087,1,10,0:0:0:0:
320,192,53194,1,10,0:0:0:0:
64,192,53408,1,10,0:0:0:0:
448,192,53408,1,0,0:0:0:50:Tom2.wav
64,192,53730,1,10,0:0:0:0:
448,192,53730,1,0,0:0:0:50:Tom2.wav
64,192,54051,1,10,0:0:0:0:
448,192,54051,1,0,0:0:0:50:Tom2.wav
192,192,54480,1,0,0:0:0:0:
320,192,54694,1,0,0:0:0:50:Tom3.wav
448,192,54694,1,0,0:0:0:0:
192,192,54908,1,0,0:0:0:0:
64,192,55122,1,2,0:0:0:0:
320,192,55122,1,4,0:0:0:0:
448,192,55122,1,0,0:0:0:0:
320,192,55336,1,2,0:0:0:0:
64,192,55550,1,8,0:0:0:0:
192,192,55550,1,0,0:0:0:0:
320,192,55764,1,0,0:0:0:0:
64,192,55872,1,8,0:0:0:0:
192,192,55872,1,0,0:0:0:0:
448,192,55979,1,2,0:0:0:0:
448,192,56193,1,2,0:0:0:0:
64,192,56407,1,8,0:0:0:0:
320,192,56407,1,0,0:0:0:0:
192,192,56622,128,0,56836:0:0:0:0:
320,192,56836,1,2,0:0:0:0:
320,192,57050,128,2,57264:0:0:0:0:
64,192,57264,1,8,0:0:0:0:
192,192,57264,1,0,0:0:0:0:
448,192,57479,128,0,57693:0:0:0:0:
192,192,57586,1,8,0:0:0:0:
320,192,57586,1,0,0:0:0:0:
64,192,57693,1,2,0:0:0:0:
64,192,57907,1,2,0:0:0:0:
320,192,58122,1,8,0:0:0:0:
448,192,58122,1,0,0:0:0:0:
192,192,58336,1,0,0:0:0:0:
320,192,58550,1,2,0:0:0:0:
320,192,58764,1,2,0:0:0:0:
64,192,58979,1,8,0:0:0:0:
192,192,58979,1,0,0:0:0:0:
448,192,59193,1,0,0:0:0:0:
192,192,59300,1,8,0:0:0:0:
64,192,59407,128,2,59622:0:0:0:0:
320,192,59407,1,0,0:0:0:0:
320,192,59622,128,2,59836:0:0:0:0:
192,192,59836,128,8,60050:0:0:0:0:
448,192,59836,1,0,0:0:0:0:
320,192,60050,128,0,60264:0:0:0:0:
64,192,60264,1,2,0:0:0:0:
64,192,60479,128,2,60693:0:0:0:0:
320,192,60693,1,8,0:0:0:0:
448,192,60693,128,0,60907:0:0:0:0:
192,192,60907,1,0,0:0:0:0:
64,192,61014,1,8,0:0:0:0:
320,192,61014,1,0,0:0:0:0:
448,192,61122,1,2,0:0:0:0:
448,192,61336,128,2,61550:0:0:0:0:
64,192,61550,128,8,61979:0:0:0:0:
192,192,61550,1,0,0:0:0:0:
192,192,61979,1,4,0:0:0:0:
320,192,61979,1,2,0:0:0:0:
448,192,61979,1,0,0:0:0:0:
192,192,62193,128,2,62407:0:0:0:0:
64,192,62407,1,8,0:0:0:0:
448,192,62407,128,0,62622:0:0:0:0:
320,192,62622,128,0,62836:0:0:0:0:
192,192,62836,1,2,0:0:0:0:
192,192,63050,128,2,63264:0:0:0:0:
64,192,63264,1,8,0:0:0:0:
448,192,63264,128,0,63479:0:0:0:0:
320,192,63479,128,0,63693:0:0:0:0:
64,192,63693,1,2,0:0:0:0:
64,192,63907,128,2,64122:0:0:0:0:
192,192,64122,1,8,0:0:0:0:
320,192,64122,128,0,64336:0:0:0:0:
448,192,64336,128,0,64550:0:0:0:0:
64,192,64550,1,2,0:0:0:0:
192,192,64550,1,0,0:0:0:0:
448,192,64764,128,2,64979:0:0:0:0:
192,192,64979,1,8,0:0:0:0:
320,192,64979,128,4,65193:0:0:0:0:
64,192,65193,128,0,65407:0:0:0:0:
192,192,65407,1,4,0:0:0:0:
448,192,65407,1,8,0:0:0:0:
320,192,65622,1,2,0:0:0:0:
64,192,65836,1,8,0:0:0:0:
192,192,65836,1,0,0:0:0:0:
320,192,65943,1,2,0:0:0:0:
192,192,66157,1,2,0:0:0:0:
320,192,66264,1,8,0:0:0:0:
448,192,66264,1,0,0:0:0:0:
64,192,66479,1,2,0:0:0:0:
192,192,66693,1,8,0:0:0:0:
448,192,66693,1,0,0:0:0:0:
320,192,66907,1,0,0:0:0:0:
64,192,67122,1,8,0:0:0:0:
192,192,67122,1,4,0:0:0:0:
320,192,67122,1,2,0:0:0:0:
64,192,67336,1,8,0:0:0:0:
448,192,67336,1,0,0:0:0:0:
192,192,67550,1,8,0:0:0:0:
448,192,67550,1,2,0:0:0:0:
320,192,67764,1,8,0:0:0:0:
448,192,67764,1,0,0:0:0:0:
64,192,67979,1,8,0:0:0:0:
192,192,67979,1,2,0:0:0:0:
64,192,68193,1,8,0:0:0:0:
320,192,68193,1,0,0:0:0:0:
64,192,68407,1,8,0:0:0:0:
448,192,68407,1,2,0:0:0:0:
192,192,68622,1,8,0:0:0:0:
448,192,68622,1,0,0:0:0:0:
64,192,68836,1,2,0:0:0:0:
320,192,68836,1,4,0:0:0:0:
448,192,68836,1,0,0:0:0:0:
192,192,69050,1,0,0:0:0:0:
320,192,69264,1,8,0:0:0:0:
448,192,69264,1,0,0:0:0:0:
192,192,69479,1,0,0:0:0:0:
64,192,69693,1,2,0:0:0:0:
64,192,69907,1,2,0:0:0:0:
192,192,70122,1,8,0:0:0:0:
448,192,70122,1,0,0:0:0:0:
320,192,70336,128,0,70550:0:0:0:0:
192,192,70550,1,2,0:0:0:0:
192,192,70764,128,2,70979:0:0:0:0:
320,192,70979,1,8,0:0:0:0:
448,192,70979,1,0,0:0:0:0:
64,192,71193,128,0,71407:0:0:0:0:
448,192,71407,1,2,0:0:0:0:
448,192,71622,1,2,0:0:0:0:
64,192,71836,1,8,0:0:0:0:
192,192,71836,1,0,0:0:0:0:
320,192,72050,1,0,0:0:0:0:
192,192,72264,1,2,0:0:0:0:
192,192,72479,1,2,0:0:0:0:
320,192,72693,1,8,0:0:0:0:
448,192,72693,1,0,0:0:0:0:
64,192,72907,1,0,0:0:0:0:
192,192,73122,1,2,0:0:0:0:
448,192,73122,128,0,73336:0:0:0:0:
192,192,73336,128,2,73550:0:0:0:0:
64,192,73550,1,8,0:0:0:0:
320,192,73550,128,0,73764:0:0:0:0:
192,192,73764,128,0,73979:0:0:0:0:
448,192,73979,1,2,0:0:0:0:
448,192,74193,128,2,74407:0:0:0:0:
64,192,74407,128,8,74622:0:0:0:0:
192,192,74407,1,0,0:0:0:0:
320,192,74622,1,0,0:0:0:0:
448,192,74836,1,2,0:0:0:0:
448,192,75050,128,2,75264:0:0:0:0:
64,192,75264,128,8,75693:0:0:0:0:
192,192,75264,1,0,0:0:0:0:
192,192,75693,1,2,0:0:0:0:
320,192,75693,1,4,0:0:0:0:
448,192,75693,1,0,0:0:0:0:
320,192,75907,128,2,76122:0:0:0:0:
64,192,76122,128,8,76336:0:0:0:0:
448,192,76122,1,0,0:0:0:0:
192,192,76336,128,0,76550:0:0:0:0:
320,192,76550,1,2,0:0:0:0:
320,192,76764,128,2,76979:0:0:0:0:
64,192,76979,128,8,77193:0:0:0:0:
448,192,76979,1,0,0:0:0:0:
192,192,77193,128,0,77407:0:0:0:0:
448,192,77407,1,2,0:0:0:0:
448,192,77622,128,2,77836:0:0:0:0:
192,192,77836,128,8,78050:0:0:0:0:
320,192,77836,1,0,0:0:0:0:
64,192,78050,128,0,78264:0:0:0:0:
320,192,78264,1,2,0:0:0:0:
448,192,78264,1,0,0:0:0:0:
64,192,78479,128,2,78693:0:0:0:0:
192,192,78693,128,8,78907:0:0:0:0:
320,192,78693,1,4,0:0:0:0:
448,192,78907,128,0,79122:0:0:0:0:
64,192,79122,1,4,0:0:0:0:
320,192,79122,1,8,0:0:0:0:
192,192,79336,1,2,0:0:0:0:
320,192,79550,1,8,0:0:0:0:
448,192,79550,1,0,0:0:0:0:
192,192,79657,1,2,0:0:0:0:
320,192,79872,1,2,0:0:0:0:
64,192,79979,1,8,0:0:0:0:
192,192,79979,1,0,0:0:0:0:
448,192,80193,1,2,0:0:0:0:
64,192,80407,1,8,0:0:0:0:
320,192,80407,1,4,0:0:0:0:
192,192,80622,1,0,0:0:0:0:
192,192,80836,1,8,0:0:0:0:
320,192,80836,1,4,0:0:0:0:
448,192,80836,1,2,0:0:0:0:
64,192,81050,1,8,0:0:0:0:
448,192,81050,1,0,0:0:0:0:
64,192,81264,1,8,0:0:0:0:
320,192,81264,1,2,0:0:0:0:
64,192,81479,1,8,0:0:0:0:
192,192,81479,1,0,0:0:0:0:
320,192,81693,1,8,0:0:0:0:
448,192,81693,1,2,0:0:0:0:
192,192,81907,1,8,0:0:0:0:
448,192,81907,1,0,0:0:0:0:
64,192,82122,1,8,0:0:0:0:
448,192,82122,1,2,0:0:0:0:
64,192,82336,1,8,0:0:0:0:
320,192,82336,1,0,0:0:0:0:
64,192,82550,128,2,82979:0:0:0:0:
192,192,82550,1,4,0:0:0:0:
448,192,82550,1,0,0:0:0:0:
192,192,82764,1,2,0:0:0:0:
320,192,82979,1,8,0:0:0:0:
448,192,82979,128,0,83193:0:0:0:0:
192,192,83193,1,2,0:0:0:0:
64,192,83407,1,2,0:0:0:0:
192,192,83407,1,0,0:0:0:0:
192,192,83622,128,8,83836:0:0:0:0:
448,192,83622,1,0,0:0:0:0:
64,192,83836,1,0,0:0:0:0:
192,192,84050,128,8,84264:0:0:0:0:
448,192,84050,1,0,0:0:0:0:
64,192,84264,1,2,0:0:0:0:
320,192,84264,1,0,0:0:0:0:
448,192,84479,128,2,84693:0:0:0:0:
64,192,84693,128,8,84907:0:0:0:0:
192,192,84693,1,0,0:0:0:0:
448,192,84907,128,0,85122:0:0:0:0:
64,192,85122,128,8,85336:0:0:0:0:
320,192,85122,128,4,85336:0:0:0:0:
64,192,85443,128,8,85657:0:0:0:0:
320,192,85443,128,4,85657:0:0:0:0:
64,192,85764,128,8,88764:0:0:0:0:
192,192,85764,128,4,88657:0:0:0:0:
448,192,85764,128,2,88550:0:0:0:0:
