osu file format v14

[General]
AudioFilename: audio.mp3
AudioLeadIn: 0
PreviewTime: 166653
Countdown: 0
SampleSet: Soft
StackLeniency: 0.4
Mode: 0
LetterboxInBreaks: 0
EpilepsyWarning: 1
WidescreenStoryboard: 1

[Editor]
DistanceSpacing: 1.4
BeatDivisor: 4
GridSize: 4
TimelineZoom: 1.7

[Metadata]
Title:Centimeter
TitleUnicode:センチメートル
Artist:the peggies
ArtistUnicode:the peggies
Creator:Left
Version:kunka's Insane
Source:彼女、お借りします
Tags:Kanojo, Okarishimasu Rent-A-Girlfriend rental girlfriend KanoKari OP opening full TMS Entertainment jpop j-pop japanese pop anime rock j-rock kunka Shikibe Mayu Shizuku- kazato asa
BeatmapID:3400401
BeatmapSetID:1663628

[Difficulty]
HPDrainRate:5.5
CircleSize:4
OverallDifficulty:7
ApproachRate:8
SliderMultiplier:1.6
SliderTickRate:1

[Events]
//Background and Video events
0,0,"BG.jpg",0,0
//Break Periods
2,166853,172546
//Storyboard Layer 0 (Background)
//Storyboard Layer 1 (Fail)
//Storyboard Layer 2 (Pass)
//Storyboard Layer 3 (Foreground)
//Storyboard Layer 4 (Overlay)
//Storyboard Sound Samples

[TimingPoints]
368,428.571428571429,4,2,7,70,1,0
3796,-200,4,2,7,70,0,0
5510,-100,4,2,7,70,0,0
9796,-125,4,2,7,70,0,0
10653,-100,4,2,7,70,0,0
15796,-125,4,2,7,70,0,0
17082,-166.666666666666,4,2,7,70,0,0
17403,-166.666666666666,4,2,7,5,0,0
17510,-90.9090909090909,4,2,7,70,0,0
18475,-90.9090909090909,4,2,7,5,0,0
18582,-90.9090909090909,4,2,7,70,0,0
18903,-90.9090909090909,4,2,7,5,0,0
19010,-90.9090909090909,4,2,7,70,0,0
21903,-90.9090909090909,4,2,7,5,0,0
22010,-90.9090909090909,4,2,7,70,0,0
22332,-90.9090909090909,4,2,7,5,0,0
22439,-90.9090909090909,4,2,7,70,0,0
23510,-83.3333333333333,4,2,7,80,0,0
23725,-83.3333333333333,4,2,7,5,0,0
23832,-83.3333333333333,4,2,7,80,0,0
24260,-83.3333333333333,4,2,7,5,0,0
24368,-100,4,2,7,65,0,0
38082,-90.9090909090909,4,2,7,75,0,0
44296,-125,4,2,7,75,0,0
44832,-125,4,2,7,5,0,0
44939,-90.9090909090909,4,2,7,75,0,0
46653,-125,4,2,7,50,0,0
47939,-100,4,2,7,75,0,0
48368,-90.9090909090909,4,2,7,75,0,0
50939,-125,4,2,7,70,0,0
51796,-90.9090909090909,4,2,7,75,0,0
52118,-90.9090909090909,4,2,7,5,0,0
52225,-90.9090909090909,4,2,7,75,0,0
52546,-90.9090909090909,4,2,7,5,0,0
52653,-90.9090909090909,4,2,7,75,0,0
55225,-83.3333333333333,4,2,7,85,0,0
55439,-83.3333333333333,4,2,7,5,0,0
55546,-83.3333333333333,4,2,7,85,0,0
55760,-83.3333333333333,4,2,7,5,0,0
55868,-83.3333333333333,4,2,7,85,0,0
56403,-83.3333333333333,4,2,7,5,0,0
56510,-100,4,2,7,70,0,0
56939,-76.9230769230769,4,2,7,85,0,1
63796,-83.3333333333333,4,2,7,85,0,1
70653,-76.9230769230769,4,2,7,85,0,1
77510,-83.3333333333333,4,2,7,85,0,1
84368,-90.9090909090909,4,2,7,70,0,0
85332,-90.9090909090909,4,2,7,5,0,0
85439,-90.9090909090909,4,2,7,70,0,0
85760,-90.9090909090909,4,2,7,5,0,0
85868,-90.9090909090909,4,2,7,70,0,0
88760,-90.9090909090909,4,2,7,5,0,0
88868,-90.9090909090909,4,2,7,70,0,0
89189,-90.9090909090909,4,2,7,5,0,0
89296,-90.9090909090909,4,2,7,70,0,0
90368,-83.3333333333333,4,2,7,80,0,0
90582,-83.3333333333333,4,2,7,5,0,0
90689,-83.3333333333333,4,2,7,80,0,0
91118,-83.3333333333333,4,2,7,5,0,0
91225,-100,4,2,7,65,0,0
104296,-125,4,2,7,55,0,0
104832,-125,4,2,7,5,0,0
104939,-90.9090909090909,4,2,7,75,0,0
110939,-125,4,2,7,65,0,0
111796,-90.9090909090909,4,2,7,75,0,0
117796,-125,4,2,7,65,0,0
118653,-90.9090909090909,4,2,7,75,0,0
122082,-83.3333333333333,4,2,7,85,0,0
122296,-83.3333333333333,4,2,7,5,0,0
122403,-83.3333333333333,4,2,7,85,0,0
122618,-83.3333333333333,4,2,7,5,0,0
122725,-83.3333333333333,4,2,7,85,0,0
123796,-76.9230769230769,4,2,7,85,0,1
130653,-83.3333333333333,4,2,7,85,0,1
137510,-76.9230769230769,4,2,7,85,0,1
144368,-83.3333333333333,4,2,7,85,0,1
151225,-90.9090909090909,4,2,7,70,0,0
164939,-83.3333333333333,4,2,7,85,0,0
165153,-83.3333333333333,4,2,7,5,0,0
165260,-83.3333333333333,4,2,7,85,0,0
165475,-83.3333333333333,4,2,7,5,0,0
165582,-83.3333333333333,4,2,7,85,0,0
166546,-83.3333333333333,4,2,7,5,0,0
166653,-125,4,2,7,45,0,0
173510,-100,4,2,7,55,0,0
176939,-90.9090909090909,4,2,7,65,0,0
178653,-83.3333333333333,4,2,7,75,0,0
180368,-76.9230769230769,4,2,7,85,0,1
183796,-90.9090909090909,4,2,7,70,0,0
190653,-83.3333333333333,4,2,7,80,0,0
194082,-76.9230769230769,4,2,7,85,0,1
200939,-83.3333333333333,4,2,7,85,0,1
206082,-125,4,2,7,70,0,0
207368,-125,4,2,7,55,0,0
207689,-125,4,2,7,5,0,0
207796,-90.9090909090909,4,2,7,70,0,0
208760,-90.9090909090909,4,2,7,5,0,0
208868,-90.9090909090909,4,2,7,70,0,0
209189,-90.9090909090909,4,2,7,5,0,0
209296,-90.9090909090909,4,2,7,70,0,0
212189,-90.9090909090909,4,2,7,5,0,0
212296,-90.9090909090909,4,2,7,70,0,0
212618,-90.9090909090909,4,2,7,5,0,0
212725,-90.9090909090909,4,2,7,70,0,0
215618,-90.9090909090909,4,2,7,5,0,0
215725,-90.9090909090909,4,2,7,70,0,0
216046,-90.9090909090909,4,2,7,5,0,0
216153,-90.9090909090909,4,2,7,70,0,0
219046,-90.9090909090909,4,2,7,5,0,0
219153,-90.9090909090909,4,2,7,70,0,0
219475,-90.9090909090909,4,2,7,5,0,0
219582,-90.9090909090909,4,2,7,70,0,0
220653,-83.3333333333333,4,2,7,80,0,0
220868,-83.3333333333333,4,2,7,5,0,0
220975,-83.3333333333333,4,2,7,80,0,0
221189,-83.3333333333333,4,2,7,5,0,0
221296,-100,4,2,7,60,0,0
223653,-100,4,2,7,66,0,0
223760,-100,4,2,7,67,0,0
223868,-100,4,2,7,68,0,0
223975,-100,4,2,7,69,0,0

[Colours]
Combo1 : 205,205,205
Combo2 : 253,53,138
Combo3 : 255,188,64
Combo4 : 255,149,202
Combo5 : 255,217,128

[HitObjects]
256,192,1225,12,4,3368,0:3:0:0:
100,267,3796,6,0,L|270:255,1,160,4|0,3:1|0:0,0:0:0:0:
371,249,5082,1,14,0:0:0:0:
403,63,5510,5,4,3:2:0:0:
403,63,5725,2,0,P|382:99|378:138,1,80,0|2,0:0|3:2,0:0:0:0:
398,246,6153,1,8,0:0:0:0:
197,346,6582,1,4,0:3:0:0:
197,347,6797,2,0,P|192:307|171:273,1,80,0|2,3:3|0:0,0:0:0:0:
72,163,7225,54,0,P|76:123|97:89,1,80,4|0,3:1|0:0,0:0:0:0:
122,59,7546,1,0,0:0:0:0:
122,59,7653,1,8,0:3:0:0:
229,24,7868,1,4,3:2:0:0:
322,84,8082,2,0,L|313:165,1,80,0|8,0:0|0:3,0:0:0:0:
236,245,8510,1,4,0:3:0:0:
342,346,8725,2,0,P|264:323|197:359,1,160,4|0,3:1|3:1,0:0:0:0:
95,311,9368,2,0,L|86:231,1,80,8|0,0:0|3:0,0:0:0:0:
35,157,9796,5,14,0:1:0:0:
240,193,10225,1,10,0:1:0:0:
403,65,10653,6,0,L|394:144,1,80,4|0,3:1|0:0,0:0:0:0:
385,256,11082,1,2,3:2:0:0:
277,225,11296,2,0,P|197:217|132:257,1,160,2|0,0:0|0:0,0:0:0:0:
79,157,11939,1,2,3:2:0:0:
79,157,12153,2,0,L|87:77,1,80,0|4,0:0|3:2,0:0:0:0:
226,85,12582,5,0,0:0:0:0:
319,23,12796,1,2,3:2:0:0:
400,99,13010,2,0,P|408:135|401:177,1,80,2|6,0:0|3:2,0:0:0:0:
317,292,13439,1,2,0:0:0:0:
421,332,13653,1,0,3:0:0:0:
494,246,13868,1,0,0:0:0:0:
327,180,14082,21,12,0:1:0:0:
321,183,14296,1,4,0:3:0:0:
212,209,14510,1,4,0:3:0:0:
209,203,14724,1,8,0:0:0:0:
312,62,14939,5,8,0:0:0:0:
312,236,15153,1,8,0:0:0:0:
209,95,15368,1,8,0:0:0:0:
375,149,15582,1,8,0:0:0:0:
209,203,15796,54,0,P|102:183|168:307,1,320,4|0,3:1|3:0,0:0:0:0:
245,277,17082,2,0,P|281:273|318:280,1,71.9999978027344,8|0,0:0|0:0,0:0:0:0:
352,291,17510,6,0,P|375:254|414:233,1,88.000002685547,4|0,3:1|0:0,0:0:0:0:
454,116,17939,1,8,0:0:0:0:
370,25,18153,2,0,L|236:45,1,132.00000402832,0|0,3:1|0:0,0:0:0:0:
212,79,18582,2,0,L|232:213,1,132.00000402832,8|0,0:0|0:0,0:0:0:0:
275,209,19010,2,0,L|262:295,1,88.000002685547,12|0,0:2|0:0,0:0:0:0:
158,363,19439,53,0,3:0:0:0:
40,326,19653,1,12,0:2:0:0:
163,333,19868,1,0,0:0:0:0:
99,163,20082,2,0,P|93:117|62:86,1,88.000002685547,14|8,0:1|0:3,0:0:0:0:
229,8,20510,2,0,P|199:40|195:83,1,88.000002685547,2|0,3:1|3:0,0:0:0:0:
316,190,20939,6,0,L|407:179,1,88.000002685547,4|2,3:1|3:2,0:0:0:0:
476,278,21368,1,8,0:0:0:0:
377,351,21582,2,0,P|310:360|265:319,1,132.00000402832,0|0,3:1|0:0,0:0:0:0:
236,286,22010,2,0,P|169:276|124:318,1,132.00000402832,8|0,0:1|0:0,0:0:0:0:
84,337,22439,2,0,L|70:243,1,88.000002685547,12|0,0:2|3:0,0:0:0:0:
94,128,22868,53,0,3:0:0:0:
214,154,23082,1,14,0:2:0:0:
107,92,23296,1,0,3:0:0:0:
210,254,23510,2,0,P|253:240|304:245,1,95.9999970703126,14|0,0:1|0:0,0:0:0:0:
342,255,23832,2,2,P|401:280|380:195,1,191.999994140625,10|0,0:1|0:0,0:0:0:0:
362,160,24368,38,0,L|376:82,1,80,4|0,3:1|3:0,0:0:0:0:
284,17,24796,1,8,0:0:0:0:
278,20,25010,1,0,3:0:0:0:
203,104,25225,2,0,P|194:140|204:183,1,80,0|8,3:0|0:0,0:0:0:0:
280,261,25653,2,0,P|289:299|280:338,1,80,0|8,0:0|0:0,0:0:0:0:
148,299,26082,53,4,3:2:0:0:
45,343,26296,1,0,3:0:0:0:
6,238,26510,1,8,0:0:0:0:
162,273,26725,2,0,P|201:269|243:260,1,80,0|0,3:0|3:0,0:0:0:0:
372,184,27153,1,14,0:1:0:0:
463,305,27368,1,10,0:1:0:0:
318,350,27582,1,10,0:1:0:0:
254,258,27796,5,4,3:1:0:0:
254,258,28010,2,0,P|252:218|263:178,1,80,0|8,3:0|0:0,0:0:0:0:
331,90,28439,1,0,3:0:0:0:
236,29,28653,2,0,P|195:31|152:42,1,80,0|8,3:0|0:0,0:0:0:0:
96,134,29082,2,0,P|137:136|180:147,1,80,0|8,0:0|0:0,0:0:0:0:
274,243,29510,53,4,3:2:0:0:
369,183,29725,1,0,3:0:0:0:
450,259,29939,1,8,0:0:0:0:
295,267,30153,2,0,L|312:354,1,80,0|0,3:0|3:0,0:0:0:0:
407,192,30582,1,10,0:1:0:0:
428,151,31010,1,14,0:1:0:0:
428,151,31225,6,0,L|349:166,1,80,0|0,0:0|3:2,0:0:0:0:
257,102,31653,1,8,0:0:0:0:
251,105,31868,1,0,3:0:0:0:
184,194,32082,2,0,P|167:230|168:280,1,80,0|8,3:0|0:0,0:0:0:0:
75,335,32510,2,0,P|73:295|56:259,1,80,0|8,0:0|0:2,0:0:0:0:
22,130,32939,53,4,3:2:0:0:
95,45,33153,1,0,3:2:0:0:
200,83,33368,1,8,3:2:0:0:
117,209,33582,2,0,L|128:295,1,80,0|0,3:0|3:0,0:0:0:0:
314,253,34010,1,14,0:1:0:0:
414,304,34225,1,10,0:1:0:0:
500,233,34439,1,10,0:1:0:0:
324,290,34653,5,4,3:1:0:0:
324,290,34868,2,0,L|238:286,1,80,0|8,3:0|0:0,0:0:0:0:
146,341,35296,1,0,0:0:0:0:
60,268,35510,2,0,P|55:226|66:189,1,80,0|0,3:3|3:3,0:0:0:0:
151,117,35939,2,0,L|230:120,1,80,8|0,0:0|3:0,0:0:0:0:
371,46,36368,54,0,B|388:67|388:67|376:96|374:130,1,80,12|0,0:1|3:0,0:0:0:0:
379,158,36689,1,2,0:0:0:0:
379,158,36796,1,0,3:0:0:0:
225,90,37010,1,12,0:0:0:0:
296,304,37439,1,2,0:0:0:0:
296,323,37546,1,2,0:0:0:0:
289,341,37653,1,12,0:0:0:0:
151,305,37868,1,0,3:0:0:0:
151,305,37975,1,0,3:0:0:0:
151,305,38082,54,0,P|105:310|61:323,1,88.000002685547,4|0,3:1|3:0,0:0:0:0:
9,254,38403,1,0,3:0:0:0:
0,234,38510,2,0,P|5:188|18:144,1,88.000002685547,4|8,3:2|0:2,0:0:0:0:
107,64,38939,1,4,3:1:0:0:
206,136,39153,1,0,3:2:0:0:
126,230,39368,1,4,3:2:0:0:
190,55,39582,1,8,0:2:0:0:
190,55,39689,1,0,3:0:0:0:
190,55,39796,53,4,3:2:0:0:
296,117,40010,1,0,3:2:0:0:
296,117,40118,1,0,3:0:0:0:
296,117,40225,2,0,L|343:106,1,44.0000013427735,4|0,3:2|0:0,0:0:0:0:
275,197,40439,2,0,L|228:186,1,44.0000013427735,8|0,0:2|0:0,0:0:0:0:
296,273,40653,2,0,P|339:264|380:279,1,88.000002685547,4|0,3:1|3:2,0:0:0:0:
416,310,40975,1,0,3:0:0:0:
416,310,41082,1,4,3:2:0:0:
472,199,41296,1,8,0:2:0:0:
416,50,41510,6,0,P|372:49|326:70,1,88.000002685547,4|0,3:2|3:2,0:0:0:0:
272,129,41832,1,0,3:0:0:0:
254,142,41939,2,0,P|210:143|164:122,1,88.000002685547,4|8,3:2|0:0,0:0:0:0:
50,158,42368,2,0,B|28:197|28:197|37:249,1,88.000002685547,4|0,3:1|3:2,0:0:0:0:
47,281,42689,1,8,0:0:0:0:
47,281,42796,1,4,3:2:0:0:
155,223,43010,1,4,0:3:0:0:
325,313,43225,53,6,3:1:0:0:
325,135,43439,1,2,3:1:0:0:
220,279,43653,1,10,0:1:0:0:
389,224,43868,1,10,0:1:0:0:
220,169,44082,1,10,0:1:0:0:
361,314,44296,5,0,3:0:0:0:
361,314,44510,2,0,L|350:217,1,96,12|0,0:0|0:0,0:0:0:0:
289,161,44939,54,0,L|200:171,1,88.000002685547,4|0,3:1|3:0,0:0:0:0:
135,229,45260,1,0,3:0:0:0:
120,245,45368,2,0,L|32:235,1,88.000002685547,4|8,3:2|0:2,0:0:0:0:
9,114,45796,1,4,3:1:0:0:
113,49,46010,1,0,3:2:0:0:
201,134,46225,1,4,3:2:0:0:
137,274,46439,1,8,0:2:0:0:
139,295,46546,1,0,3:0:0:0:
141,310,46653,5,4,3:2:0:0:
141,310,47939,1,8,0:3:0:0:
244,352,48153,1,4,0:3:0:0:
244,352,48260,1,4,0:3:0:0:
244,352,48368,54,0,P|285:359|327:339,1,88.000002685547,4|0,3:1|3:0,0:0:0:0:
327,249,48689,1,0,3:0:0:0:
311,234,48796,2,0,P|270:227|228:247,1,88.000002685547,4|8,3:2|0:0,0:0:0:0:
107,270,49225,1,4,3:1:0:0:
24,178,49439,1,0,3:0:0:0:
24,178,49546,1,0,3:0:0:0:
24,178,49653,1,4,3:2:0:0:
144,150,49868,1,8,0:0:0:0:
116,314,50082,5,6,3:1:0:0:
233,276,50296,1,2,3:1:0:0:
322,360,50510,1,2,3:1:0:0:
439,322,50725,1,2,3:1:0:0:
259,251,50939,1,2,0:0:0:0:
176,285,51153,53,2,0:0:0:0:
176,285,51368,2,0,L|171:222,1,64,4|2,0:3|0:0,0:0:0:0:
113,39,51796,6,0,P|92:98|134:149,1,132.00000402832,4|10,3:1|0:0,0:0:0:0:
175,144,52225,2,0,L|307:131,1,132.00000402832,4|10,3:2|0:0,0:0:0:0:
326,93,52653,1,4,3:2:0:0:
417,176,52868,1,10,0:0:0:0:
478,30,53082,1,4,3:2:0:0:
359,54,53296,1,10,0:0:0:0:
470,183,53510,54,0,P|480:223|467:269,1,88.000002685547,12|0,0:1|3:0,0:0:0:0:
363,333,53939,1,4,0:3:0:0:
331,345,54046,1,4,0:3:0:0:
296,343,54153,1,8,0:3:0:0:
265,327,54260,1,8,0:0:0:0:
231,297,54368,5,8,0:0:0:0:
190,281,54475,1,8,0:0:0:0:
147,286,54582,1,8,0:0:0:0:
111,311,54689,1,8,0:0:0:0:
90,349,54796,1,8,0:0:0:0:
67,311,54903,1,8,0:0:0:0:
27,292,55010,1,8,0:0:0:0:
212,172,55225,54,0,L|311:185,1,95.9999970703126,6|0,3:1|0:0,0:0:0:0:
388,103,55546,2,0,L|292:90,1,95.9999970703126,10|0,0:1|0:0,0:0:0:0:
323,211,55868,1,10,0:1:0:0:
474,159,56082,2,0,P|490:228|463:296,1,143.999995605469,0|0,0:0|0:0,0:0:0:0:
464,293,56510,1,8,0:3:0:0:
265,370,56939,6,0,P|257:314|245:266,1,103.999995239258,4|0,3:1|3:0,0:0:0:0:
143,164,57368,2,0,P|87:171|39:184,1,103.999995239258,8|0,0:1|3:0,0:0:0:0:
5,221,57689,1,8,0:0:0:0:
5,222,57796,1,0,3:0:0:0:
111,321,58010,1,0,3:0:0:0:
235,246,58225,1,8,0:0:0:0:
60,147,58439,54,0,P|67:91|80:43,1,103.999995239258,2|4,0:0|3:2,0:0:0:0:
218,0,58868,2,0,P|273:7|322:20,1,103.999995239258,0|8,0:0|0:0,0:0:0:0:
444,94,59296,1,0,3:0:0:0:
473,85,59403,1,8,0:0:0:0:
504,85,59510,1,4,3:1:0:0:
327,150,59725,1,0,0:0:0:0:
361,291,59939,1,8,0:0:0:0:
176,253,60153,6,0,P|165:204|183:153,1,103.999995239258,0|4,0:0|3:2,0:0:0:0:
284,50,60582,1,0,0:2:0:0:
290,47,60796,1,8,0:0:0:0:
101,68,61010,1,0,3:0:0:0:
101,68,61118,1,8,0:0:0:0:
101,68,61225,1,2,3:1:0:0:
165,198,61439,1,2,3:1:0:0:
297,139,61653,1,12,0:1:0:0:
414,267,61868,54,0,P|360:259|317:282,1,103.999995239258,2|4,0:0|3:2,0:0:0:0:
189,348,62296,1,0,3:0:0:0:
63,274,62510,2,0,P|62:219|76:172,1,103.999995239258,8|0,0:0|3:0,0:0:0:0:
100,126,62832,1,8,0:0:0:0:
100,126,62939,1,6,3:1:0:0:
230,190,63153,1,0,3:0:0:0:
367,142,63368,2,2,P|368:87|354:40,1,103.999995239258,14|0,0:1|0:0,0:0:0:0:
194,16,63796,6,0,P|144:18|95:29,1,95.9999970703126,4|0,3:2|0:0,0:0:0:0:
33,146,64225,1,8,0:0:0:0:
85,269,64439,1,0,3:0:0:0:
92,285,64546,1,8,0:0:0:0:
93,302,64653,1,0,3:0:0:0:
199,198,64868,1,0,3:0:0:0:
199,198,65082,2,0,P|248:200|298:211,1,95.9999970703126,8|0,0:0|0:0,0:0:0:0:
417,261,65510,53,4,3:2:0:0:
479,92,65725,1,0,0:0:0:0:
366,18,65939,2,0,P|316:20|267:31,1,95.9999970703126,8|0,0:0|3:0,0:0:0:0:
226,47,66260,1,8,0:0:0:0:
226,47,66368,1,4,3:2:0:0:
141,160,66582,1,0,0:0:0:0:
264,212,66796,1,12,0:1:0:0:
271,77,67010,1,0,0:0:0:0:
109,192,67225,6,0,P|119:238|127:295,1,95.9999970703126,12|4,0:2|0:3,0:0:0:0:
283,353,67653,2,0,P|289:305|300:258,1,95.9999970703126,8|4,0:0|0:3,0:0:0:0:
312,211,67975,1,0,3:0:0:0:
312,211,68082,1,12,0:0:0:0:
381,96,68296,1,0,0:0:0:0:
496,166,68510,1,12,0:0:0:0:
296,176,68725,1,0,0:0:0:0:
507,130,68939,53,12,0:0:0:0:
417,29,69153,1,0,3:0:0:0:
400,211,69368,1,8,0:3:0:0:
395,249,69475,1,8,0:0:0:0:
391,287,69582,1,8,0:0:0:0:
386,325,69689,1,8,0:0:0:0:
346,349,69796,5,8,0:0:0:0:
308,319,69903,1,8,0:0:0:0:
262,305,70010,1,8,0:0:0:0:
215,310,70117,1,8,0:0:0:0:
173,333,70225,2,0,L|153:285,1,47.9999985351563,8|8,0:0|0:0,0:0:0:0:
68,247,70439,2,0,L|88:198,1,47.9999985351563,8|8,0:0|0:0,0:0:0:0:
165,133,70653,54,0,P|214:150|269:146,1,103.999995239258,4|0,3:1|0:0,0:0:0:0:
344,23,71082,2,0,P|295:6|240:10,1,103.999995239258,8|0,0:1|3:0,0:0:0:0:
129,98,71510,1,0,3:0:0:0:
170,238,71725,1,0,3:0:0:0:
291,158,71939,1,8,0:0:0:0:
445,297,72153,6,0,P|395:297|345:328,1,103.999995239258,0|4,3:0|3:2,0:0:0:0:
253,212,72582,2,0,P|258:161|273:103,1,103.999995239258,0|8,3:0|0:0,0:0:0:0:
379,12,73010,2,0,P|429:17|488:32,1,103.999995239258,0|4,3:0|3:1,0:0:0:0:
402,204,73439,1,0,3:0:0:0:
263,158,73653,1,8,0:0:0:0:
154,255,73868,54,0,P|142:305|136:357,1,103.999995239258,0|4,0:0|3:2,0:0:0:0:
54,236,74296,1,0,0:0:0:0:
48,230,74510,2,0,P|32:183|49:130,1,103.999995239258,8|0,0:0|0:0,0:0:0:0:
183,14,74939,1,0,3:0:0:0:
183,14,75046,1,0,3:0:0:0:
183,14,75153,1,0,3:0:0:0:
268,132,75368,1,8,0:0:0:0:
177,294,75582,6,0,P|234:292|279:310,1,103.999995239258,0|4,3:0|3:1,0:0:0:0:
414,355,76010,1,0,0:0:0:0:
488,229,76225,2,0,P|485:178|476:124,1,103.999995239258,8|0,0:0|0:0,0:0:0:0:
369,27,76653,1,6,3:1:0:0:
264,128,76868,1,0,0:0:0:0:
124,87,77082,2,0,P|73:89|19:99,1,103.999995239258,10|0,0:1|0:0,0:0:0:0:
136,273,77510,54,0,P|139:228|163:183,1,95.9999970703126,4|0,3:2|0:0,0:0:0:0:
253,84,77939,1,8,0:0:0:0:
375,139,78153,1,0,3:0:0:0:
391,146,78260,1,8,0:0:0:0:
408,147,78367,1,0,3:0:0:0:
424,13,78582,1,0,3:0:0:0:
424,13,78796,2,0,P|376:15|325:24,1,95.9999970703126,8|0,0:0|0:0,0:0:0:0:
214,95,79225,5,4,3:2:0:0:
271,266,79439,1,0,0:0:0:0:
167,350,79653,1,8,0:0:0:0:
35,319,79868,2,0,P|79:304|125:317,1,95.9999970703126,0|4,3:0|3:2,0:0:0:0:
147,139,80296,1,0,0:0:0:0:
226,247,80510,1,12,0:1:0:0:
84,261,80725,1,0,0:0:0:0:
87,34,80939,54,0,P|137:40|181:53,1,95.9999970703126,12|0,0:0|0:0,0:0:0:0:
294,154,81368,2,0,P|340:140|387:135,1,95.9999970703126,12|0,0:0|3:0,0:0:0:0:
435,140,81689,1,0,3:0:0:0:
435,140,81796,1,12,0:0:0:0:
382,264,82010,1,0,0:0:0:0:
235,221,82225,2,0,L|183:213,1,47.9999985351563,12|0,0:0|0:0,0:0:0:0:
225,306,82439,2,0,L|277:298,1,47.9999985351563,0|0,0:0|0:0,0:0:0:0:
365,283,82653,5,12,0:1:0:0:
487,340,82868,1,0,3:0:0:0:
478,206,83082,1,8,0:3:0:0:
473,167,83189,1,8,0:0:0:0:
469,129,83296,1,8,0:0:0:0:
464,91,83403,1,8,0:0:0:0:
425,62,83510,53,8,0:0:0:0:
388,92,83617,1,8,0:0:0:0:
343,107,83724,1,8,0:0:0:0:
295,105,83831,1,8,0:0:0:0:
251,86,83939,2,0,L|243:37,1,47.9999985351563,8|8,0:0|0:0,0:0:0:0:
160,86,84153,2,0,L|152:133,1,47.9999985351563,8|8,0:0|0:0,0:0:0:0:
202,211,84368,6,0,P|215:255|199:296,1,88.000002685547,12|0,0:1|0:0,0:0:0:0:
101,365,84796,1,8,0:0:0:0:
29,265,85010,2,0,B|21:221|21:221|37:177|37:177|29:137,1,132.00000402832,0|0,3:1|0:0,0:0:0:0:
20,93,85439,2,0,P|66:55|137:64,1,132.00000402832,8|0,0:0|0:0,0:0:0:0:
173,82,85868,2,0,P|213:95|258:81,1,88.000002685547,12|0,0:2|0:0,0:0:0:0:
367,30,86296,53,0,3:0:0:0:
484,65,86510,1,12,0:2:0:0:
360,60,86725,1,0,0:0:0:0:
304,234,86939,2,0,P|311:275|346:312,1,88.000002685547,14|8,0:1|0:3,0:0:0:0:
176,224,87368,2,0,P|168:182|133:145,1,88.000002685547,2|0,3:1|3:0,0:0:0:0:
109,316,87796,6,0,L|198:309,1,88.000002685547,4|2,3:1|3:2,0:0:0:0:
319,297,88225,1,8,0:0:0:0:
263,187,88439,2,0,P|328:172|387:196,1,132.00000402832,0|0,3:1|0:0,0:0:0:0:
425,219,88868,2,0,L|413:82,1,132.00000402832,8|0,0:1|0:0,0:0:0:0:
387,51,89296,2,0,L|295:59,1,88.000002685547,4|0,3:2|3:0,0:0:0:0:
188,112,89725,53,0,3:2:0:0:
70,74,89939,1,8,0:2:0:0:
172,141,90153,1,0,3:0:0:0:
350,72,90368,2,0,L|339:168,1,95.9999970703126,14|0,0:1|0:0,0:0:0:0:
364,200,90689,2,0,P|439:179|412:259,1,191.999994140625,10|0,0:1|0:0,0:0:0:0:
389,287,91225,38,0,P|348:279|310:283,1,80,6|0,3:2|0:0,0:0:0:0:
204,318,91653,1,8,0:0:0:0:
198,321,91867,1,0,0:0:0:0:
95,274,92082,2,0,P|85:235|84:195,1,80,2|0,3:2|0:0,0:0:0:0:
153,107,92510,2,0,P|192:97|232:96,1,80,8|0,0:0|0:0,0:0:0:0:
352,163,92939,53,2,3:2:0:0:
460,135,93153,1,0,0:0:0:0:
406,36,93368,1,10,0:0:0:0:
369,193,93582,2,0,L|390:280,1,80,2|0,3:2|3:0,0:0:0:0:
236,283,94010,1,10,0:1:0:0:
97,219,94225,1,10,3:1:0:0:
37,360,94439,1,10,0:1:0:0:
145,331,94653,5,4,3:2:0:0:
145,331,94868,2,0,P|185:323|226:331,1,80,2|8,3:2|0:0,0:0:0:0:
330,360,95296,1,0,0:0:0:0:
421,295,95510,2,0,L|426:213,1,80,2|2,3:2|3:2,0:0:0:0:
314,200,95939,2,0,L|319:118,1,80,8|0,0:0|0:0,0:0:0:0:
205,39,96368,53,2,3:2:0:0:
126,118,96582,1,2,3:2:0:0:
30,60,96796,1,8,0:0:0:0:
205,71,97010,2,0,L|200:150,1,80,2|0,0:0|0:0,0:0:0:0:
87,154,97439,2,0,L|92:233,1,80,10|0,0:1|2:0,0:0:0:0:
137,352,97868,1,10,0:1:0:0:
137,352,98082,6,0,P|171:368|216:363,1,80,6|2,3:2|3:2,0:0:0:0:
314,318,98510,1,8,0:0:0:0:
308,315,98724,1,2,3:2:0:0:
233,230,98939,2,0,P|199:214|154:219,1,80,2|2,3:2|3:2,0:0:0:0:
52,178,99368,2,0,P|57:136|71:99,1,80,8|2,0:0|3:2,0:0:0:0:
170,51,99796,53,2,3:2:0:0:
265,109,100010,1,2,3:2:0:0:
347,33,100225,1,8,0:0:0:0:
185,78,100439,2,0,L|189:163,1,80,2|0,0:0|3:0,0:0:0:0:
330,225,100868,1,10,0:1:0:0:
182,271,101082,1,10,0:1:0:0:
319,337,101296,1,10,0:1:0:0:
390,166,101510,5,4,3:2:0:0:
390,166,101725,2,0,P|358:143|316:142,1,80,0|8,0:0|0:0,0:0:0:0:
213,180,102153,1,0,0:0:0:0:
130,104,102368,2,0,P|118:65|110:27,1,80,0|0,3:0|3:0,0:0:0:0:
26,101,102796,2,0,P|14:140|6:178,1,80,8|0,0:0|0:0,0:0:0:0:
131,282,103225,54,0,P|170:270|208:262,1,80,12|0,0:1|3:0,0:0:0:0:
247,255,103546,1,2,0:0:0:0:
247,255,103653,1,0,3:0:0:0:
125,149,103868,1,12,0:0:0:0:
273,48,104296,1,2,0:0:0:0:
273,48,104403,1,2,0:0:0:0:
273,48,104510,2,0,B|249:96|297:96|273:140,1,96,2|0,0:0|0:0,0:0:0:0:
269,181,104939,54,0,P|311:170|356:181,1,88.000002685547,4|2,3:1|0:0,0:0:0:0:
424,233,105260,1,10,0:0:0:0:
436,252,105368,2,0,L|419:338,1,88.000002685547,0|8,3:0|0:0,0:0:0:0:
305,290,105796,1,0,3:0:0:0:
194,344,106010,1,0,3:0:0:0:
91,274,106225,1,4,3:2:0:0:
174,104,106439,1,8,0:0:0:0:
174,104,106546,1,0,3:0:0:0:
174,104,106653,53,4,3:1:0:0:
273,176,106868,1,2,0:0:0:0:
273,176,106975,1,10,0:0:0:0:
273,176,107082,2,0,L|261:220,1,44.0000013427735,0|2,3:0|0:0,0:0:0:0:
362,175,107296,2,0,L|350:132,1,44.0000013427735,10|2,0:0|0:0,0:0:0:0:
434,216,107510,2,0,P|443:258|427:302,1,88.000002685547,4|0,3:2|3:2,0:0:0:0:
405,342,107832,1,8,0:0:0:0:
405,342,107939,1,0,3:2:0:0:
297,282,108153,1,8,0:0:0:0:
350,132,108368,6,0,L|261:140,1,88.000002685547,4|2,3:2|0:0,0:0:0:0:
189,92,108689,1,10,0:0:0:0:
170,80,108796,2,0,P|127:73|84:93,1,88.000002685547,0|8,3:0|0:0,0:0:0:0:
36,203,109225,2,0,P|50:253|55:292,1,88.000002685547,4|2,3:2|0:0,0:0:0:0:
54,337,109546,1,10,0:0:0:0:
54,337,109653,1,0,3:0:0:0:
169,292,109868,1,8,0:0:0:0:
352,321,110082,53,6,3:2:0:0:
291,154,110296,1,2,0:2:0:0:
242,326,110510,1,2,3:2:0:0:
382,216,110725,1,2,0:2:0:0:
204,222,110939,1,2,3:2:0:0:
386,310,111153,5,2,0:1:0:0:
386,310,111368,2,0,P|353:310|322:317,1,64,2|2,0:1|0:0,0:0:0:0:
127,353,111796,54,0,P|123:312|110:266,1,88.000002685547,4|0,3:1|0:0,0:0:0:0:
58,196,112118,1,8,0:0:0:0:
61,174,112225,2,0,P|64:133|78:87,1,88.000002685547,0|8,3:0|0:0,0:0:0:0:
182,23,112653,1,0,3:0:0:0:
296,68,112868,1,0,3:0:0:0:
296,68,112975,1,0,3:0:0:0:
296,68,113082,1,4,3:2:0:0:
418,53,113296,1,8,0:2:0:0:
298,197,113510,5,4,3:1:0:0:
183,150,113725,1,0,0:0:0:0:
183,150,113832,1,8,0:0:0:0:
183,150,113939,2,0,L|136:165,1,44.0000013427735,0|0,3:1|0:0,3:3:0:0:
190,262,114153,2,0,L|237:277,1,44.0000013427735,8|0,0:0|0:0,0:0:0:0:
328,219,114368,2,0,P|366:190|405:187,1,88.000002685547,0|0,3:0|0:0,3:3:0:0:
447,198,114689,1,0,3:0:0:0:
447,198,114796,1,4,3:2:0:0:
417,317,115010,1,8,0:2:0:0:
243,284,115225,54,0,P|243:240|248:191,1,88.000002685547,4|0,3:1|0:0,0:0:0:0:
203,119,115546,1,8,0:0:0:0:
188,103,115653,2,0,P|144:103|95:108,1,88.000002685547,0|8,3:1|0:0,0:0:0:0:
50,256,116082,1,4,3:1:0:0:
144,334,116296,1,0,3:0:0:0:
144,334,116403,1,8,0:0:0:0:
144,334,116510,1,0,3:1:0:0:
73,232,116725,1,8,0:0:0:0:
211,104,116939,6,0,P|256:98|303:107,1,88.000002685547,14|0,0:1|0:0,0:0:0:0:
438,235,117368,2,0,P|393:241|346:232,1,88.000002685547,14|0,0:1|0:0,0:0:0:0:
416,54,117796,1,2,0:0:0:0:
350,114,118010,54,0,L|353:139,2,21.3333333333333,2|2|2,0:0|0:0|0:0,0:0:0:0:
324,97,118225,2,0,L|331:163,1,64,2|0,0:0|0:0,0:0:0:0:
298,351,118653,6,0,P|359:366|373:309,1,132.00000402832,12|0,0:1|3:3,0:0:0:0:
353,272,119082,2,0,B|292:239|292:307|228:271,1,132.00000402832,0|8,3:3|0:0,0:0:0:0:
191,248,119510,1,8,0:0:0:0:
58,250,119725,1,8,0:0:0:0:
58,250,119832,1,8,0:0:0:0:
58,250,119939,2,0,L|46:207,1,44.0000013427735,8|8,0:0|0:0,0:0:0:0:
134,121,120153,2,0,L|122:164,1,44.0000013427735,8|8,0:0|0:0,0:0:0:0:
191,248,120368,53,4,3:1:0:0:
300,191,120582,1,0,3:0:0:0:
366,294,120796,1,0,3:0:0:0:
196,280,121010,1,8,0:3:0:0:
252,118,121225,5,8,0:0:0:0:
292,102,121332,1,8,0:0:0:0:
335,108,121439,1,8,0:0:0:0:
369,136,121546,1,8,0:0:0:0:
384,176,121653,1,8,0:0:0:0:
421,152,121760,1,8,0:0:0:0:
465,156,121868,1,8,0:0:0:0:
282,243,122082,54,0,L|298:341,1,95.9999970703126,6|0,3:1|0:0,0:0:0:0:
181,295,122403,2,0,L|165:200,1,95.9999970703126,10|0,0:1|0:0,0:0:0:0:
298,218,122725,1,10,0:1:0:0:
88,336,122939,1,12,0:0:0:0:
131,315,123046,1,8,0:3:0:0:
178,313,123153,1,4,0:3:0:0:
224,328,123260,1,0,3:0:0:0:
260,359,123368,2,0,P|302:336|351:334,1,95.9999970703126,14|2,0:1|0:1,0:0:0:0:
452,133,123796,6,0,P|397:124|347:124,1,103.999995239258,4|0,3:1|0:0,2:2:0:0:
231,210,124225,2,0,P|231:261|240:313,1,103.999995239258,8|0,0:1|3:0,2:2:0:0:
254,362,124546,1,8,0:0:0:0:
254,362,124653,1,0,3:0:0:0:
116,313,124868,1,0,3:0:0:0:
202,195,125082,1,8,0:0:0:0:
56,35,125296,54,0,P|38:82|53:139,1,103.999995239258,0|4,3:0|3:1,2:2:0:0:
166,220,125725,2,0,P|221:211|271:211,1,103.999995239258,0|8,0:0|0:0,0:0:0:0:
396,281,126153,1,0,3:0:0:0:
405,310,126260,1,8,0:0:0:0:
405,341,126367,1,4,3:1:0:0:
466,168,126582,1,0,3:0:0:0:
326,210,126796,1,12,0:0:0:0:
405,35,127010,6,0,L|299:56,1,103.999995239258,0|4,0:0|3:2,0:0:0:0:
188,146,127439,1,0,0:0:0:0:
194,149,127653,1,8,0:0:0:0:
38,38,127868,1,0,3:0:0:0:
38,38,127975,1,8,0:0:0:0:
38,38,128082,1,2,3:1:0:0:
183,34,128296,1,2,3:1:0:0:
111,160,128510,1,12,0:1:0:0:
205,307,128725,54,0,B|257:283|257:327|305:307,1,103.999995239258,0|4,3:0|3:2,0:0:0:0:
424,224,129153,1,0,3:0:0:0:
409,78,129368,2,0,P|355:91|318:125,1,103.999995239258,12|0,0:2|3:0,0:0:0:0:
299,170,129689,1,8,0:0:0:0:
299,170,129796,1,2,3:1:0:0:
337,310,130010,1,0,0:0:0:0:
195,275,130225,2,2,P|145:265|96:280,1,103.999995239258,14|0,0:1|0:0,0:0:0:0:
53,109,130653,6,0,L|37:211,1,95.9999970703126,4|0,3:2|0:0,0:0:0:0:
92,327,131082,1,8,0:0:0:0:
224,303,131296,1,0,3:0:0:0:
231,319,131403,1,8,0:0:0:0:
232,336,131510,1,0,3:0:0:0:
95,280,131725,1,0,3:0:0:0:
95,280,131939,2,0,P|101:232|115:186,1,95.9999970703126,8|0,0:0|0:0,0:0:0:0:
171,64,132368,53,4,3:2:0:0:
333,137,132582,1,0,0:0:0:0:
333,137,132796,2,0,P|282:138|238:157,1,95.9999970703126,8|0,0:0|3:0,0:0:0:0:
200,181,133118,1,8,0:0:0:0:
200,181,133225,1,4,3:2:0:0:
298,306,133439,1,0,0:0:0:0:
424,260,133653,1,4,3:1:0:0:
320,173,133868,1,0,0:0:0:0:
151,282,134082,6,0,P|101:287|44:272,1,95.9999970703126,12|4,0:0|0:3,0:0:0:0:
110,94,134510,2,0,P|160:89|217:104,1,95.9999970703126,8|4,0:0|0:3,0:0:0:0:
247,121,134832,1,0,3:0:0:0:
247,121,134939,1,12,0:0:0:0:
356,198,135153,1,0,0:0:0:0:
436,91,135368,1,12,0:1:0:0:
254,157,135582,1,0,0:0:0:0:
437,258,135796,53,12,0:2:0:0:
463,126,136010,1,0,3:0:0:0:
357,284,136225,1,0,3:0:0:0:
324,304,136332,1,4,0:3:0:0:
287,311,136439,1,8,0:0:0:0:
250,303,136546,1,8,0:0:0:0:
211,275,136653,5,8,0:0:0:0:
175,242,136760,1,8,0:0:0:0:
130,227,136867,1,8,0:0:0:0:
83,233,136974,1,8,0:0:0:0:
42,257,137082,2,0,L|33:306,1,47.9999985351563,8|8,0:0|0:0,0:0:0:0:
135,364,137296,2,0,L|125:316,1,47.9999985351563,8|8,0:0|0:0,0:0:0:0:
180,225,137510,54,0,P|226:199|276:203,1,103.999995239258,4|0,3:1|0:0,0:0:0:0:
404,271,137939,2,0,L|424:167,1,103.999995239258,8|0,0:1|3:0,0:0:0:0:
414,117,138260,1,8,0:0:0:0:
414,117,138368,1,0,3:0:0:0:
283,53,138582,1,0,3:0:0:0:
218,185,138796,1,8,0:0:0:0:
387,298,139010,6,0,P|336:284|285:296,1,103.999995239258,0|4,3:0|3:1,0:0:0:0:
159,365,139439,2,0,P|108:375|59:361,1,103.999995239258,0|8,3:0|0:0,0:0:0:0:
1,227,139868,2,0,P|3:178|24:126,1,103.999995239258,0|4,3:0|3:1,0:0:0:0:
203,184,140296,1,0,3:0:0:0:
321,99,140510,1,8,0:1:0:0:
193,28,140725,54,0,L|87:45,1,103.999995239258,0|4,0:0|3:2,0:0:0:0:
41,181,141153,1,0,0:0:0:0:
42,189,141368,2,0,L|59:295,1,103.999995239258,8|0,0:0|0:0,0:0:0:0:
228,228,141796,1,0,3:0:0:0:
228,228,141903,1,0,3:0:0:0:
228,228,142010,1,0,3:0:0:0:
180,366,142225,1,8,0:0:0:0:
316,246,142439,6,0,P|314:192|283:152,1,103.999995239258,0|4,3:0|3:2,0:0:0:0:
166,67,142868,1,0,0:0:0:0:
133,208,143082,1,8,0:2:0:0:
273,112,143296,2,0,L|387:118,1,103.999995239258,0|6,0:0|3:1,0:0:0:0:
467,232,143725,1,0,0:0:0:0:
365,335,143939,2,0,P|315:343|265:326,1,103.999995239258,10|0,0:1|0:0,0:0:0:0:
105,193,144368,54,0,L|201:198,1,95.9999970703126,4|0,3:2|0:0,0:0:0:0:
284,93,144796,1,8,0:0:0:0:
168,25,145010,1,0,3:0:0:0:
151,26,145117,1,8,0:0:0:0:
135,33,145224,1,0,3:0:0:0:
45,134,145439,1,0,3:0:0:0:
45,134,145653,2,0,P|42:182|53:230,1,95.9999970703126,8|0,0:0|0:0,0:0:0:0:
106,352,146082,5,4,3:2:0:0:
272,276,146296,1,0,3:0:0:0:
401,311,146510,1,8,0:0:0:0:
434,180,146725,2,0,P|382:175|339:193,1,95.9999970703126,0|0,3:0|3:0,0:0:0:0:
165,164,147153,1,4,0:3:0:0:
275,241,147368,1,12,0:1:0:0:
314,112,147582,1,0,0:0:0:0:
127,191,147796,54,0,P|139:235|149:290,1,95.9999970703126,12|0,0:0|0:3,0:0:0:0:
292,205,148225,2,0,P|300:157|313:111,1,95.9999970703126,12|0,0:0|3:3,0:0:0:0:
332,67,148546,1,0,3:0:0:0:
332,67,148653,1,12,0:0:0:0:
436,159,148868,1,0,0:3:0:0:
362,291,149082,2,0,L|377:345,1,47.9999985351563,12|0,0:0|0:0,0:0:0:0:
464,372,149296,2,0,L|476:325,1,47.9999985351563,0|0,0:3|0:0,0:0:0:0:
446,234,149510,5,12,0:0:0:0:
319,281,149725,1,0,3:0:0:0:
216,194,149939,1,8,0:3:0:0:
181,177,150046,1,8,0:0:0:0:
143,175,150153,1,8,0:0:0:0:
107,188,150260,1,8,0:0:0:0:
74,223,150368,53,8,0:0:0:0:
77,175,150475,1,8,0:0:0:0:
80,127,150582,1,8,0:0:0:0:
84,79,150689,1,8,0:0:0:0:
87,31,150796,2,0,L|140:45,1,47.9999985351563,8|8,0:0|0:0,0:0:0:0:
211,104,151010,2,0,L|257:92,1,47.9999985351563,8|8,0:0|0:0,0:0:0:0:
350,140,151225,6,0,P|393:145|433:127,1,88.000002685547,4|0,3:1|0:0,0:0:0:0:
416,5,151653,2,0,P|373:0|333:18,1,88.000002685547,8|0,0:0|3:0,0:0:0:0:
279,90,151975,1,0,3:0:0:0:
265,107,152082,2,0,P|225:124|182:119,1,88.000002685547,4|0,3:2|0:0,0:0:0:0:
64,82,152510,1,8,0:0:0:0:
43,281,152725,1,0,3:0:0:0:
43,281,152832,1,8,0:0:0:0:
43,281,152939,54,0,P|82:263|125:268,1,88.000002685547,4|0,3:1|0:0,0:0:0:0:
234,327,153368,1,8,0:0:0:0:
346,276,153582,1,0,3:0:0:0:
346,276,153689,1,8,0:0:0:0:
346,276,153796,2,0,P|357:318|362:365,1,88.000002685547,4|0,3:2|0:0,0:0:0:0:
466,295,154225,2,0,P|470:251|481:208,1,88.000002685547,8|0,0:0|3:0,0:0:0:0:
413,49,154653,6,2,P|349:47|287:83,2,132.00000402832,6|2|2,3:1|0:1|0:1,0:0:0:0:
380,168,155510,1,0,0:0:0:0:
382,173,155725,2,0,L|373:263,1,88.000002685547,2|8,3:1|0:0,0:0:0:0:
449,357,156153,1,2,0:1:0:0:
281,323,156368,53,4,3:2:0:0:
276,326,156582,1,2,0:1:0:0:
162,372,156796,1,8,0:0:0:0:
62,299,157010,2,2,P|53:262|70:213,1,88.000002685547,2|2,0:1|3:1,0:0:0:0:
153,126,157439,1,0,0:0:0:0:
52,54,157653,1,12,0:2:0:0:
156,213,157868,1,0,3:2:0:0:
156,213,157975,1,8,0:0:0:0:
156,213,158082,6,0,L|243:205,1,88.000002685547,4|0,3:1|0:0,0:0:0:0:
319,108,158510,2,0,L|232:100,1,88.000002685547,8|0,0:0|3:0,0:0:0:0:
284,26,158832,1,8,0:0:0:0:
305,23,158939,2,0,P|347:23|385:50,1,88.000002685547,4|0,3:1|0:0,0:0:0:0:
456,148,159368,1,8,0:0:0:0:
313,244,159582,1,0,3:0:0:0:
313,244,159689,1,0,3:0:0:0:
313,244,159796,54,0,P|311:289|331:332,1,88.000002685547,4|0,3:2|0:0,0:0:0:0:
450,309,160225,2,0,P|452:264|432:221,1,88.000002685547,8|0,0:0|3:0,0:0:0:0:
371,155,160546,1,0,3:0:0:0:
349,151,160653,2,0,L|260:167,1,88.000002685547,4|0,3:2|0:0,0:0:0:0:
140,185,161082,1,8,0:0:0:0:
260,322,161296,1,0,3:0:0:0:
260,322,161403,1,0,3:0:0:0:
260,322,161510,6,0,B|321:302|360:344|360:344|353:313,2,132.00000402832,4|2|2,3:2|0:1|3:1,0:0:0:0:
144,368,162368,2,0,L|57:352,1,88.000002685547,0|2,3:0|0:1,0:0:0:0:
197,209,162796,2,0,L|283:193,1,88.000002685547,12|2,0:1|0:1,0:0:0:0:
437,311,163225,53,4,3:2:0:0:
499,204,163439,1,0,3:0:0:0:
445,93,163653,1,0,3:0:0:0:
418,115,163760,1,0,3:0:0:0:
384,123,163867,1,4,0:3:0:0:
350,116,163974,1,8,0:3:0:0:
321,83,164082,5,8,0:0:0:0:
290,51,164189,1,8,0:0:0:0:
251,32,164296,1,8,0:0:0:0:
207,28,164403,1,8,0:0:0:0:
165,39,164510,1,8,0:0:0:0:
129,64,164617,1,8,0:0:0:0:
104,100,164725,2,0,L|117:150,1,44.0000013427735,8|0,0:0|0:0,0:0:0:0:
198,213,164939,54,0,L|304:193,1,95.9999970703126,14|0,0:1|0:0,0:0:0:0:
369,277,165260,2,0,L|274:293,1,95.9999970703126,10|0,0:1|0:0,0:0:0:0:
299,174,165582,1,10,0:1:0:0:
131,329,165796,2,2,P|21:273|142:280,1,335.999989746094,14|0,0:1|0:0,0:0:0:0:
140,275,166653,5,4,3:1:0:0:
140,275,173296,5,8,0:0:0:0:
140,275,173403,1,8,0:0:0:0:
140,275,173510,2,0,P|182:274|221:284,1,80,4|0,3:2|0:0,0:0:0:0:
321,327,173939,1,8,0:0:0:0:
415,266,174153,1,0,3:0:0:0:
420,268,174260,1,8,0:0:0:0:
425,270,174368,1,0,3:0:0:0:
370,172,174582,1,0,3:0:0:0:
370,172,174796,2,0,L|378:92,1,80,12|0,0:0|3:0,0:0:0:0:
384,52,175118,1,8,0:0:0:0:
384,52,175225,5,0,3:0:0:0:
232,44,175439,1,0,3:0:0:0:
232,44,175653,2,0,P|194:59|151:53,1,80,12|0,0:0|3:0,0:0:0:0:
118,38,175975,1,0,3:0:0:0:
118,38,176082,1,4,3:1:0:0:
42,120,176296,1,0,0:0:0:0:
94,262,176510,1,12,0:0:0:0:
154,167,176725,1,0,0:0:0:0:
0,257,176939,21,4,0:1:0:0:
78,352,177153,1,0,0:0:0:0:
173,195,177368,1,12,0:0:0:0:
42,266,177582,1,0,3:0:0:0:
42,266,177689,1,0,3:0:0:0:
42,266,177796,2,0,P|87:268|127:291,1,88.000002685547,12|0,0:0|0:0,0:0:0:0:
273,271,178225,1,12,0:0:0:0:
156,311,178439,1,0,0:0:0:0:
208,131,178653,5,12,0:1:0:0:
353,208,178868,1,8,0:0:0:0:
353,208,178975,1,8,0:0:0:0:
353,208,179082,1,8,0:0:0:0:
355,170,179189,1,8,0:0:0:0:
374,137,179296,1,8,0:0:0:0:
406,115,179403,1,8,0:0:0:0:
444,110,179510,53,8,0:0:0:0:
398,96,179617,1,8,0:0:0:0:
352,82,179724,1,8,0:0:0:0:
306,68,179831,1,8,0:0:0:0:
260,54,179939,2,0,L|272:108,1,47.9999985351563,8|8,0:0|0:0,0:0:0:0:
174,150,180153,2,0,L|184:103,1,47.9999985351563,8|8,0:0|0:0,0:0:0:0:
114,24,180368,5,0,3:0:0:0:
108,15,180582,1,12,0:1:0:0:
48,192,180796,1,12,0:0:0:0:
42,201,181010,1,8,2:0:0:0:
227,173,181225,53,0,3:0:0:0:
108,15,181439,1,12,0:0:0:0:
42,201,181653,1,8,0:0:0:0:
245,83,181868,1,12,0:1:0:0:
251,92,182082,5,0,3:0:0:0:
436,236,182296,2,0,P|385:237|334:265,1,103.999995239258,14|0,0:1|0:0,0:0:0:0:
96,268,182725,2,0,P|147:267|198:239,1,103.999995239258,14|0,0:1|0:0,0:0:0:0:
268,46,183153,1,0,3:0:0:0:
275,39,183260,1,0,3:0:0:0:
282,32,183368,2,2,L|266:138,1,103.999995239258,14|2,0:1|0:1,0:0:0:0:
344,283,183796,53,4,3:2:0:0:
422,172,184010,1,0,3:0:0:0:
422,172,184118,1,0,3:0:0:0:
422,172,184225,2,0,P|383:148|338:147,1,88.000002685547,0|0,0:0|3:0,0:0:0:0:
235,83,184653,1,8,0:0:0:0:
146,169,184868,1,0,0:0:0:0:
90,59,185082,1,0,3:0:0:0:
238,122,185296,1,8,0:0:0:0:
121,278,185510,6,0,P|113:239|128:195,1,88.000002685547,0|0,0:0|3:0,0:0:0:0:
152,157,185832,1,0,3:0:0:0:
152,157,185939,1,8,0:0:0:0:
241,246,186153,1,0,3:0:0:0:
304,91,186368,1,14,0:1:0:0:
187,140,186582,1,0,0:0:0:0:
345,165,186796,1,10,0:1:0:0:
210,282,187010,1,0,0:0:0:0:
210,282,187118,1,0,0:0:0:0:
210,282,187225,54,0,P|167:272|123:277,1,88.000002685547,4|0,3:1|3:0,0:0:0:0:
26,201,187653,1,8,0:0:0:0:
139,151,187868,1,0,3:0:0:0:
146,165,187975,1,8,0:0:0:0:
147,180,188082,1,0,3:0:0:0:
65,62,188296,1,0,3:0:0:0:
65,62,188510,2,0,L|185:51,1,88.000002685547,8|0,0:0|0:0,0:0:0:0:
196,49,188832,1,0,0:0:0:0:
196,49,188939,5,4,3:2:0:0:
291,175,189153,1,0,3:0:0:0:
291,175,189368,2,0,P|334:179|377:169,1,88.000002685547,8|0,0:0|3:0,0:0:0:0:
417,151,189689,1,8,0:0:0:0:
417,151,189796,1,0,3:0:0:0:
337,54,190010,1,0,3:0:0:0:
185,176,190225,1,12,0:1:0:0:
77,116,190439,1,0,0:0:0:0:
131,323,190653,54,0,L|226:291,1,95.9999970703126,12|4,0:0|0:3,0:0:0:0:
347,102,191082,2,0,L|256:132,1,95.9999970703126,12|4,0:0|0:3,0:0:0:0:
211,149,191403,1,0,0:0:0:0:
211,149,191510,1,12,0:0:0:0:
312,238,191725,1,4,0:3:0:0:
385,87,191939,1,12,0:0:0:0:
211,149,192153,1,4,0:3:0:0:
389,191,192368,5,12,0:0:0:0:
405,235,192475,1,8,0:3:0:0:
396,281,192582,1,4,0:3:0:0:
363,316,192689,1,0,0:0:0:0:
318,329,192796,2,0,L|221:320,1,95.9999970703126,12|8,0:1|0:0,0:0:0:0:
154,254,193118,1,8,0:3:0:0:
132,242,193225,54,0,L|36:251,1,95.9999970703126,4|12,0:3|0:1,0:0:0:0:
84,98,193653,1,8,0:0:0:0:
126,76,193760,1,8,0:3:0:0:
174,71,193867,1,4,0:3:0:0:
220,83,193974,1,0,0:0:0:0:
259,111,194082,6,0,P|309:127|364:113,1,103.999995239258,4|0,3:1|0:0,0:0:0:0:
449,229,194510,2,0,P|399:213|344:227,1,103.999995239258,8|0,0:0|3:0,0:0:0:0:
305,251,194832,1,8,0:0:0:0:
305,251,194939,1,4,3:2:0:0:
188,337,195153,1,0,3:0:0:0:
71,249,195368,1,8,0:0:0:0:
203,77,195582,54,0,P|196:126|196:186,1,103.999995239258,0|4,3:0|3:1,0:0:0:0:
316,261,196010,2,0,P|316:209|323:157,1,103.999995239258,2|12,0:1|0:1,0:0:0:0:
440,70,196439,2,0,P|446:121|447:173,1,103.999995239258,2|4,3:1|3:1,0:0:0:0:
298,87,196868,1,2,3:1:0:0:
176,166,197082,1,12,0:2:0:0:
44,104,197296,6,0,B|16:125|16:125|24:156|26:196,1,103.999995239258,2|4,0:1|3:2,0:0:0:0:
131,294,197725,1,0,3:0:0:0:
131,294,197832,1,0,3:0:0:0:
131,294,197939,2,0,P|186:292|232:305,1,103.999995239258,8|0,0:0|3:0,0:0:0:0:
316,149,198368,1,4,3:2:0:0:
174,182,198582,1,2,3:1:0:0:
215,42,198796,1,10,0:1:0:0:
358,170,199010,54,0,L|348:286,1,103.999995239258,0|4,3:0|3:1,0:0:0:0:
482,333,199439,1,0,0:0:0:0:
449,191,199653,1,12,0:0:0:0:
274,229,199868,1,2,0:0:0:0:
274,229,199975,1,2,0:0:0:0:
274,229,200082,2,0,B|222:225|233:264|173:255,1,103.999995239258,6|0,3:1|3:0,0:0:0:0:
168,96,200510,1,10,0:1:0:0:
303,149,200725,1,0,0:0:0:0:
96,202,200939,6,0,L|104:302,1,95.9999970703126,4|0,3:1|0:0,0:0:0:0:
219,367,201368,1,8,0:0:0:0:
283,249,201582,1,2,0:0:0:0:
267,242,201689,1,2,0:0:0:0:
250,241,201796,1,4,3:2:0:0:
119,273,202010,1,0,3:0:0:0:
119,273,202225,1,8,0:0:0:0:
162,145,202439,1,0,3:0:0:0:
162,145,202546,1,0,3:0:0:0:
162,145,202653,53,4,3:2:0:0:
201,327,202868,1,0,0:0:0:0:
308,246,203082,1,8,0:0:0:0:
255,122,203296,2,0,L|161:145,1,95.9999970703126,0|4,3:0|3:1,0:0:0:0:
287,20,203725,1,0,0:0:0:0:
361,131,203939,1,12,0:0:0:0:
476,63,204153,1,0,0:0:0:0:
361,233,204368,6,0,P|360:282|386:326,1,95.9999970703126,12|0,0:0|3:0,0:0:0:0:
446,158,204796,2,0,P|447:109|421:65,1,95.9999970703126,12|0,0:0|3:0,0:0:0:0:
390,34,205118,1,0,0:0:0:0:
390,34,205225,1,12,0:0:0:0:
268,90,205439,1,0,3:0:0:0:
357,212,205653,1,12,0:1:0:0:
312,194,205760,1,8,0:3:0:0:
264,195,205867,1,4,0:3:0:0:
220,214,205974,1,0,3:0:0:0:
186,247,206081,53,12,0:1:0:0:
186,247,207368,2,0,P|158:221|151:262,1,96,2|0,0:0|0:0,0:0:0:0:
180,281,207796,6,0,P|224:277|268:292,1,88.000002685547,4|0,3:1|0:0,0:0:0:0:
371,352,208225,1,8,0:0:0:0:
460,268,208439,2,0,B|452:216|467:182|467:182|444:143,1,132.00000402832,0|0,3:1|0:0,0:0:0:0:
406,121,208868,2,0,L|276:151,1,132.00000402832,8|0,0:0|0:0,0:0:0:0:
253,187,209296,2,0,L|164:166,1,88.000002685547,12|0,0:2|0:0,0:0:0:0:
75,249,209725,53,0,3:0:0:0:
112,367,209939,1,12,0:2:0:0:
105,244,210154,1,0,0:0:0:0:
272,303,210368,2,0,P|314:313|358:296,1,88.000002685547,14|8,0:1|0:3,0:0:0:0:
227,172,210796,2,0,P|185:162|141:179,1,88.000002685547,2|0,3:1|3:0,0:0:0:0:
324,116,211225,6,0,L|314:206,1,88.000002685547,4|2,3:1|3:2,0:0:0:0:
432,169,211653,1,8,0:0:0:0:
389,52,211868,2,0,P|328:23|266:44,1,132.00000402832,0|0,3:1|0:0,0:0:0:0:
240,74,212296,2,0,L|254:208,1,132.00000402832,8|0,0:1|0:0,0:0:0:0:
218,230,212725,2,0,L|128:240,1,88.000002685547,12|0,0:2|3:0,0:0:0:0:
60,138,213153,53,0,3:0:0:0:
97,21,213367,1,14,0:2:0:0:
90,143,213582,1,0,3:0:0:0:
289,171,213796,2,0,P|256:142|209:136,1,88.000002685547,14|8,0:1|0:3,0:0:0:0:
144,287,214225,2,0,P|176:315|223:321,1,88.000002685547,2|4,3:1|0:3,0:0:0:0:
377,280,214653,6,0,L|368:189,1,88.000002685547,4|0,3:1|3:0,0:0:0:0:
484,234,215082,1,8,0:0:0:0:
444,350,215296,2,0,P|383:379|321:358,1,132.00000402832,4|0,3:2|0:0,0:0:0:0:
289,333,215725,2,0,P|228:304|166:325,1,132.00000402832,8|0,0:0|0:0,0:0:0:0:
131,344,216153,2,0,L|140:253,1,88.000002685547,12|0,0:0|3:0,0:0:0:0:
87,144,216582,53,0,3:1:0:0:
204,107,216796,1,8,0:0:0:0:
82,114,217011,1,0,3:0:0:0:
239,218,217225,2,0,P|283:223|328:204,1,88.000002685547,14|8,0:1|0:3,0:0:0:0:
462,294,217653,2,0,P|418:289|373:308,1,88.000002685547,2|0,3:1|3:0,0:0:0:0:
218,262,218082,6,0,P|220:217|232:167,1,88.000002685547,4|2,3:1|3:2,0:0:0:0:
279,50,218510,1,8,0:0:0:0:
162,9,218725,2,0,B|96:33|99:130|164:94,1,132.00000402832,0|0,3:0|0:0,0:0:0:0:
186,103,219153,2,0,P|231:94|313:146,1,132.00000402832,8|0,0:0|0:0,0:0:0:0:
319,184,219582,2,0,P|272:191|241:220,1,88.000002685547,12|0,0:0|3:0,0:0:0:0:
326,307,220010,53,0,3:1:0:0:
448,300,220225,1,8,0:0:0:0:
331,337,220439,1,0,3:0:0:0:
143,239,220653,2,0,L|48:262,1,95.9999970703126,10|0,0:1|0:0,0:0:0:0:
130,337,220975,2,0,L|223:314,1,95.9999970703126,10|0,0:1|0:0,0:0:0:0:
164,206,221296,1,14,0:1:0:0:
256,192,221403,12,0,224082,0:0:0:0:
