osu file format v14

[General]
AudioFilename: audio.mp3
AudioLeadIn: 0
PreviewTime: 166653
Countdown: 0
SampleSet: Soft
StackLeniency: 0.7
Mode: 0
LetterboxInBreaks: 0
EpilepsyWarning: 1
WidescreenStoryboard: 1

[Editor]
Bookmarks: 46225,84368,91225,138368,151225,166653,173510
DistanceSpacing: 1
BeatDivisor: 4
GridSize: 8
TimelineZoom: 1

[Metadata]
Title:Centimeter
TitleUnicode:センチメートル
Artist:the peggies
ArtistUnicode:the peggies
Creator:Left
Version:Normal
Source:彼女、お借りします
Tags:Kanojo, Okarishimasu Rent-A-Girlfriend rental girlfriend KanoKari OP opening full TMS Entertainment jpop j-pop japanese pop anime rock j-rock kunka Shikibe Mayu Shizuku- kazato asa
BeatmapID:3397200
BeatmapSetID:1663628

[Difficulty]
HPDrainRate:4
CircleSize:3
OverallDifficulty:4
ApproachRate:5
SliderMultiplier:1.1
SliderTickRate:1

[Events]
//Background and Video events
0,0,"BG.jpg",0,0
//Break Periods
2,84567,90025
2,166853,172310
//Storyboard Layer 0 (Background)
//Storyboard Layer 1 (Fail)
//Storyboard Layer 2 (Pass)
//Storyboard Layer 3 (Foreground)
//Storyboard Layer 4 (Overlay)
//Storyboard Sound Samples

[TimingPoints]
368,428.571428571429,4,2,7,70,1,0
16868,-100,4,2,7,65,0,0
17510,-100,4,2,7,70,0,0
24368,-100,4,2,7,65,0,0
38082,-100,4,2,7,75,0,0
51153,-100,4,2,7,55,0,0
51582,-100,4,2,7,75,0,0
55225,-100,4,2,7,85,0,0
56510,-100,4,2,7,70,0,0
56939,-100,4,2,7,85,0,1
84368,-100,4,2,7,85,0,0
85868,-100,4,2,7,70,0,0
91225,-100,4,2,7,65,0,0
104939,-100,4,2,7,75,0,0
117796,-100,4,2,7,55,0,0
121868,-100,4,2,7,75,0,0
123368,-100,4,2,7,85,0,1
151225,-100,4,2,7,85,0,0
173296,-100,4,2,7,65,0,0
176510,-100,4,2,7,70,0,0
176939,-100,4,2,7,75,0,0
180582,-100,4,2,7,85,0,1
183796,-100,4,2,7,70,0,0
190225,-100,4,2,7,85,0,0
194082,-100,4,2,7,90,0,1
206082,-100,4,2,7,90,0,0
207368,-100,4,2,7,55,0,0
207796,-100,4,2,7,70,0,0

[Colours]
Combo1 : 205,205,205
Combo2 : 253,53,138
Combo3 : 255,188,64
Combo4 : 255,149,202
Combo5 : 255,217,128

[HitObjects]
255,191,3368,5,4,0:3:0:0:
159,136,3796,6,0,P|153:88|136:22,2,110,4|0|0,3:1|0:0|0:0,0:0:0:0:
135,243,5082,2,0,P|139:284|150:316,1,55,14|2,0:0|0:0,0:0:0:0:
178,339,5510,2,0,P|264:324|317:255,1,165,4|8,3:2|0:0,0:0:0:0:
422,259,6582,1,4,0:3:0:0:
422,259,6796,2,0,P|390:191|349:163,1,110,0|4,3:3|3:1,0:0:0:0:
254,182,7653,53,8,0:3:0:0:
254,182,7868,2,0,P|233:102|231:72,1,110,4|8,3:2|0:3,0:0:0:0:
124,101,8725,2,0,P|145:181|147:211,1,110,4|0,3:1|3:1,0:0:0:0:
111,250,9368,1,8,0:0:0:0:
131,357,9796,1,14,0:1:0:0:
239,338,10225,1,10,0:1:0:0:
224,229,10653,38,0,P|278:218|333:214,1,110,4|2,3:1|3:2,0:0:0:0:
443,223,11510,2,0,P|452:139|452:91,1,110,2|2,3:2|3:2,0:0:0:0:
418,69,12153,1,0,0:0:0:0:
418,69,12368,2,0,P|364:58|309:54,1,110,4|2,3:2|3:2,0:0:0:0:
290,163,13225,2,0,P|235:159|181:148,1,110,6|0,3:2|3:0,0:0:0:0:
134,119,13868,1,0,0:0:0:0:
134,119,14082,22,0,L|123:55,2,55,12|4|4,0:1|0:3|0:3,0:0:0:0:
92,154,14725,2,0,L|103:218,2,55,8|8|8,0:0|0:0|0:0,0:0:0:0:
38,138,15368,1,8,0:0:0:0:
2,242,15796,1,4,3:1:0:0:
318,336,17082,1,8,0:0:0:0:
382,246,17510,6,0,P|385:173|390:119,2,110,4|8|0,3:1|0:0|3:0,0:0:0:0:
417,287,18582,1,8,0:0:0:0:
318,336,19010,2,0,P|246:322|186:318,1,110,12|0,0:2|3:0,0:0:0:0:
176,274,19653,2,0,P|146:276|118:281,1,55,12|0,0:2|0:0,0:0:0:0:
84,320,20082,1,14,0:1:0:0:
23,228,20510,1,2,3:1:0:0:
98,148,20939,54,0,P|102:105|102:79,1,55,4|2,3:1|3:2,0:0:0:0:
70,48,21368,1,8,0:0:0:0:
70,48,21582,2,0,P|135:41|191:31,1,110,0|8,3:1|0:1,0:0:0:0:
253,114,22439,2,0,P|307:105|361:99,1,110,12|0,0:2|3:0,0:0:0:0:
395,55,23082,1,14,0:2:0:0:
458,144,23510,2,0,P|451:211|451:246,1,82.5,14|10,0:1|0:1,0:0:0:0:
371,339,24368,37,4,3:1:0:0:
283,272,24796,2,0,L|158:260,1,110,8|0,0:0|3:0,0:0:0:0:
128,292,25439,1,8,0:0:0:0:
86,189,25868,1,8,0:0:0:0:
86,189,26082,2,0,L|98:64,1,110,4|8,3:2|0:0,0:0:0:0:
139,44,26725,1,0,3:0:0:0:
243,77,27153,2,0,L|249:3,2,55,14|10|10,0:1|0:1|0:1,0:0:0:0:
237,131,27796,54,0,L|370:110,1,110,4|8,3:1|0:0,0:0:0:0:
454,96,28653,1,0,3:0:0:0:
454,96,28868,1,8,0:0:0:0:
418,200,29296,1,8,0:0:0:0:
418,200,29510,2,0,L|439:333,1,110,4|8,3:2|0:0,0:0:0:0:
394,346,30153,2,0,L|330:336,1,55,0|0,3:0|3:0,0:0:0:0:
311,289,30582,1,10,0:1:0:0:
220,350,31010,1,14,0:1:0:0:
118,306,31439,5,0,3:2:0:0:
118,306,31653,2,0,L|104:231,1,55,8|0,0:0|3:0,0:0:0:0:
141,208,32082,2,0,L|127:133,1,55,0|8,3:0|0:0,0:0:0:0:
59,70,32725,1,8,0:2:0:0:
59,70,32939,2,0,L|182:50,1,110,4|8,3:2|3:2,0:0:0:0:
211,85,33582,1,0,3:0:0:0:
317,59,34010,2,0,L|323:-8,2,55,14|10|10,0:1|0:1|0:1,0:0:0:0:
352,101,34653,54,0,L|341:224,1,110,4|8,3:1|0:0,0:0:0:0:
361,318,35510,2,0,L|294:310,1,55,0|0,3:0|3:0,0:0:0:0:
262,278,35939,2,0,L|195:270,1,55,8|0,0:0|3:0,0:0:0:0:
166,308,36368,5,12,0:1:0:0:
166,308,36582,2,0,P|147:243|126:198,1,110,0|12,3:0|0:0,0:0:0:0:
65,115,37439,2,0,P|47:89|27:69,2,55,2|12|0,0:0|0:0|3:0,0:0:0:0:
120,116,38082,22,0,P|199:96|245:94,1,110,4|4,3:1|3:2,0:0:0:0:
270,128,38725,1,8,0:2:0:0:
270,128,38939,2,0,P|324:121|377:105,1,110,4|4,3:1|3:2,0:0:0:0:
403,213,39796,2,0,P|348:219|295:235,1,110,4|4,3:2|3:2,0:0:0:0:
267,282,40439,1,8,0:2:0:0:
267,282,40653,2,0,P|214:297|159:304,1,110,4|4,3:1|3:2,0:0:0:0:
110,279,41296,1,8,0:2:0:0:
110,279,41510,6,0,P|96:209|96:158,1,110,4|4,3:2|3:2,0:0:0:0:
190,115,42368,2,0,P|187:60|175:6,1,110,4|4,3:1|3:2,0:0:0:0:
275,51,43225,2,0,P|310:55|343:53,1,55,6|2,3:1|3:1,0:0:0:0:
373,21,43653,2,0,P|400:20|427:24,1,55,10|10,0:1|0:1,0:0:0:0:
462,67,44082,1,10,0:1:0:0:
410,280,44939,54,0,P|343:267|284:269,1,110,4|4,3:1|3:2,0:0:0:0:
261,305,45582,1,8,0:2:0:0:
261,305,45796,2,0,P|206:303|152:292,1,110,4|4,3:1|3:2,0:0:0:0:
116,250,46439,1,8,0:2:0:0:
116,250,46653,1,4,3:2:0:0:
369,38,47939,1,8,0:3:0:0:
454,107,48368,6,0,P|444:177|445:237,1,110,4|4,3:1|3:2,0:0:0:0:
337,245,49225,2,0,P|335:299|326:354,1,110,4|4,3:1|3:2,0:0:0:0:
277,379,49868,1,8,0:0:0:0:
277,379,50082,2,0,P|229:367|198:366,1,55,6|2,3:1|3:1,0:0:0:0:
194,319,50510,2,0,P|166:314|140:306,1,55,2|2,3:1|3:1,0:0:0:0:
49,46,51796,54,0,P|87:40|114:37,1,55,4|10,3:1|0:0,0:0:0:0:
148,69,52225,1,4,3:2:0:0:
244,17,52653,2,0,P|255:53|256:78,1,55,4|10,3:2|0:0,0:0:0:0:
297,107,53082,2,0,P|288:143|276:165,1,55,4|10,3:2|0:0,0:0:0:0:
237,192,53510,6,0,P|328:200|483:374,1,330,12|8,0:1|0:0,0:0:0:0:
371,376,55225,2,0,P|382:316|410:281,2,82.5,6|10|10,3:1|0:1|0:1,0:0:0:0:
225,298,56510,1,8,0:3:0:0:
143,372,56939,54,0,P|131:325|125:253,1,110,4|8,3:1|0:1,0:0:0:0:
208,192,57796,2,0,P|203:137|189:83,1,110,0|8,3:0|0:0,0:0:0:0:
147,48,58439,1,2,0:0:0:0:
147,48,58653,2,0,P|230:41|330:148,1,220,4|4,3:2|3:1,0:0:0:0:
429,165,59939,2,0,P|420:216|419:235,1,55,8|0,0:0|0:0,0:0:0:0:
445,268,60368,6,0,P|389:276|322:292,1,110,4|8,3:2|0:0,0:2:0:0:
248,353,61225,1,2,3:1:0:0:
248,353,61439,2,0,P|199:341|179:338,1,55,2|12,3:1|0:1,0:0:0:0:
139,343,61868,1,2,0:0:0:0:
139,343,62082,2,0,P|119:261|113:212,2,110,4|8|6,3:2|0:0|3:1,0:0:0:0:
32,369,63368,1,14,0:1:0:0:
7,261,63796,54,0,P|9:226|14:200,1,55,4|0,3:2|0:0,0:0:0:0:
22,152,64225,2,0,P|65:91|201:31,1,220,8|8,0:0|0:0,0:0:0:0:
203,140,65510,2,0,P|205:175|210:201,1,55,4|0,3:2|0:0,0:0:0:0:
218,249,65939,2,0,P|261:310|397:370,1,220,8|12,0:0|0:1,0:0:0:0:
436,269,67225,5,12,0:2:0:0:
435,159,67653,2,0,P|391:148|359:146,1,55,8|4,0:0|0:3,0:0:0:0:
348,102,68082,2,0,P|304:114|275:128,1,55,12|0,0:0|0:0,0:0:0:0:
244,98,68510,2,0,P|212:130|194:157,1,55,12|0,0:0|0:0,0:0:0:0:
197,192,68939,1,12,0:0:0:0:
126,276,69368,2,0,P|97:190|93:163,2,110,8|8|8,0:3|0:0|0:0,0:0:0:0:
167,311,70439,1,8,0:0:0:0:
167,311,70653,54,0,P|226:312|294:323,1,110,4|8,3:1|0:1,0:0:0:0:
361,248,71510,2,0,P|415:255|470:256,1,110,0|8,3:0|0:0,0:0:0:0:
505,213,72153,1,0,3:0:0:0:
505,213,72368,2,0,P|476:129|344:66,1,220,4|4,3:2|3:1,0:0:0:0:
286,142,73653,2,0,P|240:149|210:157,1,55,8|0,0:0|0:0,0:0:0:0:
200,196,74082,5,4,3:2:0:0:
128,112,74510,1,8,0:0:0:0:
36,173,74939,2,0,P|30:215|28:240,1,55,0|0,3:0|3:0,0:0:0:0:
68,265,75368,2,0,P|65:292|60:319,1,55,8|0,0:0|3:0,0:0:0:0:
38,369,75796,2,0,P|103:357|159:351,1,110,4|8,3:1|0:0,0:0:0:0:
233,283,76653,1,6,3:1:0:0:
307,364,77082,1,10,0:1:0:0:
394,296,77510,54,0,P|448:289|502:278,1,110,4|8,3:2|0:0,0:0:0:0:
478,171,78368,2,0,P|423:177|369:188,1,110,0|8,3:0|0:0,0:0:0:0:
329,226,79010,1,0,0:0:0:0:
329,226,79225,1,4,3:2:0:0:
230,176,79653,2,0,P|230:107|236:50,1,110,8|4,0:0|3:2,0:0:0:0:
131,26,80510,1,12,0:1:0:0:
37,84,80939,6,0,P|45:126|47:151,1,55,12|0,0:0|0:0,0:0:0:0:
95,163,81368,2,0,P|98:190|104:217,1,55,12|0,0:0|3:0,0:0:0:0:
72,261,81796,1,12,0:0:0:0:
147,340,82225,1,12,0:0:0:0:
147,340,82439,1,0,0:0:0:0:
147,340,82653,2,0,P|268:317|412:55,1,440,12|12,0:1|0:1,0:0:0:0:
50,329,91225,5,6,3:2:0:0:
111,237,91653,2,0,P|102:175|94:124,1,110,8|2,0:0|3:2,0:0:0:0:
151,34,92510,1,8,0:0:0:0:
232,107,92939,2,0,P|241:169|249:220,1,110,2|10,3:2|0:0,0:0:0:0:
333,285,93796,1,0,3:0:0:0:
333,285,94010,2,0,P|375:288|407:295,1,55,10|10,0:1|3:1,0:0:0:0:
426,250,94439,1,10,0:1:0:0:
426,250,94653,6,0,P|436:176|445:135,1,110,4|8,3:2|0:0,0:0:0:0:
349,84,95510,2,0,P|339:158|330:199,1,110,2|8,3:2|0:0,0:0:0:0:
225,223,96368,2,0,P|235:149|244:108,1,110,2|8,3:2|0:0,0:0:0:0:
147,59,97225,1,0,0:0:0:0:
147,59,97439,2,2,P|137:133|128:174,1,110,10|10,0:1|0:1,0:1:0:0:
89,205,98082,53,6,3:2:0:0:
89,205,98296,2,0,P|99:252|102:278,1,55,2|8,3:2|0:0,0:0:0:0:
207,280,98939,1,2,3:2:0:0:
207,280,99153,2,0,P|197:233|194:207,1,55,2|8,3:2|0:0,0:0:0:0:
284,160,99796,1,2,3:2:0:0:
284,160,100010,2,0,P|294:207|297:233,1,55,2|8,3:2|0:0,0:0:0:0:
401,240,100653,2,0,P|391:193|388:167,1,55,0|10,3:0|0:1,0:0:0:0:
421,140,101082,2,0,P|416:112|410:86,1,55,10|10,0:1|0:1,0:0:0:0:
367,50,101510,6,0,P|301:40|258:42,1,110,4|8,3:2|0:0,0:0:0:0:
216,78,102153,1,0,0:0:0:0:
216,78,102368,1,0,3:0:0:0:
110,47,102796,1,8,0:0:0:0:
18,108,103225,1,12,0:1:0:0:
18,108,103439,2,0,P|40:175|55:232,1,110,0|12,3:0|0:0,0:0:0:0:
70,321,104296,2,0,P|74:351|77:384,1,55,2|2,0:0|0:0,0:0:0:0:
181,341,104939,21,4,3:1:0:0:
288,365,105368,1,0,3:0:0:0:
366,287,105796,2,0,P|376:216|386:176,1,110,0|4,3:0|3:2,0:0:0:0:
427,143,106439,1,8,0:0:0:0:
427,143,106653,2,0,P|417:95|414:75,1,55,4|0,3:1|0:0,0:0:0:0:
371,56,107082,1,0,3:0:0:0:
280,118,107510,2,0,P|241:112|217:110,1,55,4|0,3:2|3:2,0:0:0:0:
189,68,107939,2,0,P|161:70|134:75,1,55,0|8,3:2|0:0,0:0:0:0:
86,48,108368,6,0,P|78:106|67:159,1,110,4|0,3:2|3:0,0:0:0:0:
153,225,109225,2,0,P|142:278|134:333,1,110,4|0,3:2|3:0,0:0:0:0:
179,365,109868,1,8,0:0:0:0:
179,365,110082,1,6,3:2:0:0:
286,342,110510,1,2,3:2:0:0:
393,316,110939,1,2,3:2:0:0:
425,98,111796,54,0,P|361:83|300:81,1,110,4|0,3:1|3:0,0:0:0:0:
253,170,112653,2,0,P|198:165|144:152,1,110,0|4,3:0|3:2,0:0:0:0:
111,108,113296,1,8,0:2:0:0:
111,108,113510,2,0,P|103:74|96:49,1,55,4|0,3:1|0:0,0:0:0:0:
44,38,113939,1,0,3:1:0:0:
8,142,114368,2,0,P|14:175|23:201,1,55,0|0,3:0|0:0,3:0:0:0:
71,218,114796,2,0,P|80:247|84:271,1,55,4|8,3:2|0:2,0:0:0:0:
64,322,115225,6,0,P|132:332|184:345,1,110,4|0,3:1|3:1,0:0:0:0:
237,253,116082,2,0,P|290:265|345:272,1,110,4|0,3:1|3:1,0:0:0:0:
382,313,116725,1,8,0:0:0:0:
382,313,116939,1,14,0:1:0:0:
432,215,117368,1,14,0:1:0:0:
157,32,118653,54,0,P|166:100|170:148,1,110,12|0,0:1|3:3,0:0:0:0:
165,196,119296,1,8,0:3:0:0:
165,196,119510,2,0,P|118:201|88:199,1,55,8|8,0:0|0:0,0:0:0:0:
71,240,119939,1,8,0:0:0:0:
112,342,120368,2,0,P|263:354|355:202,1,330,4|8,3:1|0:0,0:0:0:0:
245,210,122082,2,0,P|256:270|284:305,2,82.5,6|10|10,3:1|0:1|0:1,0:0:0:0:
260,157,122939,2,0,L|333:140,1,55,12|4,0:0|0:3,0:0:0:0:
342,97,123368,1,14,0:1:0:0:
263,19,123796,6,0,P|206:30|142:31,1,110,4|8,3:1|0:1,2:0:0:0:
130,139,124653,2,0,P|75:141|21:151,1,110,0|8,3:0|0:0,0:0:0:0:
0,203,125296,1,0,3:0:0:0:
0,203,125510,2,0,P|46:289|162:326,1,220,4|4,3:1|3:1,2:0:0:0:
243,258,126796,2,0,P|280:262|314:268,1,55,12|0,0:0|0:0,0:0:0:0:
328,310,127225,53,4,3:2:0:0:
434,285,127653,1,8,0:0:0:0:
403,179,128082,2,0,P|406:143|411:120,1,55,2|2,3:1|3:1,0:0:0:0:
374,82,128510,2,0,P|379:54|380:27,1,55,12|0,0:1|3:0,0:0:0:0:
331,2,128939,2,0,P|269:9|212:10,1,110,4|12,3:2|0:2,0:0:0:0:
179,46,129582,1,0,3:0:0:0:
179,46,129796,1,2,3:1:0:0:
80,96,130225,1,14,0:1:0:0:
63,204,130653,6,0,P|144:208|241:303,1,220,4|0,3:2|3:0,0:0:0:0:
249,354,131725,1,0,3:0:0:0:
249,354,131939,1,8,0:0:0:0:
352,315,132368,2,0,P|356:234|451:137,1,220,4|4,3:2|3:2,0:0:0:0:
502,129,133440,1,0,0:0:0:0:
502,129,133654,1,4,3:1:0:0:
450,32,134082,53,12,0:0:0:0:
348,73,134510,2,0,P|305:66|270:60,1,55,8|4,0:0|0:3,0:0:0:0:
251,29,134939,2,0,P|208:36|173:42,1,55,12|0,0:0|0:0,0:0:0:0:
154,73,135368,2,0,P|111:66|76:60,1,55,12|0,0:1|0:0,0:0:0:0:
60,25,135796,1,12,0:2:0:0:
6,121,136225,2,0,P|21:199|23:233,2,110,0|8|8,3:0|0:0|0:0,0:0:0:0:
45,82,137296,1,8,0:0:0:0:
45,82,137510,6,0,P|136:93|177:102,1,110,4|8,3:1|0:1,0:0:0:0:
213,189,138368,2,0,P|267:198|321:203,1,110,0|8,3:0|0:0,0:0:0:0:
363,167,139010,1,0,3:0:0:0:
363,167,139225,2,0,P|433:183|506:314,1,220,4|4,3:1|3:1,0:0:0:0:
417,367,140510,2,0,P|380:359|350:357,1,55,8|0,0:1|0:0,0:0:0:0:
325,316,140939,54,0,P|274:328|208:338,1,110,4|8,3:2|0:0,0:0:0:0:
127,273,141796,2,0,P|81:284|55:286,1,55,0|0,3:0|3:0,0:0:0:0:
28,252,142225,2,0,P|17:206|15:180,1,55,8|0,0:0|3:0,0:0:0:0:
48,154,142653,1,4,3:2:0:0:
28,45,143082,2,0,P|86:56|138:79,1,110,8|6,0:2|3:1,0:0:0:0:
157,125,143725,1,0,0:0:0:0:
157,125,143939,1,10,0:1:0:0:
260,162,144368,6,0,P|265:94|274:44,1,110,4|8,3:2|0:0,0:0:0:0:
380,70,145225,2,0,P|375:138|366:188,1,110,0|8,3:0|0:0,0:0:0:0:
322,210,145868,1,0,0:0:0:0:
322,210,146082,1,4,3:2:0:0:
338,318,146510,2,0,P|417:328|465:329,2,110,8|0|12,0:0|3:0|0:1,0:0:0:0:
234,279,147796,54,0,P|193:285|165:293,1,55,12|0,0:0|0:3,0:0:0:0:
141,327,148225,2,0,P|114:333|86:336,1,55,12|0,0:0|3:3,0:0:0:0:
46,299,148653,2,0,P|57:249|64:228,1,55,12|0,0:0|0:3,0:0:0:0:
99,209,149082,2,0,P|106:182|111:155,1,55,12|0,0:0|0:3,0:0:0:0:
82,108,149510,1,12,0:0:0:0:
165,36,149939,2,0,P|276:47|374:126,1,220,8|8,0:3|0:0,0:0:0:0:
402,211,151225,6,0,B|374:221|345:221|317:207|317:207|311:238|315:265|315:265|276:259|276:259|255:291|213:295|185:266|185:266|164:303|142:309,1,330,4|8,3:1|0:0,0:0:0:0:
55,326,152939,2,0,B|42:285|51:243|83:217|83:217|97:187|87:153|87:153|130:151|151:103|151:103|120:89|116:55,1,330,4|8,3:1|0:0,0:0:0:0:
213,6,154653,53,6,3:1:0:0:
262,104,155082,2,0,B|306:94|325:102|349:119|349:119|359:106|377:104,1,110,8|0,0:0|3:0,0:0:0:0:
376,216,155939,2,0,B|332:226|313:218|289:201|289:201|279:214|261:216,1,110,8|4,0:0|3:2,0:0:0:0:
235,251,156582,1,2,0:1:0:0:
235,251,156796,1,8,0:0:0:0:
204,356,157225,2,0,B|180:356|161:362|161:362|144:345,1,55,2|0,3:1|0:0,0:0:0:0:
114,314,157653,2,0,B|90:314|71:308|71:308|54:325,1,55,12|0,0:2|3:2,0:0:0:0:
20,350,158082,5,4,3:1:0:0:
256,192,158189,12,4,160653,3:2:0:0:
56,51,161510,53,4,3:2:0:0:
140,120,161939,2,0,P|163:64|157:4,2,110,8|0|12,0:0|3:0|0:1,0:0:0:0:
98,155,163010,1,0,0:0:0:0:
98,155,163225,1,4,3:2:0:0:
86,264,163653,1,0,3:0:0:0:
86,264,163868,1,4,0:3:0:0:
86,264,164082,2,0,P|126:266|149:268,1,55,8|8,0:0|0:0,0:0:0:0:
179,228,164511,2,0,P|206:230|233:231,1,55,8|8,0:0|0:0,0:0:0:0:
284,209,164939,6,0,P|288:161|313:124,2,82.5,14|10|10,0:1|0:1|0:1,0:0:0:0:
309,257,165796,2,2,P|388:289|483:198,1,220,14|4,0:1|3:1,0:1:0:0:
104,287,173510,5,4,3:2:0:0:
66,183,173939,2,0,P|75:118|77:72,1,110,8|0,0:0|3:0,0:0:0:0:
185,89,174796,2,0,P|176:154|174:200,1,110,12|0,0:0|3:0,0:0:0:0:
283,213,175653,2,0,P|292:148|294:102,1,110,12|4,0:0|3:1,0:0:0:0:
327,59,176296,1,0,0:0:0:0:
327,59,176510,2,0,P|371:51|394:49,1,55,12|0,0:0|0:0,0:0:0:0:
427,79,176939,53,4,0:1:0:0:
393,183,177368,1,12,0:0:0:0:
473,257,177796,1,12,0:0:0:0:
439,361,178225,2,0,P|395:352|371:352,1,55,12|0,0:0|0:0,0:0:0:0:
354,306,178653,1,12,0:1:0:0:
354,306,178868,2,0,P|214:281|125:176,1,275,8|8,0:0|0:0,0:0:0:0:
117,76,180368,53,0,3:0:0:0:
117,76,180582,2,0,P|73:64|43:62,2,55,12|12|8,0:1|0:0|2:0,0:0:0:0:
140,125,181225,1,0,3:0:0:0:
140,125,181439,2,0,P|184:137|214:139,2,55,12|8|12,0:0|0:0|0:1,0:0:0:0:
95,157,182082,1,0,3:0:0:0:
95,157,182296,2,0,P|79:208|67:285,1,110,14|14,0:1|0:1,0:0:0:0:
175,292,183153,1,0,3:0:0:0:
175,292,183367,2,2,P|191:241|203:164,1,110,14|4,0:1|3:2,0:1:0:0:
374,50,184653,5,8,0:0:0:0:
445,134,185082,2,0,P|452:176|454:196,1,55,0|8,3:0|0:0,0:0:0:0:
444,242,185510,2,0,P|356:228|317:227,1,110,4|8,3:2|0:0,0:0:0:0:
270,316,186368,1,14,0:1:0:0:
172,265,186796,1,10,0:1:0:0:
235,175,187225,6,0,P|230:120|220:66,2,110,4|8|0,3:1|0:0|3:0,0:0:0:0:
278,208,188296,1,0,3:0:0:0:
278,208,188510,1,8,0:0:0:0:
190,275,188939,2,0,P|194:329|204:383,2,110,4|8|0,3:2|0:0|3:0,0:0:0:0:
147,242,190010,1,0,3:0:0:0:
147,242,190225,2,0,P|103:231|76:228,1,55,12|0,0:1|0:0,0:0:0:0:
60,185,190653,53,12,0:0:0:0:
93,80,191082,2,0,L|162:77,1,55,12|4,0:0|0:3,0:0:0:0:
202,72,191510,2,0,L|271:69,1,55,12|4,0:0|0:3,0:0:0:0:
312,67,191939,2,0,L|381:64,1,55,12|4,0:0|0:3,0:0:0:0:
408,28,192368,53,12,0:0:0:0:
445,131,192796,1,12,0:1:0:0:
445,131,193010,1,8,0:0:0:0:
366,208,193439,1,12,0:1:0:0:
366,208,193653,2,0,P|358:253|356:283,1,55,8|4,0:0|0:3,0:0:0:0:
384,310,194082,6,0,P|319:296|251:294,1,110,4|8,3:1|0:0,0:0:0:0:
219,198,194939,2,0,P|164:193|110:181,1,110,4|8,3:2|0:0,0:0:0:0:
74,139,195582,1,0,3:0:0:0:
74,139,195796,2,0,P|120:61|241:23,1,220,4|4,3:1|3:1,0:0:0:0:
317,99,197082,2,0,P|350:106|381:109,1,55,12|2,0:2|0:1,0:0:0:0:
413,73,197510,54,0,P|440:76|467:82,1,55,4|0,3:2|3:0,0:0:0:0:
500,126,197939,1,8,0:0:0:0:
430,211,198368,1,4,3:2:0:0:
430,211,198582,2,0,P|423:253|419:284,1,55,2|10,3:1|0:1,0:0:0:0:
450,311,199010,1,0,3:0:0:0:
450,311,199225,2,0,P|346:322|225:354,1,220,4|6,3:1|3:1,0:0:0:0:
152,277,200510,1,10,0:1:0:0:
73,353,200939,6,0,P|57:298|52:236,1,110,4|8,3:1|0:0,0:0:0:0:
130,169,201796,2,0,P|137:134|141:103,2,55,4|0|8,3:2|3:0|0:0,0:0:0:0:
226,221,202653,2,0,P|245:145|248:91,1,110,4|8,3:2|0:0,0:0:0:0:
223,64,203296,1,0,3:0:0:0:
223,64,203510,1,4,3:1:0:0:
127,9,203939,1,12,0:0:0:0:
17,24,204368,54,0,L|6:88,1,55,12|0,0:0|3:0,0:0:0:0:
50,113,204796,2,0,L|39:177,1,55,12|0,0:0|3:0,0:0:0:0:
81,205,205225,2,0,L|70:269,1,55,12|0,0:0|3:0,0:0:0:0:
114,294,205653,2,0,L|103:358,1,55,12|4,0:1|0:3,0:0:0:0:
51,356,206082,5,12,0:1:0:0:
381,356,207368,1,2,0:0:0:0:
382,246,207796,54,0,P|385:173|390:119,2,110,4|8|0,3:1|0:0|3:0,0:0:0:0:
417,287,208868,1,8,0:0:0:0:
318,336,209296,2,0,P|246:322|186:318,1,110,12|0,0:2|3:0,0:0:0:0:
176,274,209939,2,0,P|146:276|118:281,1,55,12|0,0:2|0:0,0:0:0:0:
84,320,210368,1,14,0:1:0:0:
23,228,210796,1,2,3:1:0:0:
98,148,211225,6,0,P|102:105|102:79,1,55,4|2,3:1|3:2,0:0:0:0:
70,48,211654,1,8,0:0:0:0:
70,48,211868,2,0,P|135:41|191:31,1,110,0|8,3:1|0:1,0:0:0:0:
253,114,212725,2,0,P|307:105|361:99,1,110,12|0,0:2|3:0,0:0:0:0:
395,55,213368,1,14,0:2:0:0:
470,134,213796,2,0,P|463:181|462:204,1,55,14|8,0:1|0:3,0:0:0:0:
485,238,214225,1,2,3:1:0:0:
421,327,214653,54,0,P|375:318|344:314,1,55,4|0,3:1|3:0,0:0:0:0:
339,268,215082,1,8,0:0:0:0:
339,268,215296,2,0,P|269:283|220:286,1,110,4|8,3:2|0:0,0:0:0:0:
149,360,216153,2,0,P|94:365|40:377,1,110,12|0,0:0|3:1,0:0:0:0:
7,334,216796,2,0,P|12:283|18:259,1,55,8|0,0:0|3:0,0:0:0:0:
53,242,217225,1,14,0:1:0:0:
3,143,217653,1,2,3:1:0:0:
45,41,218082,5,4,3:1:0:0:
45,41,218296,2,0,P|95:47|126:49,1,55,2|8,3:2|0:0,0:0:0:0:
129,93,218725,2,0,P|203:98|260:109,1,110,0|8,3:0|0:0,0:0:0:0:
325,36,219582,2,0,P|337:99|342:145,1,110,12|0,0:2|3:1,0:0:0:0:
307,187,220225,2,0,P|302:221|301:249,1,55,8|0,0:0|3:0,0:0:0:0:
296,296,220653,54,0,P|254:305|207:289,2,82.5,10|10|14,0:1|0:1|0:1,0:0:0:0:
256,192,221403,12,0,224082,0:0:0:0:
