osu file format v14

[General]
AudioFilename: audio.mp3
AudioLeadIn: 0
PreviewTime: 166653
Countdown: 0
SampleSet: Soft
StackLeniency: 0.4
Mode: 0
LetterboxInBreaks: 0
EpilepsyWarning: 1
WidescreenStoryboard: 1

[Editor]
Bookmarks: 46225,84368,91225,151225,166653,173510
DistanceSpacing: 1
BeatDivisor: 4
GridSize: 32
TimelineZoom: 1

[Metadata]
Title:Centimeter
TitleUnicode:センチメートル
Artist:the peggies
ArtistUnicode:the peggies
Creator:Left
Version:Mayu's Insane
Source:彼女、お借りします
Tags:Kanojo, Okarishimasu Rent-A-Girlfriend rental girlfriend KanoKari OP opening full TMS Entertainment jpop j-pop japanese pop anime rock j-rock kunka Shikibe Mayu Shizuku- kazato asa
BeatmapID:3401246
BeatmapSetID:1663628

[Difficulty]
HPDrainRate:6
CircleSize:4
OverallDifficulty:8
ApproachRate:8.5
SliderMultiplier:1.6
SliderTickRate:1

[Events]
//Background and Video events
0,0,"BG.jpg",0,0
//Break Periods
2,84568,90535
2,166853,172621
//Storyboard Layer 0 (Background)
//Storyboard Layer 1 (Fail)
//Storyboard Layer 2 (Pass)
//Storyboard Layer 3 (Foreground)
//Storyboard Layer 4 (Overlay)
//Storyboard Sound Samples

[TimingPoints]
368,428.571428571429,4,2,7,70,1,0
3796,-200,4,2,7,70,0,0
5510,-125,4,2,7,70,0,0
11082,-100,4,2,7,70,0,0
15796,-1000,4,2,7,70,0,0
16868,-1000,4,2,7,65,0,0
17510,-71.4285714285714,4,2,7,70,0,0
24368,-100,4,2,7,65,0,0
38082,-100,4,2,7,75,0,0
51153,-100,4,2,7,55,0,0
51796,-100,4,2,7,75,0,0
55225,-100,4,2,7,85,0,0
56510,-500,4,2,7,70,0,0
56832,-500,4,2,7,5,0,0
56939,-76.9230769230769,4,2,7,85,0,1
84368,-76.9230769230769,4,2,7,85,0,0
91225,-100,4,2,7,65,0,0
104939,-76.9230769230769,4,2,7,75,0,0
111153,-200,4,2,7,75,0,0
111796,-55.5555555555556,4,2,7,75,0,0
117796,-55.5555555555556,4,2,7,55,0,0
121868,-76.9230769230769,4,2,7,75,0,0
123368,-100,4,2,7,85,0,0
123796,-66.6666666666667,4,2,7,85,0,1
131082,-76.9230769230769,4,2,7,85,0,1
151225,-83.3333333333333,4,2,7,85,0,0
164939,-66.6666666666667,4,2,7,85,0,0
173296,-66.6666666666667,4,2,7,65,0,0
174153,-100,4,2,7,65,0,0
176510,-100,4,2,7,70,0,0
176939,-100,4,2,7,75,0,0
180582,-66.6666666666667,4,2,7,85,0,1
183796,-66.6666666666667,4,2,7,70,0,0
185082,-100,4,2,7,70,0,0
190225,-133.333333333333,4,2,7,85,0,0
191082,-100,4,2,7,85,0,0
193439,-66.6666666666667,4,2,7,85,0,0
194082,-66.6666666666667,4,2,7,90,0,1
206082,-66.6666666666667,4,2,7,90,0,0
207368,-100,4,2,7,55,0,0
207796,-100,4,2,7,70,0,0
208439,-76.9230769230769,4,2,7,70,0,0
211225,-66.6666666666667,4,2,7,70,0,0
212296,-76.9230769230769,4,2,7,70,0,0
214653,-58.8235294117647,4,2,7,70,0,0
215082,-76.9230769230769,4,2,7,70,0,0

[Colours]
Combo1 : 205,205,205
Combo2 : 253,53,138
Combo3 : 255,188,64
Combo4 : 255,149,202
Combo5 : 255,217,128

[HitObjects]
494,225,3368,5,4,2:3:0:0:
494,225,3796,2,0,P|515:323|414:299,1,240,4|14,3:1|2:0,2:0:0:0:
281,131,5510,6,0,P|304:177|308:263,1,128,4|2,3:2|3:2,2:0:0:0:
97,384,6153,2,0,P|85:361|83:318,1,64,8|8,2:0|2:3,2:0:0:0:
140,261,6582,1,4,2:3:0:0:
216,289,6796,2,0,P|227:312|229:355,1,64,0|2,3:0|2:0,2:0:0:0:
405,377,7225,53,4,3:1:0:0:
405,377,7653,1,8,2:3:0:0:
457,318,7868,1,2,3:2:0:0:
434,243,8082,1,4,2:0:0:0:
356,225,8296,1,8,2:3:0:0:
323,153,8510,1,4,2:3:0:0:
362,85,8725,1,4,3:1:0:0:
28,90,9153,5,0,3:1:0:0:
104,112,9368,1,8,2:0:0:0:
122,188,9582,1,0,3:0:0:0:
159,57,9796,1,14,2:1:0:0:
159,57,10225,1,10,2:1:0:0:
52,270,10653,1,4,3:1:0:0:
52,270,11082,6,0,P|88:276|133:293,1,80,2|2,3:2|2:0,2:0:0:0:
192,236,11510,1,2,3:2:0:0:
272,264,11725,1,0,2:0:0:0:
272,264,11939,2,0,P|286:301|292:340,1,80,2|0,3:2|2:0,2:0:0:0:
384,314,12368,6,0,P|369:276|363:237,1,80,4|2,3:2|2:0,2:0:0:0:
458,75,12796,1,2,3:2:0:0:
505,141,13010,1,2,2:0:0:0:
453,201,13225,2,0,P|362:201|289:136,1,160,6|0,3:2|3:0,2:0:0:0:
237,26,13868,21,0,2:0:0:0:
237,26,13975,1,0,2:0:0:0:
237,26,14082,1,12,2:1:0:0:
181,97,14296,1,4,2:3:0:0:
93,115,14510,1,4,2:3:0:0:
14,88,14725,1,8,2:0:0:0:
93,115,14939,5,8,2:0:0:0:
181,97,15153,1,8,2:0:0:0:
288,114,15368,1,8,2:0:0:0:
353,222,15582,1,8,2:0:0:0:
472,56,15796,38,0,L|461:9,1,48,4|8,3:1|2:0,2:0:0:0:
461,9,17510,6,0,P|376:20|312:96,1,168,4|0,3:1|2:0,2:0:0:0:
314,92,17939,1,8,2:0:0:0:
203,71,18153,1,2,3:1:0:0:
92,46,18368,1,0,2:0:0:0:
225,259,18582,6,0,P|245:203|245:138,1,112,10|0,2:1|2:0,2:0:0:0:
22,107,19010,2,0,P|2:163|2:228,1,112,14|0,0:1|2:0,2:0:0:0:
146,384,19439,53,0,3:0:0:0:
130,301,19653,1,8,2:0:0:0:
114,218,19868,1,0,2:0:0:0:
354,52,20082,6,0,P|355:111|333:168,1,112,12|8,2:0|2:3,2:0:0:0:
409,214,20510,2,0,P|457:185|512:176,1,112,4|0,3:2|3:0,2:0:0:0:
291,335,20939,54,0,P|198:301|123:302,1,168,4|2,3:1|2:0,2:0:0:0:
129,300,21368,1,8,2:0:0:0:
201,164,21582,2,0,P|223:219|222:274,1,112,2|0,3:1|2:0,2:0:0:0:
44,372,22010,1,10,2:1:0:0:
44,372,22439,6,0,P|0:263|8:154,1,224,14|0,0:1|3:0,2:0:0:0:
103,120,23082,1,10,2:0:0:0:
181,192,23296,1,0,3:0:0:0:
84,227,23510,1,14,2:1:0:0:
84,227,23832,54,2,B|153:199|200:254|172:266|211:319|295:287,1,224,10|0,2:1|2:0,2:1:0:0:
288,286,24368,38,0,L|302:208,1,80,4|0,3:1|3:0,2:0:0:0:
272,138,24796,1,8,2:0:0:0:
376,261,25010,53,0,3:0:0:0:
434,197,25225,1,0,3:0:0:0:
512,232,25439,1,8,2:0:0:0:
512,232,25868,1,8,2:0:0:0:
272,384,26082,5,4,3:2:0:0:
200,350,26296,2,0,L|186:271,1,80,0|8,3:0|2:0,2:0:0:0:
121,220,26725,2,0,P|62:221|-13:177,1,120,0|0,3:0|2:0,2:0:0:0:
7,196,27153,53,14,2:1:0:0:
67,31,27368,1,10,2:1:0:0:
186,157,27582,1,10,2:1:0:0:
262,126,27796,6,0,L|274:45,1,80,4|0,3:1|3:0,2:0:0:0:
191,74,28225,1,8,2:0:0:0:
344,94,28439,53,0,3:0:0:0:
405,36,28653,1,0,3:0:0:0:
488,66,28868,1,8,2:0:0:0:
488,66,29296,1,8,2:0:0:0:
462,269,29510,5,4,3:2:0:0:
409,208,29725,2,0,L|423:128,1,80,0|8,3:0|2:0,2:0:0:0:
278,32,30153,1,0,3:0:0:0:
278,32,30582,54,0,P|293:76|293:116,1,80,10|0,2:1|2:0,2:0:0:0:
124,63,31010,2,0,P|126:102|139:140,1,80,14|0,2:1|2:0,2:0:0:0:
204,184,31439,5,0,3:2:0:0:
158,251,31653,2,0,L|78:266,1,80,8|0,2:0|3:0,2:0:0:0:
29,209,32082,1,0,3:0:0:0:
2,353,32296,1,8,2:0:0:0:
2,353,32725,1,8,2:0:0:0:
225,375,32939,54,0,P|243:289|243:210,1,160,4|8,3:2|3:2,2:0:0:0:
169,179,33582,1,0,3:0:0:0:
169,179,34010,2,0,P|127:190|87:192,1,80,14|10,2:1|2:1,2:0:0:0:
326,255,34439,2,0,P|368:244|408:242,1,80,10|4,2:1|3:1,2:0:0:0:
486,278,34868,5,0,3:0:0:0:
475,199,35082,2,0,P|479:157|494:112,1,80,8|0,2:0|2:0,2:0:0:0:
345,24,35510,53,0,3:0:0:0:
362,102,35725,1,0,3:0:0:0:
326,255,35939,5,8,2:0:0:0:
309,177,36153,1,0,3:0:0:0:
385,201,36368,53,12,2:1:0:0:
250,231,36582,1,0,3:0:0:0:
140,107,36796,1,0,3:0:0:0:
5,137,37010,1,12,2:0:0:0:
5,137,37439,5,2,2:0:0:0:
35,159,37546,1,2,2:0:0:0:
46,192,37653,1,12,2:0:0:0:
148,354,37868,21,0,3:0:0:0:
118,332,37975,1,0,3:0:0:0:
107,299,38082,2,0,L|191:282,1,80,4|0,3:1|3:0,2:0:0:0:
226,305,38403,1,0,3:0:0:0:
265,288,38510,2,0,L|282:204,1,80,4|8,3:2|2:0,2:0:0:0:
315,184,38832,1,8,2:0:0:0:
352,203,38939,2,0,L|436:186,1,80,4|0,3:1|3:2,2:0:0:0:
504,211,39368,1,4,3:2:0:0:
447,261,39582,6,0,P|451:190|483:106,1,160,8|0,2:0|3:2,2:0:0:0:
482,107,40118,1,0,3:0:0:0:
502,28,40332,1,0,2:0:0:0:
463,28,40439,1,8,2:0:0:0:
435,41,40546,1,0,2:0:0:0:
411,67,40653,1,4,3:1:0:0:
411,67,40760,1,2,2:0:0:0:
317,34,40975,1,0,3:0:0:0:
317,34,41082,1,4,3:2:0:0:
244,111,41296,1,8,2:0:0:0:
300,221,41510,54,0,L|283:300,1,80,4|0,3:2|3:2,2:0:0:0:
250,326,41832,1,0,3:0:0:0:
206,313,41939,1,4,3:2:0:0:
206,313,42153,1,8,2:0:0:0:
61,208,42368,6,0,L|78:129,1,80,4|0,3:1|3:2,2:0:0:0:
111,103,42689,1,8,2:0:0:0:
155,116,42796,1,4,3:2:0:0:
155,116,43010,1,4,2:3:0:0:
328,272,43225,53,6,3:1:0:0:
357,65,43439,1,2,3:1:0:0:
455,249,43653,1,10,2:1:0:0:
266,157,43868,1,10,2:1:0:0:
472,121,44082,1,10,2:1:0:0:
472,121,44296,1,0,3:0:0:0:
375,173,44510,1,12,2:0:0:0:
63,32,44939,6,0,L|47:111,1,80,4|0,3:1|3:0,2:0:0:0:
73,138,45260,1,0,3:0:0:0:
111,124,45368,2,0,L|190:140,1,80,4|8,3:2|2:0,2:0:0:0:
296,88,45796,2,0,L|320:216,1,120,4|0,3:1|3:0,2:0:0:0:
321,223,46225,1,4,3:2:0:0:
416,272,46439,2,0,P|428:234|426:194,1,80,8|4,2:0|3:2,2:0:0:0:
217,349,47939,53,8,2:3:0:0:
217,349,48153,1,4,2:3:0:0:
175,319,48260,1,4,2:3:0:0:
125,335,48368,6,0,L|45:349,1,80,4|0,3:1|3:0,2:0:0:0:
12,327,48689,1,0,3:0:0:0:
19,286,48796,1,4,3:2:0:0:
183,265,49010,1,8,2:0:0:0:
60,90,49225,54,0,P|46:129|46:177,1,80,4|0,3:1|3:0,2:0:0:0:
85,204,49546,1,0,3:0:0:0:
137,187,49653,2,0,P|151:148|151:100,1,80,4|8,3:2|2:0,2:0:0:0:
256,16,50082,5,6,3:1:0:0:
388,89,50296,1,2,3:1:0:0:
307,80,50510,1,2,3:1:0:0:
457,39,50725,1,2,3:1:0:0:
457,39,51153,2,0,L|449:0,2,40,2|2|4,2:0|2:0|2:3,2:0:0:0:
51,238,51796,54,0,P|20:158|24:100,1,120,4|10,3:1|2:0,2:0:0:0:
19,124,52225,1,4,3:2:0:0:
222,72,52439,1,10,2:0:0:0:
222,72,52546,1,10,2:0:0:0:
222,72,52653,2,0,P|253:152|249:210,1,120,4|10,3:2|2:0,2:0:0:0:
253,185,53082,1,4,3:2:0:0:
170,266,53296,5,10,2:0:0:0:
170,266,53403,1,10,2:0:0:0:
170,266,53510,2,0,P|163:232|150:181,1,80,12|0,2:1|3:0,2:0:0:0:
315,49,53939,2,0,P|322:83|335:134,1,80,4|8,2:3|2:3,2:0:0:0:
333,126,54260,1,8,2:0:0:0:
333,126,54368,1,8,2:0:0:0:
379,114,54475,1,8,2:0:0:0:
426,119,54582,1,8,2:0:0:0:
465,146,54689,1,8,2:0:0:0:
481,190,54796,1,8,2:0:0:0:
472,237,54903,1,8,2:0:0:0:
439,272,55010,1,8,2:0:0:0:
294,364,55225,53,6,3:1:0:0:
256,192,55546,1,10,2:1:0:0:
218,20,55868,1,10,2:1:0:0:
218,20,56510,6,0,L|213:44,1,24,8|0,2:3|2:0,2:0:0:0:
151,100,56939,54,0,P|154:153|183:209,1,104,4|0,3:1|3:0,2:0:0:0:
488,140,57368,2,0,P|485:87|456:31,1,104,8|0,2:1|3:0,2:0:0:0:
464,41,57689,1,8,2:0:0:0:
464,41,57796,1,0,3:0:0:0:
376,85,58010,1,0,3:0:0:0:
316,17,58225,1,8,2:0:0:0:
164,264,58439,6,0,L|57:281,1,104,2|4,2:0|3:2,2:0:0:0:
253,83,58868,2,0,L|146:100,1,104,0|8,2:0|2:0,2:0:0:0:
334,232,59296,53,0,3:0:0:0:
334,232,59403,1,8,2:0:0:0:
334,232,59510,1,4,3:1:0:0:
432,190,59725,1,0,2:0:0:0:
512,256,59939,1,8,2:0:0:0:
433,384,60153,6,0,P|428:335|413:282,1,104,0|4,2:0|3:2,2:0:0:0:
334,232,60582,1,0,2:0:0:0:
268,301,60796,2,0,P|220:287|171:263,1,104,8|0,2:0|3:0,2:0:0:0:
171,263,61118,1,8,2:0:0:0:
176,268,61225,54,0,P|168:228|160:204,1,52,2|0,3:1|2:0,2:0:0:0:
237,160,61439,2,0,P|245:200|253:224,1,52,2|0,3:1|2:0,2:0:0:0:
248,211,61653,1,12,2:1:0:0:
55,123,61868,6,0,P|106:133|164:136,1,104,2|4,2:0|3:2,2:0:0:0:
248,210,62296,1,0,3:0:0:0:
491,51,62510,54,0,P|440:41|382:38,1,104,8|0,2:0|3:0,2:0:0:0:
384,41,62832,1,8,2:0:0:0:
380,45,62939,2,0,P|390:96|393:154,1,104,6|0,3:1|3:0,2:0:0:0:
268,301,63368,6,2,B|167:278|184:379|57:346,1,208,14|4,2:1|3:2,2:1:0:0:
19,290,64010,1,0,2:0:0:0:
63,220,64225,1,8,2:0:0:0:
63,220,64439,2,0,P|57:191|49:161,1,52,0|8,3:0|2:0,2:0:0:0:
191,17,64653,53,0,3:0:0:0:
221,101,64868,1,0,3:0:0:0:
288,33,65082,1,8,2:0:0:0:
288,33,65296,2,0,P|320:40|345:43,1,52,0|0,2:0|2:0,2:0:0:0:
501,176,65510,5,4,3:2:0:0:
417,146,65725,1,0,2:0:0:0:
350,215,65939,2,0,P|341:260|330:319,1,104,8|0,2:0|3:0,2:0:0:0:
330,317,66260,1,8,2:0:0:0:
330,317,66368,53,4,3:2:0:0:
197,382,66582,1,0,2:0:0:0:
90,276,66796,1,12,2:1:0:0:
90,276,67010,2,0,P|94:246|101:216,1,52,0|0,2:0|2:0,2:0:0:0:
126,152,67225,6,0,P|78:150|26:202,1,104,12|4,2:0|2:3,2:0:0:0:
96,358,67653,2,0,P|144:360|196:308,1,104,8|4,2:0|2:3,2:0:0:0:
191,323,67975,1,0,3:0:0:0:
195,319,68082,54,0,P|190:288|183:259,1,52,12|0,2:0|2:0,2:0:0:0:
277,136,68296,2,0,P|282:167|289:196,1,52,0|0,2:0|2:0,2:0:0:0:
327,268,68510,2,0,P|296:273|267:280,1,52,12|0,2:0|2:0,2:0:0:0:
144,186,68725,2,0,P|175:181|204:174,1,52,0|0,2:0|2:0,2:0:0:0:
395,118,68939,5,12,2:0:0:0:
393,128,69153,1,0,3:0:0:0:
392,138,69368,1,8,2:3:0:0:
448,257,69582,53,8,2:0:0:0:
490,237,69689,1,8,2:0:0:0:
505,192,69796,1,8,2:0:0:0:
486,149,69903,1,8,2:0:0:0:
443,128,70010,6,0,P|416:134|389:139,1,52,8|8,2:0|2:0,2:0:0:0:
305,232,70225,2,0,P|332:226|359:221,1,52,8|8,2:0|2:0,2:0:0:0:
321,93,70439,2,0,P|315:120|310:147,1,52,8|8,2:0|2:0,2:0:0:0:
136,365,70653,54,0,P|117:310|112:253,1,104,4|0,3:1|2:0,2:0:0:0:
355,221,71082,2,0,P|374:276|379:333,1,104,8|0,2:1|3:0,2:0:0:0:
375,325,71403,1,8,2:0:0:0:
371,329,71510,1,0,3:0:0:0:
285,307,71725,1,0,3:0:0:0:
199,285,71939,1,8,2:0:0:0:
322,141,72153,6,0,P|341:205|340:257,1,104,0|4,3:0|3:2,2:0:0:0:
86,189,72582,2,0,P|89:240|106:290,1,104,0|8,3:0|2:0,2:0:0:0:
186,22,73010,53,0,3:0:0:0:
186,22,73118,1,8,2:0:0:0:
186,22,73225,1,4,3:1:0:0:
235,160,73439,1,0,3:0:0:0:
331,49,73653,1,8,2:0:0:0:
402,241,73868,5,0,2:0:0:0:
402,241,73975,1,0,2:0:0:0:
402,241,74082,2,0,P|454:232|508:216,1,104,4|0,3:2|2:0,2:0:0:0:
192,320,74510,2,0,P|140:329|86:345,1,104,8|0,2:0|2:0,2:0:0:0:
86,339,74832,1,0,2:0:0:0:
82,335,74939,54,0,P|88:306|94:266,1,52,0|0,3:0|2:0,2:0:0:0:
56,87,75153,2,0,P|50:116|43:155,1,52,0|0,3:0|2:0,2:0:0:0:
74,211,75368,1,8,2:0:0:0:
225,128,75582,6,0,P|167:142|116:150,1,104,0|4,3:0|3:1,2:0:0:0:
242,41,76010,1,0,3:0:0:0:
293,198,76225,54,0,P|343:186|395:177,1,104,8|0,2:0|2:0,2:0:0:0:
398,172,76546,1,0,2:0:0:0:
402,168,76653,2,0,P|420:118|420:64,1,104,6|0,3:1|2:0,2:0:0:0:
184,248,77082,2,2,P|288:250|385:286,1,208,10|6,2:1|3:1,2:1:0:0:
468,263,77725,1,0,2:0:0:0:
446,343,77939,1,8,2:0:0:0:
406,208,78153,2,0,P|410:187|413:156,1,52,0|8,3:0|2:0,2:0:0:0:
223,11,78368,5,0,3:0:0:0:
154,93,78582,1,0,3:0:0:0:
56,60,78796,1,8,2:0:0:0:
56,60,79010,2,0,P|46:86|38:115,1,52,0|0,2:0|2:0,2:0:0:0:
204,203,79225,53,4,3:2:0:0:
329,74,79439,1,0,2:0:0:0:
491,138,79653,1,8,2:0:0:0:
444,0,79868,5,0,3:0:0:0:
444,0,79975,1,8,2:0:0:0:
444,0,80082,2,0,P|424:48|416:101,1,104,4|0,3:2|2:0,2:0:0:0:
204,203,80510,2,0,P|224:155|232:102,1,104,12|0,2:1|2:0,2:0:0:0:
512,243,80939,53,12,2:0:0:0:
431,171,81153,1,0,2:0:0:0:
333,221,81368,2,0,P|323:263|311:329,1,104,12|0,2:0|3:0,2:0:0:0:
311,322,81689,1,0,3:0:0:0:
311,322,81796,1,12,2:0:0:0:
230,213,82010,1,0,2:0:0:0:
110,287,82225,2,0,P|64:302|-2:314,1,104,12|0,2:0|2:0,2:0:0:0:
392,376,82653,6,0,P|438:361|504:349,1,104,12|0,2:1|3:0,2:0:0:0:
496,354,82975,1,4,2:3:0:0:
500,358,83082,2,0,P|507:323|519:291,1,52,8|8,2:3|2:0,2:0:0:0:
432,216,83296,2,0,P|425:251|413:283,1,52,8|8,2:0|2:0,2:0:0:0:
216,360,83510,53,8,2:0:0:0:
169,351,83618,1,8,2:0:0:0:
139,316,83725,1,8,2:0:0:0:
139,269,83832,1,8,2:0:0:0:
169,233,83939,1,8,2:0:0:0:
216,225,84046,1,8,2:0:0:0:
256,248,84153,1,8,2:0:0:0:
272,292,84260,1,8,2:0:0:0:
256,336,84368,1,12,2:1:0:0:
19,297,91225,22,0,L|100:283,1,80,6|0,3:2|2:0,2:0:0:0:
162,339,91653,1,8,2:0:0:0:
162,339,91868,1,0,2:0:0:0:
230,297,92082,2,0,L|244:216,1,80,2|0,3:2|2:0,2:0:0:0:
216,148,92510,1,8,2:0:0:0:
216,148,92725,1,0,2:0:0:0:
327,199,92939,5,2,3:2:0:0:
327,199,93153,2,0,L|410:185,1,80,0|10,2:0|2:0,2:0:0:0:
473,232,93582,1,2,3:2:0:0:
136,24,94010,53,10,2:1:0:0:
100,138,94225,1,10,3:1:0:0:
16,50,94439,1,10,2:1:0:0:
209,176,94653,6,0,L|293:156,1,80,4|2,3:2|3:2,2:0:0:0:
347,221,95082,1,8,2:0:0:0:
347,221,95296,1,0,2:0:0:0:
424,184,95510,2,0,L|444:100,1,80,2|2,3:2|3:2,2:0:0:0:
494,284,95939,2,0,L|475:361,1,80,8|0,2:0|2:0,2:0:0:0:
347,221,96368,53,2,3:2:0:0:
283,163,96582,1,2,3:2:0:0:
200,189,96796,1,8,2:0:0:0:
264,247,97010,1,2,2:0:0:0:
264,247,97439,6,2,P|256:288|245:329,1,80,10|0,2:1|2:0,2:1:0:0:
366,137,97868,2,0,P|374:96|385:55,1,80,10|6,2:1|3:2,2:0:0:0:
347,221,98296,1,2,3:2:0:0:
200,189,98510,54,0,L|150:202,1,40,8|0,2:0|2:0,2:0:0:0:
86,225,98725,1,2,3:2:0:0:
173,355,98939,6,0,P|156:318|146:269,1,80,2|2,3:2|3:2,2:0:0:0:
272,143,99368,2,0,P|289:180|299:229,1,80,8|2,2:0|3:2,2:0:0:0:
244,284,99796,53,2,3:2:0:0:
393,217,100010,1,2,3:2:0:0:
512,334,100225,2,0,L|501:375,1,40,8|0,2:0|2:0,2:0:0:0:
415,378,100439,2,0,L|436:301,1,80,2|0,2:0|3:0,2:0:0:0:
192,32,100868,5,10,2:1:0:0:
145,180,101082,1,10,2:1:0:0:
36,65,101296,1,10,2:1:0:0:
145,180,101510,54,0,P|186:182|232:195,1,80,4|0,3:2|2:0,2:0:0:0:
303,149,101939,1,8,2:0:0:0:
303,149,102153,1,0,2:0:0:0:
363,213,102368,2,0,P|366:252|375:292,1,80,0|0,3:0|3:0,2:0:0:0:
287,384,102796,2,0,P|284:345|275:305,1,80,8|0,2:0|2:0,2:0:0:0:
271,301,103118,1,0,2:0:0:0:
267,297,103225,5,12,2:1:0:0:
448,235,103439,1,0,3:0:0:0:
303,109,103653,1,0,3:0:0:0:
122,171,103868,1,12,2:0:0:0:
122,171,104296,2,0,L|83:162,2,40,2|2|2,2:0|2:0|2:0,2:0:0:0:
381,297,104939,22,0,P|437:282|490:273,1,104,4|2,3:1|2:0,2:0:0:0:
443,197,105260,1,10,2:0:0:0:
435,202,105368,2,0,P|407:209|380:214,1,52,0|0,3:0|2:0,2:0:0:0:
425,365,105582,2,0,P|453:357|479:353,1,52,8|0,2:0|2:0,2:0:0:0:
316,259,105796,5,0,3:0:0:0:
272,240,105903,1,0,2:0:0:0:
225,246,106010,1,0,3:0:0:0:
189,276,106118,1,8,2:0:0:0:
178,321,106225,2,0,P|186:348|192:374,1,52,4|0,3:2|2:0,2:0:0:0:
272,371,106439,2,0,P|264:344|258:318,1,52,8|0,2:0|2:0,2:0:0:0:
362,125,106653,53,4,3:1:0:0:
319,145,106760,1,2,2:0:0:0:
273,134,106868,1,2,2:0:0:0:
239,101,106975,1,10,2:0:0:0:
232,55,107082,1,0,3:0:0:0:
207,14,107189,1,2,2:0:0:0:
158,0,107296,1,10,2:0:0:0:
108,8,107403,1,2,2:0:0:0:
77,44,107510,6,0,P|86:77|106:137,1,52,4|0,3:2|2:0,2:0:0:0:
165,130,107725,2,0,P|156:163|136:222,1,52,0|8,3:2|2:0,2:0:0:0:
100,242,107939,2,0,P|51:252|-1:267,1,104,0|8,3:2|2:0,2:0:0:0:
258,320,108368,54,0,P|307:310|359:295,1,104,4|2,3:2|2:0,2:0:0:0:
402,310,108689,1,10,2:0:0:0:
448,307,108796,1,0,3:0:0:0:
487,281,108903,1,0,2:0:0:0:
499,235,109010,1,8,2:0:0:0:
491,188,109118,1,0,2:0:0:0:
457,155,109225,1,4,3:2:0:0:
278,21,109439,5,2,2:0:0:0:
278,21,109546,1,10,2:0:0:0:
278,21,109653,2,0,L|266:73,1,52,0|0,3:0|2:0,2:0:0:0:
249,150,109868,2,0,L|237:200,1,52,8|0,2:0|2:0,2:0:0:0:
326,122,110082,53,6,3:2:0:0:
192,95,110296,1,2,2:0:0:0:
326,122,110510,1,2,3:2:0:0:
192,95,110725,1,2,2:0:0:0:
326,122,110939,1,2,3:2:0:0:
192,95,111153,2,0,P|169:100|152:101,2,40,2|2|2,2:1|2:1|2:0,2:0:0:0:
415,163,111796,6,0,P|336:172|285:228,1,144,4|0,3:1|2:0,2:0:0:0:
287,218,112118,1,8,2:0:0:0:
283,222,112225,2,0,P|291:256|296:303,1,71.9999999999999,0|0,3:0|2:0,2:0:0:0:
165,171,112439,2,0,P|157:137|152:90,1,71.9999999999999,8|0,2:0|2:0,2:0:0:0:
0,263,112653,54,0,P|83:265|184:381,1,216,0|0,3:0|2:0,2:0:0:0:
184,351,113082,2,0,P|201:304|194:273,1,71.9999999999999,4|0,3:2|2:0,2:0:0:0:
112,264,113296,2,0,P|95:311|102:342,1,71.9999999999999,8|0,2:0|2:0,2:0:0:0:
283,222,113510,6,0,P|356:218|445:195,1,144,4|0,3:1|2:0,2:0:0:0:
474,190,113832,1,8,2:0:0:0:
510,225,113939,1,0,3:1:0:0:
461,237,114046,1,0,2:0:0:0:
424,202,114153,1,8,2:0:0:0:
490,98,114368,53,0,3:0:0:0:
437,74,114475,1,0,2:0:0:0:
379,80,114582,1,0,2:0:0:0:
334,116,114689,1,0,2:0:0:0:
314,170,114796,1,4,3:2:0:0:
314,170,115010,2,0,P|324:206|331:249,1,71.9999999999999,8|0,2:0|2:0,2:0:0:0:
195,364,115225,6,0,P|148:306|64:323,1,144,4|0,3:1|2:0,2:0:0:0:
79,312,115546,1,8,2:0:0:0:
75,316,115653,2,0,P|17:269|34:185,1,144,0|8,3:1|2:0,2:0:0:0:
200,68,116082,53,4,3:1:0:0:
200,68,116296,2,0,P|188:105|178:147,1,71.9999999999999,0|8,2:0|2:0,2:0:0:0:
95,170,116510,2,0,P|175:184|236:217,1,144,0|8,3:1|2:0,2:0:0:0:
401,17,116939,5,14,2:1:0:0:
465,374,117368,1,14,2:1:0:0:
465,374,117796,53,2,2:0:0:0:
409,295,118010,1,2,2:0:0:0:
411,283,118082,1,2,2:0:0:0:
413,271,118153,1,2,2:0:0:0:
415,259,118225,1,2,2:0:0:0:
116,108,118653,5,12,2:1:0:0:
141,236,118868,53,0,3:0:0:0:
95,224,118975,1,0,3:0:0:0:
52,243,119082,1,0,3:0:0:0:
35,286,119189,1,4,2:3:0:0:
50,330,119296,1,8,2:3:0:0:
90,354,119403,1,8,2:0:0:0:
137,354,119510,1,8,2:0:0:0:
177,376,119618,1,8,2:0:0:0:
202,337,119725,1,8,2:0:0:0:
244,317,119832,1,8,2:0:0:0:
269,277,119939,1,8,2:0:0:0:
258,231,120046,1,8,2:0:0:0:
220,203,120153,1,8,2:0:0:0:
173,200,120260,1,8,2:0:0:0:
141,236,120368,1,4,3:1:0:0:
360,287,120582,5,0,3:0:0:0:
389,250,120689,1,0,3:0:0:0:
434,236,120796,1,0,3:0:0:0:
481,228,120903,1,4,2:3:0:0:
509,190,121010,1,8,2:3:0:0:
500,144,121118,1,8,2:0:0:0:
466,112,121225,1,8,2:0:0:0:
419,108,121332,1,8,2:0:0:0:
381,134,121439,1,8,2:0:0:0:
357,93,121546,1,8,2:0:0:0:
311,82,121653,1,8,2:0:0:0:
268,100,121760,1,8,2:0:0:0:
247,141,121868,2,0,P|252:165|257:196,1,52,8|0,2:0|2:0,2:0:0:0:
226,378,122082,53,6,3:1:0:0:
257,193,122403,1,10,2:1:0:0:
288,8,122725,1,10,2:1:0:0:
345,93,122939,5,12,2:0:0:0:
345,93,123046,1,8,2:3:0:0:
345,93,123153,1,4,2:3:0:0:
345,93,123260,1,0,3:0:0:0:
345,93,123368,2,0,L|397:83,1,40,14|0,2:1|2:0,2:0:0:0:
464,67,123582,2,0,L|516:57,1,40,2|0,2:1|2:0,2:0:0:0:
270,297,123796,54,0,P|252:240|251:179,1,120,4|0,3:1|2:0,2:0:0:0:
438,146,124225,2,0,P|455:202|456:263,1,120,8|0,2:1|3:0,2:0:0:0:
456,262,124546,1,8,2:0:0:0:
456,262,124653,1,0,3:0:0:0:
353,220,124868,1,0,3:0:0:0:
270,297,125082,1,8,2:0:0:0:
85,133,125296,6,0,L|107:5,1,120,0|4,3:0|3:1,2:0:0:0:
353,220,125725,2,0,L|375:92,1,120,0|8,2:0|2:0,2:0:0:0:
122,232,126153,53,0,3:0:0:0:
122,232,126260,1,8,2:0:0:0:
122,232,126368,2,0,L|-7:255,1,120,4|0,3:1|3:0,2:0:0:0:
356,348,126796,2,0,L|227:371,1,120,12|0,2:0|2:0,2:0:0:0:
238,369,127118,1,0,2:0:0:0:
238,369,127225,5,4,3:2:0:0:
399,265,127439,1,0,2:0:0:0:
332,136,127653,2,0,P|319:194|317:254,1,120,8|0,2:0|3:0,2:0:0:0:
313,259,127975,1,8,2:0:0:0:
310,263,128082,2,0,P|266:276|245:284,1,60,2|0,3:1|2:0,2:0:0:0:
167,218,128296,2,0,P|211:205|232:197,1,60,2|0,3:1|2:0,2:0:0:0:
224,200,128510,1,12,2:1:0:0:
190,372,128725,2,0,P|180:344|172:315,1,60,0|8,3:0|2:0,2:0:0:0:
20,133,128939,53,4,3:2:0:0:
122,89,129153,1,0,3:0:0:0:
191,171,129368,1,12,2:0:0:0:
369,116,129582,5,0,3:0:0:0:
369,116,129689,1,8,2:0:0:0:
369,116,129796,2,0,P|374:86|384:57,1,60,2|0,3:1|2:0,2:0:0:0:
383,58,130010,1,0,2:0:0:0:
474,227,130225,54,2,B|353:192|374:322|226:273,1,240,14|4,2:1|3:2,2:1:0:0:
165,253,130868,1,0,2:0:0:0:
102,332,131082,2,0,P|57:319|-1:311,1,104,8|0,2:0|3:0,2:0:0:0:
0,311,131403,1,8,2:0:0:0:
0,311,131510,1,0,3:0:0:0:
165,253,131725,1,0,3:0:0:0:
63,191,131939,6,0,P|72:217|77:251,1,52,8|0,2:0|2:0,2:0:0:0:
200,384,132153,2,0,P|191:358|186:324,1,52,0|0,2:0|2:0,2:0:0:0:
247,213,132368,53,4,3:2:0:0:
327,278,132582,1,0,2:0:0:0:
426,246,132796,2,0,P|437:196|451:143,1,104,8|0,2:0|3:0,2:0:0:0:
450,145,133118,1,8,2:0:0:0:
450,145,133225,1,4,3:2:0:0:
376,71,133439,1,0,2:0:0:0:
276,101,133653,1,4,3:1:0:0:
276,101,133868,2,0,P|248:96|217:91,1,52,0|0,2:0|2:0,2:0:0:0:
99,161,134082,6,0,L|81:49,1,104,12|4,2:0|2:3,2:0:0:0:
367,271,134510,2,0,L|349:159,1,104,8|4,2:0|2:3,2:0:0:0:
387,136,134832,1,0,3:0:0:0:
441,148,134939,2,0,L|423:36,1,104,12|0,2:0|2:0,2:0:0:0:
215,300,135368,2,0,L|197:188,1,104,12|0,2:1|2:0,2:0:0:0:
198,197,135689,1,0,2:0:0:0:
198,197,135796,1,12,2:0:0:0:
322,86,136010,53,0,3:0:0:0:
365,67,136118,1,0,3:0:0:0:
408,82,136225,1,0,3:0:0:0:
429,123,136332,1,4,2:3:0:0:
422,169,136439,1,8,2:0:0:0:
384,196,136546,1,8,2:0:0:0:
336,197,136653,5,8,2:0:0:0:
294,165,136760,1,8,2:0:0:0:
241,162,136868,1,8,2:0:0:0:
192,181,136975,1,8,2:0:0:0:
158,220,137082,1,8,2:0:0:0:
152,271,137189,1,8,2:0:0:0:
168,320,137296,1,8,2:0:0:0:
209,351,137403,1,8,2:0:0:0:
260,352,137510,54,0,P|269:301|282:251,1,104,4|0,3:1|2:0,2:0:0:0:
36,29,137939,2,0,P|27:80|14:130,1,104,8|0,2:1|3:0,2:0:0:0:
17,134,138260,1,8,2:0:0:0:
20,138,138368,2,0,P|42:132|89:122,1,52,0|0,3:0|2:0,2:0:0:0:
38,215,138582,2,0,P|60:209|107:199,1,52,0|0,3:0|2:0,2:0:0:0:
147,147,138796,1,8,2:0:0:0:
378,294,139010,6,0,P|395:239|392:183,1,104,0|4,3:0|3:1,2:0:0:0:
147,260,139439,2,0,P|147:208|163:159,1,104,0|8,3:0|2:0,2:0:0:0:
232,98,139868,1,0,3:0:0:0:
232,98,139975,1,8,2:0:0:0:
232,98,140082,1,4,3:1:0:0:
14,139,140296,1,0,3:0:0:0:
232,98,140510,2,0,L|337:117,1,104,8|0,2:1|2:0,2:0:0:0:
393,49,140939,53,4,3:2:0:0:
417,201,141153,1,0,2:0:0:0:
441,354,141368,1,8,2:0:0:0:
512,258,141582,2,0,P|488:264|454:269,1,52,0|0,2:0|2:0,2:0:0:0:
385,292,141796,5,0,3:0:0:0:
417,201,142010,1,0,3:0:0:0:
449,110,142225,1,8,2:0:0:0:
257,27,142439,54,0,B|208:41|208:41|189:149|189:149|128:166,1,208,0|0,3:0|2:0,2:0:0:0:
28,129,143082,1,8,2:0:0:0:
90,305,143296,5,0,2:0:0:0:
90,305,143403,1,0,2:0:0:0:
90,305,143510,2,0,P|84:260|70:202,1,104,6|0,3:1|2:0,2:0:0:0:
330,106,143939,2,2,P|342:196|370:312,1,208,10|6,2:1|3:1,2:1:0:0:
271,361,144582,1,0,2:0:0:0:
210,294,144796,1,8,2:0:0:0:
210,294,145010,2,0,P|217:266|221:234,1,52,0|8,3:0|2:0,2:0:0:0:
129,112,145225,53,0,3:0:0:0:
7,140,145439,1,0,3:0:0:0:
129,112,145653,1,8,2:0:0:0:
7,140,145868,2,0,P|33:144|62:154,1,52,0|0,2:0|2:0,2:0:0:0:
253,31,146082,5,4,3:2:0:0:
334,110,146296,1,0,3:0:0:0:
445,63,146510,2,0,P|450:85|457:121,1,52,8|0,2:0|2:0,2:0:0:0:
474,193,146725,53,0,3:0:0:0:
472,197,146832,1,8,2:0:0:0:
470,201,146939,1,0,3:0:0:0:
335,110,147153,1,4,2:3:0:0:
204,226,147368,2,0,L|183:384,1,156,12|0,2:1|2:0,2:0:0:0:
183,380,147796,5,12,2:0:0:0:
145,162,148010,1,0,2:3:0:0:
363,238,148225,2,0,P|330:245|305:253,1,52,12|0,2:0|2:0,2:0:0:0:
234,267,148439,53,0,3:0:0:0:
234,267,148546,1,0,3:0:0:0:
234,267,148653,1,12,2:0:0:0:
438,299,148868,1,0,2:3:0:0:
275,362,149082,2,0,P|281:259|321:159,1,208,12|12,2:0|2:0,2:0:0:0:
123,30,149725,5,0,3:0:0:0:
122,35,149832,1,4,2:3:0:0:
121,40,149939,1,8,2:3:0:0:
120,45,150046,1,8,2:0:0:0:
119,50,150153,1,8,2:0:0:0:
118,55,150260,1,8,2:0:0:0:
70,73,150368,53,8,2:0:0:0:
42,115,150475,1,8,2:0:0:0:
48,167,150582,1,8,2:0:0:0:
86,202,150689,1,8,2:0:0:0:
139,204,150796,1,8,2:0:0:0:
180,172,150903,1,8,2:0:0:0:
191,120,151010,2,0,L|184:82,2,34.6666666666667,8|8|8,2:0|2:0|2:0,2:0:0:0:
117,132,151225,6,0,P|216:149|312:190,1,192,4|8,3:1|2:0,2:0:0:0:
503,93,151868,2,0,L|498:61,2,32,0|0|0,3:0|3:0|3:0,2:0:0:0:
505,102,152082,2,0,P|406:85|314:46,1,192,4|8,3:2|2:0,2:0:0:0:
371,253,152725,53,0,3:0:0:0:
371,253,152832,1,8,2:0:0:0:
371,253,152939,2,0,P|380:200|399:154,1,96,4|0,3:1|2:0,2:0:0:0:
295,181,153368,1,8,2:0:0:0:
474,275,153582,1,0,3:0:0:0:
474,275,153689,1,8,2:0:0:0:
474,275,153796,2,0,B|370:252|404:349|286:326,1,192,4|8,3:2|2:0,2:0:0:0:
240,375,154439,1,0,3:0:0:0:
66,354,154653,6,0,P|39:309|36:264,1,96,6|0,3:1|2:0,2:0:0:0:
36,266,154975,1,2,2:1:0:0:
36,266,155082,1,8,2:0:0:0:
144,63,155296,2,2,P|171:108|174:153,1,96,2|0,2:1|2:0,2:1:0:0:
174,150,155618,1,0,2:0:0:0:
174,150,155725,1,2,3:1:0:0:
137,241,155939,1,8,2:0:0:0:
64,186,156153,54,0,P|162:198|277:224,1,192,2|2,2:1|2:1,2:0:0:0:
315,165,156796,1,8,2:0:0:0:
490,313,157010,1,2,2:1:0:0:
490,313,157118,1,0,2:0:0:0:
490,313,157225,2,0,P|445:322|396:336,1,96,2|0,3:1|2:0,2:0:0:0:
405,150,157653,6,0,P|401:179|395:209,1,48,12|0,2:0|2:0,2:0:0:0:
330,248,157868,2,0,P|326:277|320:307,1,48,0|0,3:2|3:0,2:0:0:0:
222,190,158082,54,0,P|275:179|320:162,1,96,4|2,3:1|2:0,2:0:0:0:
397,197,158510,1,8,2:0:0:0:
199,280,158725,1,0,3:0:0:0:
168,252,158832,1,2,2:1:0:0:
126,268,158939,2,2,P|61:198|88:92,1,192,6|8,3:1|2:1,2:1:0:0:
256,32,159582,6,0,P|251:57|247:80,1,48,0|0,3:0|2:0,2:0:0:0:
175,136,159796,2,2,L|370:105,1,192,6|8,3:2|2:1,2:1:0:0:
507,284,160439,53,0,3:0:0:0:
491,237,160546,1,8,2:0:0:0:
459,273,160653,2,2,P|362:273|290:202,1,192,6|10,3:1|2:1,2:1:0:0:
196,80,161296,5,0,3:0:0:0:
196,80,161403,1,0,2:0:0:0:
196,80,161510,1,4,3:2:0:0:
270,14,161725,1,2,2:1:0:0:
216,177,161939,1,8,2:0:0:0:
101,48,162153,1,2,3:1:0:0:
101,48,162260,1,8,2:0:0:0:
101,48,162368,2,0,P|49:49|-5:38,1,96,0|2,3:0|2:1,2:0:0:0:
295,211,162796,54,0,P|330:120|415:85,1,192,12|4,2:1|3:2,2:0:0:0:
428,162,163439,1,0,3:0:0:0:
444,239,163653,1,0,3:0:0:0:
460,316,163868,2,0,P|454:339|445:375,1,48,4|8,2:3|2:3,2:0:0:0:
368,384,164082,5,8,2:0:0:0:
346,341,164189,1,8,2:0:0:0:
311,309,164296,1,8,2:0:0:0:
266,290,164403,1,8,2:0:0:0:
219,288,164510,1,8,2:0:0:0:
173,302,164618,1,8,2:0:0:0:
135,331,164725,1,8,2:0:0:0:
135,331,164939,54,0,P|123:270|86:215,1,120,14|0,2:1|2:0,2:0:0:0:
0,259,165260,2,0,P|12:320|49:375,1,120,10|0,2:1|2:0,2:0:0:0:
43,368,165582,1,10,2:1:0:0:
295,211,165796,6,2,B|324:155|371:154|398:214|477:103|387:23|323:78|323:78|302:29|230:27|193:89|219:148|275:158,1,480,14|4,2:1|3:1,2:1:0:0:
472,135,173296,5,8,2:0:0:0:
470,144,173403,1,8,2:0:0:0:
468,153,173510,1,4,3:2:0:0:
387,196,173725,1,0,2:0:0:0:
311,147,173939,1,8,2:0:0:0:
311,147,174153,2,0,L|320:103,1,40,0|8,3:0|2:0,2:0:0:0:
254,47,174368,5,0,3:0:0:0:
162,23,174582,1,0,3:0:0:0:
97,90,174796,1,12,2:0:0:0:
97,90,175010,2,0,L|90:130,1,40,0|8,3:0|2:0,2:0:0:0:
108,206,175225,53,0,3:0:0:0:
199,177,175439,1,0,3:0:0:0:
268,243,175653,1,12,2:0:0:0:
268,243,175868,2,0,L|257:287,2,40,0|0|4,3:0|3:0|3:1,2:0:0:0:
359,188,176296,1,0,3:0:0:0:
359,188,176403,1,0,3:0:0:0:
359,188,176510,2,0,P|401:188|487:167,1,120,12|0,2:0|2:0,2:0:0:0:
477,171,176939,53,4,2:1:0:0:
359,270,177153,1,0,3:0:0:0:
288,132,177368,1,12,2:0:0:0:
288,132,177475,2,0,L|246:142,1,40,0|0,3:0|3:0,2:0:0:0:
164,159,177689,1,0,3:0:0:0:
164,159,177796,2,0,L|122:169,1,40,12|0,2:0|2:0,2:0:0:0:
55,129,178010,53,0,2:0:0:0:
223,216,178225,1,12,2:0:0:0:
71,308,178439,1,0,2:0:0:0:
112,210,178653,1,12,2:1:0:0:
112,210,178868,5,8,2:0:0:0:
110,201,178975,1,8,2:0:0:0:
108,193,179082,1,8,2:0:0:0:
107,184,179189,1,8,2:0:0:0:
105,176,179296,1,8,2:0:0:0:
103,167,179403,1,8,2:0:0:0:
102,159,179510,1,8,2:0:0:0:
100,151,179618,1,8,2:0:0:0:
98,142,179725,1,8,2:0:0:0:
97,134,179832,1,8,2:0:0:0:
95,125,179939,1,8,2:0:0:0:
94,117,180046,1,8,2:0:0:0:
92,109,180153,1,8,2:0:0:0:
90,100,180260,1,8,2:0:0:0:
89,92,180368,1,0,3:0:0:0:
384,92,180582,54,0,P|374:119|366:158,1,60,12|0,2:1|2:0,2:0:0:0:
222,112,180796,2,0,P|232:85|240:46,1,60,12|0,2:0|2:0,2:0:0:0:
313,71,181010,2,0,P|303:98|295:137,1,60,8|0,2:0|2:0,2:0:0:0:
296,128,181225,1,0,3:0:0:0:
38,320,181439,6,0,P|30:287|20:256,1,60,12|0,2:0|2:0,2:0:0:0:
163,214,181653,2,0,P|171:247|181:278,1,60,8|0,2:0|2:0,2:0:0:0:
100,267,181868,1,12,2:1:0:0:
100,267,182082,1,0,3:0:0:0:
346,366,182296,54,0,P|357:301|373:247,1,120,14|0,2:1|2:0,2:0:0:0:
97,68,182725,2,0,P|86:133|70:187,1,120,14|0,2:1|2:0,2:0:0:0:
246,313,183153,5,0,3:0:0:0:
246,313,183260,1,0,3:0:0:0:
246,313,183368,2,2,P|231:209|207:118,1,180,14|0,2:1|2:0,2:1:0:0:
213,136,183796,53,4,3:2:0:0:
346,162,184118,1,0,3:0:0:0:
479,187,184439,1,0,3:0:0:0:
479,187,184653,1,8,2:0:0:0:
433,77,185082,6,0,P|426:101|423:126,1,40,0|0,3:0|2:0,2:0:0:0:
337,118,185296,2,0,P|351:70|357:20,1,80,8|0,2:0|2:0,2:0:0:0:
170,24,185725,53,0,3:0:0:0:
170,24,185832,1,0,3:0:0:0:
170,24,185939,1,8,2:0:0:0:
141,155,186153,1,0,3:0:0:0:
16,68,186368,6,0,P|61:77|100:79,1,80,14|0,2:1|2:0,2:0:0:0:
240,262,186796,2,0,P|150:244|72:240,1,160,10|4,2:1|3:1,2:0:0:0:
171,200,187439,1,0,3:0:0:0:
240,262,187653,6,0,P|291:254|339:233,1,80,8|0,2:0|3:0,2:0:0:0:
317,244,187975,1,8,2:0:0:0:
317,244,188082,1,0,3:0:0:0:
402,287,188296,1,0,3:0:0:0:
473,249,188510,2,0,P|482:207|494:171,1,80,8|0,2:0|2:0,2:0:0:0:
384,23,188939,6,0,P|375:65|363:101,1,80,4|0,3:2|3:0,2:0:0:0:
404,173,189368,1,8,2:0:0:0:
483,91,189582,2,0,P|456:98|431:108,2,40,0|8|0,3:0|2:0|3:0,2:0:0:0:
313,170,190010,1,0,3:0:0:0:
313,170,190225,2,0,P|259:156|207:137,1,90.0000000000002,12|0,2:1|2:0,2:0:0:0:
226,144,190653,21,12,2:0:0:0:
153,29,190868,1,4,2:3:0:0:
34,90,191082,2,0,P|43:133|53:183,1,80,12|4,2:0|2:3,2:0:0:0:
50,168,191403,1,0,2:0:0:0:
50,168,191510,5,12,2:0:0:0:
259,86,191725,1,4,2:3:0:0:
381,272,191939,2,0,P|418:259|459:250,1,80,12|4,2:0|2:3,2:0:0:0:
503,145,192368,53,12,2:0:0:0:
464,156,192475,1,8,2:3:0:0:
424,149,192582,1,4,2:3:0:0:
396,119,192689,1,4,2:3:0:0:
390,78,192796,1,12,2:1:0:0:
261,4,193010,5,8,2:0:0:0:
282,37,193118,1,8,2:3:0:0:
289,76,193225,1,4,2:3:0:0:
277,114,193332,1,4,2:3:0:0:
248,141,193439,2,0,P|219:149|176:162,1,60,12|0,2:1|2:0,2:0:0:0:
142,88,193653,2,0,P|171:80|214:67,1,60,8|8,2:0|2:3,2:0:0:0:
469,220,193868,53,4,2:3:0:0:
435,299,193975,1,4,2:3:0:0:
360,266,194082,2,0,P|300:277|239:296,1,120,4|0,3:1|2:0,2:0:0:0:
56,56,194510,6,0,P|136:68|198:159,1,180,8|8,2:0|2:0,2:0:0:0:
195,142,194939,1,4,3:2:0:0:
291,80,195153,2,0,P|298:48|306:20,1,60,0|0,3:0|2:0,2:0:0:0:
305,21,195368,1,8,2:0:0:0:
151,224,195582,54,0,P|96:243|36:258,1,120,0|4,3:0|3:1,2:0:0:0:
194,142,196010,2,0,P|205:85|222:25,1,120,2|12,2:1|2:1,2:0:0:0:
243,220,196439,1,2,3:1:0:0:
243,220,196546,1,8,2:0:0:0:
243,220,196653,2,0,P|287:258|330:303,1,120,4|2,3:1|3:1,2:0:0:0:
512,72,197082,6,0,P|372:120|280:138,1,240,12|4,2:0|3:2,2:0:0:0:
3,156,197725,53,0,3:0:0:0:
3,156,197832,1,0,2:0:0:0:
3,156,197939,2,0,P|96:173|130:254,1,180,8|8,2:0|2:0,2:0:0:0:
130,243,198368,1,4,3:2:0:0:
277,81,198582,6,0,P|283:48|291:15,1,60,2|0,3:1|2:0,2:0:0:0:
211,8,198796,2,0,P|205:41|197:74,1,60,10|0,2:1|2:0,2:0:0:0:
354,141,199010,54,0,P|406:126|475:115,1,120,0|4,3:0|3:1,2:0:0:0:
277,81,199439,1,0,2:0:0:0:
249,282,199653,6,0,P|267:226|275:163,1,120,12|2,2:0|2:0,2:0:0:0:
271,162,199975,1,2,2:0:0:0:
267,158,200082,2,0,P|217:172|180:179,1,60,6|0,3:1|2:0,2:0:0:0:
77,132,200296,2,0,P|27:146|-10:153,1,60,0|0,3:0|2:0,2:0:0:0:
118,250,200510,54,2,P|125:220|133:192,1,60,10|0,2:1|2:0,2:1:0:0:
167,58,200725,2,0,P|158:86|151:115,1,60,0|0,2:0|2:0,2:0:0:0:
330,235,200939,5,4,3:1:0:0:
408,156,201153,1,0,2:0:0:0:
500,207,201368,1,8,2:0:0:0:
500,207,201582,2,0,P|492:233|482:270,1,60,2|2,2:0|2:0,2:0:0:0:
317,348,201796,53,4,3:2:0:0:
223,190,202010,1,0,3:0:0:0:
50,297,202225,1,8,2:0:0:0:
50,297,202439,2,0,P|57:329|64:363,1,60,0|0,3:0|2:0,2:0:0:0:
151,378,202653,5,4,3:2:0:0:
223,190,202868,1,0,2:0:0:0:
151,378,203082,2,0,P|146:343|137:307,1,60,8|0,2:0|2:0,2:0:0:0:
316,248,203296,53,0,3:0:0:0:
316,248,203403,1,8,2:0:0:0:
316,248,203510,2,0,P|374:259|434:277,1,120,4|0,3:1|2:0,2:0:0:0:
336,16,203939,2,0,P|247:48|160:69,1,180,12|0,2:0|2:0,2:0:0:0:
164,68,204368,5,12,2:0:0:0:
256,192,204582,1,0,3:0:0:0:
409,174,204796,1,12,2:0:0:0:
256,192,205010,2,0,P|264:230|271:263,1,60,0|0,3:0|2:0,2:0:0:0:
195,333,205225,53,12,2:0:0:0:
256,192,205439,1,0,3:0:0:0:
104,4,205653,5,12,2:1:0:0:
62,20,205760,1,8,2:3:0:0:
33,54,205868,1,4,2:3:0:0:
26,98,205975,1,4,2:3:0:0:
41,139,206082,1,12,2:1:0:0:
41,139,207368,38,0,P|101:147|165:167,1,120,2|0,2:0|2:0,2:0:0:0:
222,108,207796,6,0,P|214:64|202:16,1,80,4|0,3:1|2:0,2:0:0:0:
403,216,208225,2,0,P|397:234|390:260,1,40,8|0,2:0|2:0,2:0:0:0:
391,254,208439,6,0,P|450:240|493:232,1,104,2|0,3:1|2:0,2:0:0:0:
344,77,208868,2,0,P|330:127|313:176,1,104,10|0,2:1|2:0,2:0:0:0:
423,350,209296,54,0,P|359:298|262:314,1,156,14|0,0:1|2:0,2:0:0:0:
289,300,209725,1,0,3:0:0:0:
161,219,209939,1,8,2:0:0:0:
192,384,210153,5,0,3:0:0:0:
192,384,210260,1,0,3:0:0:0:
192,384,210368,2,0,P|201:316|221:258,1,104,12|8,2:0|2:3,2:0:0:0:
51,28,210796,2,0,P|42:96|22:154,1,104,4|0,3:2|3:0,2:0:0:0:
57,213,211225,54,0,B|156:231|127:143|241:174,1,180,4|2,3:1|2:0,2:0:0:0:
224,170,211653,1,8,2:0:0:0:
428,108,211868,6,0,P|434:76|443:49,1,60,2|0,3:1|2:0,2:0:0:0:
363,9,212082,2,0,P|357:41|348:68,1,60,0|0,2:0|2:0,2:0:0:0:
396,205,212296,54,0,P|445:189|508:179,1,104,10|0,2:1|2:0,2:0:0:0:
272,24,212725,2,0,P|223:40|160:50,1,104,14|0,0:1|2:0,2:0:0:0:
171,48,213153,6,0,P|165:77|156:108,1,52,0|0,3:0|2:0,2:0:0:0:
280,155,213368,2,0,P|257:135|235:112,1,52,10|0,2:0|2:0,2:0:0:0:
132,195,213582,2,0,P|160:185|191:177,1,52,0|0,3:0|2:0,2:0:0:0:
365,134,213796,54,0,P|374:75|386:25,1,104,12|8,2:1|2:3,2:0:0:0:
58,0,214225,2,0,P|49:59|37:109,1,104,4|4,3:1|2:3,2:0:0:0:
42,106,214546,1,4,2:3:0:0:
46,110,214653,6,0,P|125:92|203:204,1,204,6|0,3:1|2:0,2:0:0:0:
206,187,215082,2,0,P|201:206|193:238,1,52,10|0,2:1|2:0,2:0:0:0:
168,311,215296,1,4,3:2:0:0:
171,318,215403,1,4,2:3:0:0:
173,326,215510,1,0,3:0:0:0:
13,272,215725,54,0,P|68:261|120:245,1,104,12|0,2:0|3:0,2:0:0:0:
256,299,216153,2,0,P|305:284|356:274,1,104,12|0,2:1|3:0,2:0:0:0:
191,363,216582,5,0,3:0:0:0:
221,226,216796,1,8,2:0:0:0:
247,102,217010,1,0,3:0:0:0:
247,102,217118,1,0,3:0:0:0:
247,102,217225,2,0,P|235:43|229:-16,1,104,12|8,2:0|2:3,2:0:0:0:
221,226,217653,2,0,P|233:285|239:344,1,104,4|0,3:2|3:0,2:0:0:0:
452,208,218082,54,0,P|381:211|296:162,1,156,14|0,2:1|2:0,2:0:0:0:
306,173,218510,1,10,2:1:0:0:
338,15,218725,6,0,P|363:63|365:119,1,104,4|0,3:2|3:0,2:0:0:0:
182,166,219153,2,0,P|157:118|155:62,1,104,12|0,2:0|3:0,2:0:0:0:
360,254,219582,54,0,P|278:273|214:314,1,156,12|0,2:1|2:0,2:0:0:0:
217,310,220010,1,0,3:0:0:0:
40,184,220225,6,0,P|35:211|26:240,1,52,12|0,2:0|2:0,2:0:0:0:
102,273,220439,2,0,P|107:246|116:217,1,52,0|0,2:0|2:0,2:0:0:0:
182,166,220653,53,14,2:1:0:0:
182,166,220975,1,10,2:1:0:0:
182,166,221296,1,14,2:1:0:0:
256,192,221403,12,0,224082,2:0:0:0:
