osu file format v14

[General]
AudioFilename: audio.mp3
AudioLeadIn: 0
PreviewTime: 253
Countdown: 0
SampleSet: Soft
StackLeniency: 0.6
Mode: 0
LetterboxInBreaks: 0
WidescreenStoryboard: 1

[Editor]
Bookmarks: 31075,42783,55953
DistanceSpacing: 1
BeatDivisor: 4
GridSize: 32
TimelineZoom: 1.9

[Metadata]
Title:Ashiato (TV Size)
TitleUnicode:足跡 (TV Size)
Artist:the peggies
ArtistUnicode:the peggies
Creator:Seolv
Version:Kaliruto's Expert
Source:僕のヒーローアカデミア
Tags:my hero academia boku no mha ed ending 8 footprints season 5 jpop jrock j-rock j-pop japanese anime kalibe haruto haruto_aizawa hazu- aistre alphabet venax lukas [_l_u_k_a_s_] wanpachi cycopton
BeatmapID:2983699
BeatmapSetID:1451291

[Difficulty]
HPDrainRate:5
CircleSize:4.4
OverallDifficulty:8.5
ApproachRate:9.2
SliderMultiplier:1.74
SliderTickRate:1

[Events]
//Background and Video events
0,0,"hawks.jpg",0,0
//Break Periods
//Storyboard Layer 0 (Background)
//Storyboard Layer 1 (Fail)
//Storyboard Layer 2 (Pass)
//Storyboard Layer 3 (Foreground)
//Storyboard Layer 4 (Overlay)
//Storyboard Sound Samples

[TimingPoints]
330,365.853658536585,4,2,2,60,1,0
330,-133.333333333333,4,2,2,60,0,0
5817,-133.333333333333,4,2,2,75,0,0
6183,-117.647058823529,4,2,2,75,0,0
9476,-117.647058823529,4,2,2,80,0,0
11488,-64.5161290322581,4,2,2,80,0,0
12037,-96.1538461538461,4,2,2,80,0,0
18165,-96.1538461538461,4,2,2,60,0,0
18660,365.853658536585,4,2,2,70,1,0
18660,-96.1538461538461,4,2,2,70,0,0
19369,365.853658536585,4,2,2,60,1,0
19369,-135.135135135135,4,2,2,60,0,0
31075,-106.382978723404,4,2,2,70,0,0
32722,-100,4,2,2,70,0,0
32904,-80.6451612903226,4,2,2,70,0,0
32996,-87.719298245614,4,2,2,70,0,0
33453,-80.6451612903226,4,2,2,70,0,0
33636,-106.382978723404,4,2,2,70,0,0
34002,-135.135135135135,4,2,2,70,0,0
34368,-80.6451612903226,4,2,2,70,0,0
34551,-106.382978723404,4,2,2,70,0,0
34917,-222.222222222221,4,2,2,70,0,0
35100,-96.1538461538461,4,2,2,70,0,0
36563,-80.6451612903226,4,2,2,70,0,0
36929,-106.382978723404,4,2,2,70,0,0
37478,-133.333333333333,4,2,2,70,0,0
38392,-125,4,2,2,70,0,0
39124,-71.4285714285714,4,2,2,70,0,0
41319,-83.3333333333333,4,2,2,70,0,0
42783,-142.857142857143,4,2,2,60,0,0
51197,-111.111111111111,4,2,2,60,0,0
51746,-125,4,2,2,60,0,0
53026,361.44578313253,4,2,2,70,1,0
54471,-100,4,2,2,75,0,0
55194,365.853658536585,4,2,2,75,1,0
55942,365.853658536585,4,2,2,85,1,0
55942,-83.3333333333333,4,2,2,85,0,0
58502,-181.818181818181,4,2,2,85,0,0
58685,-133.333333333333,4,2,2,85,0,0
59051,-83.3333333333333,4,2,2,85,0,0
70941,-181.818181818181,4,2,2,85,0,0
71124,-133.333333333333,4,2,2,85,0,0
71673,-83.3333333333333,4,2,2,85,0,0
79356,-90.9090909090909,4,2,2,85,0,0
84844,-66.6666666666667,4,2,2,85,0,0
85220,413.793103448276,4,2,2,70,1,0
85970,375,4,2,2,75,1,0

[Colours]
Combo1 : 241,203,88
Combo2 : 192,192,192
Combo3 : 196,66,66

[HitObjects]
5,166,330,6,0,P|43:160|70:139,1,65.2500024890901,2|2,2:2|2:2,0:0:0:0:
152,53,695,1,2,2:2:0:0:
72,122,878,6,0,P|114:125|128:215,1,130.50000497818,2|2,2:2|2:2,0:0:0:0:
74,241,1427,1,2,2:2:0:0:
237,311,1610,6,0,B|303:305|303:305|304:306|304:306|366:300,1,130.50000497818,2|2,2:2|2:2,0:0:0:0:
434,336,2159,1,2,2:2:0:0:
415,128,2342,5,2,2:2:0:0:
346,158,2525,1,0,0:0:0:0:
314,227,2708,1,2,2:2:0:0:
258,174,2890,1,2,2:2:0:0:
416,39,3073,6,0,B|340:22|340:22|380:63,1,130.50000497818,2|2,2:2|2:2,0:0:0:0:
469,185,3622,1,2,2:2:0:0:
314,227,3805,6,0,B|238:244|238:244|278:203,1,130.50000497818,2|2,2:2|2:2,0:0:0:0:
274,206,4354,1,2,2:2:0:0:
479,373,4537,6,0,P|451:335|404:333,1,97.8750037336351,2|0,2:2|0:0,0:0:0:0:
389,290,4903,2,0,P|338:302|325:329,1,65.2500024890901,2|2,2:2|2:2,0:0:0:0:
253,374,5269,2,0,B|186:369|211:384|118:372,1,130.50000497818,2|0,2:2|1:2,0:0:0:0:
48,258,5817,1,4,3:3:0:0:
50,252,5909,1,2,0:0:0:0:
52,246,6000,1,2,1:2:0:0:
55,237,6092,1,2,1:2:0:0:
61,218,6183,6,0,P|113:210|150:205,1,73.9500014104843,6|2,1:2|0:0,0:0:0:0:
247,96,6549,1,2,3:0:0:0:
174,131,6732,6,0,P|165:171|258:230,1,147.900002820969,2|2,0:0|0:0,0:0:0:0:
340,123,7281,1,2,3:0:0:0:
253,17,7464,6,0,B|273:64|273:64|160:45,1,147.900002820969,2|2,0:0|0:0,0:0:0:0:
113,87,8012,1,2,3:0:0:0:
237,234,8195,5,2,0:0:0:0:
237,234,8287,1,2,0:0:0:0:
301,192,8470,1,2,0:0:0:0:
301,192,8561,1,2,0:0:0:0:
408,296,8744,6,0,P|400:348|395:385,1,73.9500014104843,2|0,3:0|0:0,0:0:0:0:
134,207,9110,5,2,3:0:0:0:
134,207,9476,1,8,3:2:0:0:
312,118,9659,1,8,3:2:0:0:
479,373,9842,5,8,3:2:0:0:
301,192,10025,1,8,3:2:0:0:
386,90,10208,5,10,3:2:0:0:
315,375,10390,1,14,3:2:0:0:
315,375,11488,6,0,B|281:367|281:367|310:342,1,67.4250005144119,2|0,3:2|0:0,0:0:0:0:
491,213,11671,1,8,3:2:0:0:
150,49,12037,6,0,P|92:71|90:116,1,90.4799994477539,6|2,3:2|3:2,0:0:0:0:
114,211,12403,1,10,0:0:0:0:
9,109,12586,6,0,P|73:114|108:228,1,180.959998895508,2|2,3:2|3:2,0:0:0:0:
14,369,13134,1,10,0:0:0:0:
309,306,13317,6,0,B|389:296|359:321|495:299,1,180.959998895508,2|2,3:2|3:2,0:0:0:0:
378,162,13866,1,10,0:0:0:0:
453,133,14049,2,0,P|426:94|375:86,1,90.4799994477539,2|0,3:2|0:0,0:0:0:0:
309,306,14415,1,2,3:2:0:0:
114,211,14598,1,10,0:0:0:0:
217,57,14781,6,0,B|256:48|256:48|341:91|341:91|389:83,1,180.959998895508,2|2,0:0|3:2,0:0:0:0:
512,0,15329,1,10,0:0:0:0:
256,156,15512,6,0,L|246:209,1,45.239999723877,2|0,3:2|0:0,0:0:0:0:
269,206,15878,6,0,L|275:263,1,45.239999723877,2|0,3:2|0:0,0:0:0:0:
347,251,16061,2,0,L|357:299,1,45.239999723877,10|0,0:0|0:0,0:0:0:0:
489,275,16244,6,0,P|488:198|380:200,1,180.959998895508,6|2,3:2|3:2,0:0:0:0:
273,345,16793,1,8,0:0:0:0:
114,211,16976,6,0,P|115:134|223:136,1,180.959998895508,6|0,3:2|3:2,0:0:0:0:
277,179,17525,5,8,0:0:0:0:
292,152,17616,1,8,0:0:0:0:
286,107,17708,1,8,0:0:0:0:
305,66,17799,1,8,0:0:0:0:
289,14,17890,1,2,3:2:0:0:
488,267,18165,5,2,0:0:0:0:
490,272,18256,1,2,3:2:0:0:
161,287,18439,5,2,0:0:0:0:
163,295,18531,1,2,0:0:0:0:
159,315,18660,6,0,L|167:360,1,45.239999723877,10|2,0:0|0:0,0:0:0:0:
376,340,18842,2,0,L|368:385,1,45.239999723877,6|0,3:2|0:0,0:0:0:0:
40,184,19369,6,0,B|78:178|107:205|107:205|111:209|111:209|88:181|90:154,1,128.760003143555,6|0,3:2|3:2,0:0:0:0:
143,109,19917,1,0,0:0:0:0:
68,14,20100,2,0,L|3:26,1,64.3800015717774,2|0,3:2|0:0,0:0:0:0:
222,99,20466,2,0,P|235:62|227:29,1,64.3800015717774,0|0,3:2|0:0,0:0:0:0:
40,184,20831,5,2,3:2:0:0:
40,184,21014,1,8,0:0:0:0:
40,184,21198,2,0,P|18:211|27:300,1,128.760003143555,0|2,3:2|3:2,0:0:0:0:
82,354,21746,1,2,0:0:0:0:
198,306,21929,1,2,3:2:0:0:
276,360,22112,5,2,0:0:0:0:
285,365,22203,1,0,0:0:0:0:
294,371,22295,2,0,P|306:330|316:300,1,64.3800015717774,2|0,3:2|0:0,0:0:0:0:
390,299,22661,1,2,3:2:0:0:
209,236,22844,6,0,P|202:193|168:103,1,128.760003143555,2|2,0:0|0:0,0:0:0:0:
80,95,23392,1,2,3:2:0:0:
80,95,23575,1,2,0:0:0:0:
265,17,23759,6,0,P|295:26|326:35,1,64.3800015717774,2|0,3:2|0:0,0:0:0:0:
408,116,24125,2,0,B|341:107|368:132|270:109,1,128.760003143555,0|2,3:2|3:2,0:0:0:0:
375,193,24673,1,0,0:0:0:0:
356,270,24856,1,2,3:2:0:0:
479,360,25039,5,2,2:2:0:0:
479,360,25130,1,2,2:2:0:0:
479,360,25222,2,0,P|469:329|460:298,1,64.3800015717774,6|0,3:2|0:0,0:0:0:0:
488,228,25587,1,2,3:2:0:0:
298,215,25771,6,0,P|243:226|161:249,1,128.760003143555,2|2,0:0|0:0,0:0:0:0:
80,95,26320,2,0,P|80:52|95:29,1,64.3800015717774,0|0,3:2|0:0,0:0:0:0:
276,113,26685,5,2,3:2:0:0:
276,113,26868,1,8,0:0:0:0:
276,113,27051,2,0,P|242:77|206:78,1,64.3800015717774,2|2,3:2|2:2,0:0:0:0:
116,161,27417,2,0,P|79:222|16:211,1,128.760003143555,2|2,3:2|3:2,0:0:0:0:
173,245,27965,5,2,0:0:0:0:
173,245,28057,1,2,0:0:0:0:
173,245,28149,2,0,P|155:307|142:370,2,128.760003143555,2|2|2,3:2|3:2|3:2,0:0:0:0:
258,354,29064,2,0,P|249:319|246:287,1,64.3800015717774,2|2,0:0|3:2,0:0:0:0:
53,172,29429,5,2,0:0:0:0:
53,172,29520,1,2,0:0:0:0:
53,172,29612,2,0,P|105:166|125:158,1,64.3800015717774,2|2,3:2|3:2,0:0:0:0:
344,78,29978,1,2,3:2:0:0:
280,32,30161,1,2,3:2:0:0:
173,245,30343,5,8,3:2:0:0:
204,213,30435,1,0,3:2:0:0:
251,205,30526,1,8,3:2:0:0:
297,219,30618,1,8,3:2:0:0:
325,254,30709,5,8,3:2:0:0:
357,269,30801,1,0,3:2:0:0:
385,267,30892,1,0,3:2:0:0:
409,259,30984,1,0,3:0:0:0:
426,240,31075,5,6,0:0:0:0:
426,240,31442,2,0,B|419:205|419:205|467:229,1,81.7799987521363,8|0,0:0|0:0,0:0:0:0:
343,132,31807,1,2,3:2:0:0:
437,92,31990,2,0,L|262:113,1,163.559997504273,2|8,3:2|0:0,0:0:0:0:
271,108,32539,1,2,0:0:0:0:
256,283,32722,5,10,0:0:0:0:
193,185,32905,2,0,B|216:232|159:239|181:301,1,107.879995720093,0|2,0:0|0:0,0:0:0:0:
195,359,33179,1,2,0:0:0:0:
195,359,33270,1,2,3:2:0:0:
365,293,33454,6,0,B|368:257|356:221|356:221|398:250,1,107.879995720093,0|8,3:2|0:0,0:0:0:0:
512,383,33819,1,2,0:0:0:0:
384,240,34003,6,0,L|398:133,1,96.5700023576661,2|0,3:2|0:0,0:0:0:0:
384,59,34368,6,0,P|408:25|473:48,1,107.879995720093,10|2,0:0|0:0,0:0:0:0:
475,47,34642,1,2,0:0:0:0:
482,63,34734,1,2,3:2:0:0:
404,192,34917,6,0,L|448:199,1,39.1499988052369,0|2,3:2|0:0,0:0:0:0:
220,96,35283,6,0,B|203:65|203:65|204:44|224:2,1,90.4799994477539,8|2,0:0|0:0,0:0:0:0:
423,182,35649,2,0,B|363:171|363:171|319:176|288:231|341:266,1,180.959998895508,8|0,0:0|3:2,0:0:0:0:
400,285,36106,1,0,3:2:0:0:
400,285,36197,1,10,2:2:0:0:
288,384,36380,1,0,3:2:0:0:
106,281,36564,6,0,P|139:319|200:303,1,107.879995720093,10|8,0:0|0:0,0:0:0:0:
169,239,36837,1,8,0:0:0:0:
169,239,36929,2,0,P|157:197|143:57,1,163.559997504273,14|2,0:0|0:0,0:0:0:0:
49,105,37478,6,0,P|28:82|22:41,1,65.2500024890901,2|0,3:2|0:0,0:0:0:0:
254,119,37844,2,0,P|285:111|311:92,1,65.2500024890901,2|0,3:2|0:0,0:0:0:0:
174,212,38209,1,0,3:2:0:0:
174,212,38301,1,0,3:2:0:0:
174,212,38393,6,0,B|245:237|236:196|319:221,1,139.2,6|2,3:2|0:0,0:0:0:0:
476,294,38941,1,2,3:2:0:0:
343,294,39125,6,0,B|340:319|360:353|360:353|292:327,1,121.799996282959,10|2,3:2|0:2,0:0:0:0:
226,365,39399,6,0,B|193:357|193:357|68:384,1,121.799996282959,8|0,0:2|0:0,0:0:0:0:
0,299,39673,6,0,B|7:303|7:303|62:312,1,60.8999981414796,10|0,0:2|0:0,0:0:0:0:
216,224,39856,5,6,0:2:0:0:
216,224,40222,1,2,3:2:0:0:
311,185,40404,1,2,3:2:0:0:
132,85,40587,5,0,3:2:0:0:
264,125,40770,1,2,3:2:0:0:
215,24,40953,5,0,3:2:0:0:
380,119,41136,1,2,3:2:0:0:
257,219,41320,6,0,P|287:200|343:187,2,69.5999978759766,6|0|8,3:2|3:2|3:2,0:0:0:0:
118,257,41685,5,8,3:2:0:0:
118,257,41807,2,0,P|141:284|172:301,1,69.5999978759766,8|8,3:2|3:2,0:0:0:0:
289,363,42051,5,0,3:2:0:0:
328,300,42173,1,8,3:2:0:0:
300,245,42295,1,8,3:2:0:0:
243,216,42417,1,0,3:2:0:0:
206,169,42539,1,0,3:2:0:0:
206,114,42661,1,0,3:2:0:0:
249,99,42783,6,0,B|299:94|277:118|374:113,1,121.799996282959,6|2,0:2|0:2,0:0:0:0:
505,24,43331,1,2,3:2:0:0:
432,12,43515,2,0,B|355:-3|355:-3|395:42,1,121.799996282959,10|2,0:2|0:2,0:0:0:0:
485,171,44063,1,2,3:2:0:0:
485,171,44246,6,0,P|456:146|449:115,1,60.8999981414796,2|0,3:2|0:0,0:0:0:0:
395,191,44520,2,0,P|368:162|369:111,1,91.3499972122193,2|2,3:2|3:2,0:0:0:0:
185,38,44978,6,0,B|156:31|156:31|94:39|94:39|62:35,1,121.799996282959,8|0,0:0|0:0,0:0:0:0:
3,79,45526,1,2,3:2:0:0:
146,223,45710,6,0,P|170:205|183:170,1,60.8999981414796,2|2,0:0|0:0,0:0:0:0:
58,141,46076,2,0,P|65:187|138:208,1,121.799996282959,2|8,0:0|0:0,0:0:0:0:
247,126,46624,1,0,0:0:0:0:
395,191,46808,2,0,B|397:162|397:162|394:130,1,60.8999981414796,10|0,0:0|3:2,0:0:0:0:
362,64,47173,1,2,0:0:0:0:
255,210,47356,6,0,B|251:239|251:239|259:301|259:301|252:330,1,121.799996282959,8|0,0:0|0:0,0:0:0:0:
358,360,47905,2,0,B|370:365|370:365|440:346,1,60.8999981414796,10|0,0:0|0:0,0:0:0:0:
449,282,48271,2,0,B|461:277|461:277|531:296,1,60.8999981414796,2|0,3:2|3:2,0:0:0:0:
255,210,48637,6,0,B|194:194|194:194|153:210|153:232,1,121.799996282959,6|2,0:0|0:0,0:0:0:0:
25,338,49185,1,2,3:2:0:0:
25,338,49276,1,2,0:0:0:0:
25,338,49368,2,0,P|52:322|70:282,1,60.8999981414796,8|2,0:0|0:0,0:0:0:0:
78,226,49734,1,0,0:0:0:0:
26,175,49917,1,2,3:2:0:0:
134,46,50100,6,0,P|169:77|171:114,1,60.8999981414796,2|0,3:2|0:0,0:0:0:0:
240,48,50375,2,0,P|263:84|253:144,1,91.3499972122193,0|0,3:2|3:2,0:0:0:0:
78,226,50832,6,0,B|107:229|107:229|144:218|144:218|177:224,1,91.3499972122193,10|0,0:0|0:0,0:0:0:0:
239,200,51198,2,0,L|348:216,1,78.2999976104737,2|0,3:2|0:0,0:0:0:0:
439,296,51563,5,0,0:0:0:0:
499,359,51747,2,0,B|500:314|457:304|457:304|483:324|481:362,1,139.2,2|2,3:2|3:2,0:0:0:0:
301,338,52295,2,0,B|355:327|355:327|374:307,1,69.6,10|2,0:0|0:0,0:0:0:0:
460,165,52661,2,0,B|470:174|470:174|481:228,1,69.6,2|2,0:0|0:0,0:0:0:0:
180,145,53026,5,2,0:0:0:0:
180,145,53387,5,0,3:2:0:0:
162,137,53477,1,0,3:2:0:0:
144,121,53568,1,0,3:2:0:0:
137,104,53658,1,0,3:2:0:0:
135,84,53748,1,0,3:2:0:0:
141,58,53839,1,0,3:2:0:0:
165,32,53929,1,0,3:2:0:0:
210,25,54019,1,0,3:2:0:0:
249,48,54110,6,0,P|271:88|269:118,1,43.5,0|0,3:2|3:2,0:0:0:0:
342,65,54291,2,0,P|352:109|343:137,1,43.5,0|0,3:2|3:2,0:0:0:0:
225,278,54471,5,10,3:2:0:0:
192,296,54562,1,8,3:2:0:0:
148,287,54652,1,8,3:2:0:0:
121,252,54742,1,8,3:2:0:0:
96,209,54833,1,8,3:2:0:0:
55,198,54923,1,8,3:2:0:0:
10,215,55013,2,0,P|-7:251|3:284,1,43.5,8|8,3:2|3:2,0:0:0:0:
292,318,55194,6,0,B|347:322|372:267|372:267|377:265|377:265|360:303|377:337,1,174,14|2,3:2|0:0,0:0:0:0:
154,69,55942,6,0,P|129:26|85:52,1,104.399996813965,6|2,0:0|3:2,0:0:0:0:
3,199,56307,1,10,0:0:0:0:
230,109,56490,6,0,P|188:101|57:145,1,156.599995220947,2|0,3:2|0:0,0:0:0:0:
102,138,56856,2,0,P|65:133|2:102,1,104.399996813965,2|10,3:2|0:0,0:0:0:0:
190,229,57222,2,0,P|165:304|101:282,1,156.599995220947,2|0,3:2|0:0,0:0:0:0:
128,275,57588,1,2,3:2:0:0:
268,368,57771,1,10,0:0:0:0:
367,292,57954,2,0,B|428:308|441:255|478:252|478:252|468:310|504:339,1,208.79999362793,2|2,3:2|3:2,0:0:0:0:
420,384,58502,2,0,L|425:361,1,23.9250007301331,10|0,0:0|0:0,0:0:0:0:
382,216,58685,6,0,L|274:227,1,97.8750037336351,2|0,3:2|0:0,0:0:0:0:
285,226,59051,1,2,3:2:0:0:
395,143,59234,1,10,0:0:0:0:
215,49,59417,2,0,B|262:35|262:35|321:67,1,104.399996813965,2|0,3:2|0:0,0:0:0:0:
202,301,59783,1,2,3:2:0:0:
202,301,59874,1,2,0:0:0:0:
202,301,59966,1,10,0:0:0:0:
109,329,60149,6,0,P|102:277|113:134,1,156.599995220947,2|0,3:2|0:0,0:0:0:0:
137,152,60515,1,2,3:2:0:0:
277,316,60698,1,10,0:0:0:0:
355,231,60881,2,0,P|363:281|349:349,1,104.399996813965,2|0,3:2|0:0,0:0:0:0:
282,235,61246,1,0,3:2:0:0:
476,336,61429,1,8,0:0:0:0:
205,275,61612,5,8,0:0:0:0:
205,275,61704,1,8,0:0:0:0:
205,275,61795,2,0,P|168:310|110:297,1,104.399996813965,6|2,0:0|3:2,0:0:0:0:
0,192,62161,1,10,0:0:0:0:
205,372,62344,6,0,P|176:343|147:231,1,156.599995220947,2|0,3:2|0:0,0:0:0:0:
118,215,62710,2,0,L|226:194,1,104.399996813965,2|10,3:2|0:0,0:0:0:0:
468,128,63076,2,0,B|426:125|402:105|402:105|398:97|398:97|368:76|320:82,1,156.599995220947,2|0,3:2|0:0,0:0:0:0:
324,81,63441,1,2,3:2:0:0:
411,268,63624,1,10,0:0:0:0:
308,342,63807,2,0,B|251:347|220:292|220:292|190:312|151:313|151:313|194:362,1,208.79999362793,2|0,3:2|3:2,0:0:0:0:
77,179,64356,5,10,0:0:0:0:
176,338,64539,2,0,B|189:253|237:292|248:197,1,156.599995220947,6|0,3:2|0:0,0:0:0:0:
247,203,64905,1,2,3:2:0:0:
339,106,65088,1,10,0:0:0:0:
193,159,65271,1,2,3:2:0:0:
376,201,65454,1,10,0:0:0:0:
301,285,65637,1,2,3:2:0:0:
474,365,65820,1,10,0:0:0:0:
301,285,66002,6,0,P|242:275|117:289,1,156.599995220947,6|0,3:2|0:0,0:0:0:0:
70,305,66368,2,0,P|43:276|63:213,1,104.399996813965,2|10,3:2|0:0,0:0:0:0:
194,384,66734,2,0,B|175:325|249:303|227:230,1,156.599995220947,6|0,3:2|0:0,0:0:0:0:
192,209,67100,1,0,3:2:0:0:
366,136,67283,5,8,0:0:0:0:
397,143,67374,1,8,0:0:0:0:
453,143,67466,1,8,0:0:0:0:
492,153,67557,1,8,0:0:0:0:
492,153,67649,6,0,P|485:207|436:210,1,104.399996813965,6|2,0:0|3:2,0:0:0:0:
276,138,68015,1,10,0:0:0:0:
422,298,68198,6,0,P|335:253|259:272,1,156.599995220947,2|0,3:2|0:0,0:0:0:0:
280,261,68563,1,2,3:2:0:0:
387,361,68746,1,10,0:0:0:0:
173,321,68929,2,0,L|27:344,1,104.399996813965,2|0,3:2|0:0,0:0:0:0:
168,56,69295,5,2,3:2:0:0:
282,150,69478,1,10,0:0:0:0:
374,23,69661,2,0,B|397:70|355:124|355:124|406:95|459:125,1,208.79999362793,2|2,3:2|3:2,0:0:0:0:
408,186,70118,1,2,0:0:0:0:
408,186,70210,1,10,0:0:0:0:
264,223,70393,6,0,B|174:201|172:255|99:231,1,156.599995220947,2|0,3:2|0:0,0:0:0:0:
75,220,70759,1,2,3:2:0:0:
184,331,70941,2,0,L|189:293,1,23.9250007301331,10|0,0:0|0:0,0:0:0:0:
375,278,71124,6,0,L|496:266,1,97.8750037336351,2|0,3:2|0:0,0:0:0:0:
472,268,71490,1,2,3:2:0:0:
316,348,71673,1,10,0:0:0:0:
250,137,71856,6,0,B|246:88|246:88|298:128,1,104.399996813965,2|0,3:2|0:0,0:0:0:0:
420,204,72222,1,2,3:2:0:0:
420,204,72313,1,2,0:0:0:0:
420,204,72405,1,10,0:0:0:0:
290,122,72588,6,0,L|119:135,1,156.599995220947,2|0,3:2|0:0,0:0:0:0:
133,133,72954,1,0,3:2:0:0:
231,256,73137,2,0,P|200:251|159:220,1,52.1999984069825,8|0,0:0|0:0,0:0:0:0:
59,188,73320,2,0,P|30:193|-14:220,1,52.1999984069825,8|8,0:0|0:0,0:0:0:0:
56,278,73502,5,6,0:0:0:0:
200,160,73685,1,2,3:2:0:0:
236,341,73868,1,10,0:0:0:0:
161,249,74051,2,0,P|154:202|166:74,1,156.599995220947,2|0,3:2|0:0,0:0:0:0:
186,57,74417,1,2,3:2:0:0:
0,120,74600,1,10,0:0:0:0:
17,14,74783,6,0,P|58:9|99:80,1,104.399996813965,2|0,3:2|0:0,0:0:0:0:
189,193,75149,1,2,3:2:0:0:
286,50,75332,1,10,0:0:0:0:
139,127,75515,1,2,3:2:0:0:
291,245,75698,1,0,3:2:0:0:
239,128,75881,1,0,3:2:0:0:
101,240,76063,5,10,0:0:0:0:
395,139,76246,1,6,3:2:0:0:
395,139,76612,1,2,3:2:0:0:
258,302,76795,6,0,B|279:256|279:256|353:284,1,104.399996813965,10|2,0:0|3:2,0:0:0:0:
440,207,77161,2,0,P|460:198|499:177,2,52.1999984069825,10|0|2,0:0|0:0|3:2,0:0:0:0:
314,101,77527,1,10,0:0:0:0:
405,292,77710,2,0,B|374:208|422:232|402:123,1,156.599995220947,6|0,3:2|0:0,0:0:0:0:
390,74,78076,1,2,3:2:0:0:
188,200,78259,2,0,L|168:314,1,104.399996813965,10|2,0:0|3:2,0:0:0:0:
260,376,78624,1,6,3:2:0:0:
196,224,78807,5,8,0:0:0:0:
216,188,78899,1,8,0:0:0:0:
204,148,78990,1,8,0:0:0:0:
164,116,79082,1,8,0:0:0:0:
136,76,79173,1,8,0:0:0:0:
160,36,79265,1,8,0:0:0:0:
160,36,79356,6,0,B|204:20|204:20|256:64,1,95.7000029205323,6|2,3:2|3:2,0:0:0:0:
293,255,79722,1,10,2:2:0:0:
148,192,79905,2,0,P|84:180|-28:184,1,143.550004380798,2|0,3:2|0:0,0:0:0:0:
5,179,80271,5,2,3:2:0:0:
189,103,80454,1,10,0:0:0:0:
16,272,80637,1,2,3:2:0:0:
273,65,81002,5,2,3:2:0:0:
423,218,81185,1,10,0:0:0:0:
313,128,81368,2,0,P|305:81|359:69,1,95.7000029205323,2|0,3:2|0:0,0:0:0:0:
491,19,81734,1,2,3:2:0:0:
491,19,81826,1,2,0:0:0:0:
491,19,81917,1,10,0:0:0:0:
220,68,82100,6,0,P|184:74|46:48,1,143.550004380798,6|0,3:2|0:0,0:0:0:0:
78,61,82466,1,2,3:2:0:0:
124,192,82649,1,10,0:0:0:0:
8,247,82832,1,2,0:0:0:0:
131,194,83015,1,0,3:2:0:0:
182,347,83198,1,0,3:2:0:0:
377,227,83381,1,10,0:0:0:0:
81,264,83563,5,6,3:2:0:0:
454,370,83929,1,6,3:2:0:0:
219,277,84661,5,0,3:2:0:0:
238,365,84844,2,0,B|213:323|238:285|238:285|251:276|251:276|286:226|265:172,1,195.75000746727,8|0,2:2|0:0,0:0:0:0:
251,113,85220,1,6,0:0:0:0:
280,91,85970,6,0,L|353:103,1,43.5,8|0,0:0|0:0,0:0:0:0:
322,98,86157,2,0,P|315:134|304:266,1,130.5,2|0,0:0|0:0,0:0:0:0:
272,288,86532,5,8,0:0:0:0:
265,295,86626,1,8,0:0:0:0:
259,304,86720,2,0,P|216:275|198:243,1,87,10|0,3:2|0:0,0:0:0:0:
138,211,87001,2,0,P|109:222|60:281,1,87,2|0,3:2|0:0,0:0:0:0:
91,317,87282,5,2,3:2:0:0:
104,327,87376,1,2,0:0:0:0:
119,337,87470,2,0,P|142:330|162:319,1,43.5,8|10,0:0|0:0,0:0:0:0:
292,217,87657,1,6,3:2:0:0:
