osu file format v14

[General]
AudioFilename: audio.mp3
AudioLeadIn: 0
PreviewTime: 55310
Countdown: 0
SampleSet: Soft
StackLeniency: 0.4
Mode: 0
LetterboxInBreaks: 0
WidescreenStoryboard: 1

[Editor]
Bookmarks: 31078,42786,53029
DistanceSpacing: 0.9
BeatDivisor: 4
GridSize: 16
TimelineZoom: 2.3

[Metadata]
Title:Ashiato (TV Size)
TitleUnicode:足跡 (TV Size)
Artist:the peggies
ArtistUnicode:the peggies
Creator:My Angel Nino
Version:imaginative's Normal
Source:僕のヒーローアカデミア
Tags:hakashii imaginative 1 miss 1_miss boku no my hero academia 5th season 5 ed ending theme song j-pop jpop anime 2021 short jrock japanese alternative pop pop-rock j-rock altrock alt-rock rock poprock footprints
BeatmapID:2973688
BeatmapSetID:1422944

[Difficulty]
HPDrainRate:4
CircleSize:3.5
OverallDifficulty:4
ApproachRate:5
SliderMultiplier:1.15
SliderTickRate:1

[Events]
//Background and Video events
0,0,"man.jpg",0,0
Video,0,"osump4.mp4"
//Break Periods
//Storyboard Layer 0 (Background)
//Storyboard Layer 1 (Fail)
//Storyboard Layer 2 (Pass)
//Storyboard Layer 3 (Foreground)
//Storyboard Layer 4 (Overlay)
//Storyboard Sound Samples

[TimingPoints]
347,365.853658536585,4,2,1,30,1,0
347,-111.111111111111,4,2,1,30,0,0
6200,-105.263157894737,4,2,1,45,0,0
12054,-100,4,2,1,72,0,1
17907,-111.111111111111,4,2,1,45,0,0
18456,-111.111111111111,4,2,1,52,0,0
18639,-111.111111111111,4,2,1,60,0,0
19371,-111.111111111111,4,2,1,45,0,0
31078,-105.263157894737,4,2,1,54,0,0
39127,-105.263157894737,4,2,1,72,0,0
39859,-105.263157894737,4,2,1,54,0,0
40773,-105.263157894737,4,2,1,72,0,0
42786,-111.111111111111,4,2,1,45,0,0
53029,-105.263157894737,4,2,1,45,0,0
53761,-105.263157894737,4,2,1,62,0,0
54493,-105.263157894737,4,2,1,72,0,0
55956,-100,4,2,1,84,0,1
83578,-100,4,2,1,84,0,0
85225,375,4,2,1,100,1,0
85225,-111.111111111111,4,2,1,72,0,0

[Colours]
Combo1 : 128,0,255
Combo2 : 128,128,192
Combo3 : 255,128,192

[HitObjects]
48,90,347,6,0,P|89:71|150:95,1,103.499996841431,2|2,0:0|0:0,0:0:0:0:
178,116,895,2,0,P|219:135|280:111,1,103.499996841431,2|2,0:0|0:0,0:0:0:0:
354,73,1627,2,0,B|387:101|387:101|368:219,1,155.249995262146,2|2,0:0|0:0,0:0:0:0:
363,258,2359,1,2,0:0:0:0:
326,343,2725,1,2,0:0:0:0:
243,301,3090,6,0,L|76:295,1,155.249995262146,2|2,0:0|0:0,0:0:0:0:
41,295,3822,2,0,P|24:257|51:200,1,103.499996841431,2|2,0:0|0:0,0:0:0:0:
88,119,4554,2,0,B|127:98|171:111|153:141|203:152|242:133,1,155.249995262146,2|2,0:0|0:0,0:0:0:0:
278,121,5286,1,2,0:0:0:0:
370,109,5651,1,2,0:0:0:0:
444,236,6200,5,6,1:2:0:0:
407,327,6566,1,2,1:2:0:0:
314,294,6932,2,0,B|262:275|262:275|204:296,1,109.24999708271,0|2,1:2|1:2,0:0:0:0:
119,330,7664,1,0,1:2:0:0:
59,252,8029,1,2,1:2:0:0:
11,166,8395,2,0,B|-8:114|-8:114|13:56,1,109.24999708271,0|2,1:2|1:2,0:0:0:0:
102,29,9127,6,0,P|134:11|203:30,1,109.24999708271,6|8,1:2|0:0,0:0:0:0:
244,62,9676,1,8,0:0:0:0:
244,62,9859,2,0,L|234:123,2,54.6249985413552,8|8|10,0:0|0:0|0:0,0:0:0:0:
278,26,10407,1,10,0:0:0:0:
483,237,11505,1,2,1:2:0:0:
483,237,11688,1,8,0:0:0:0:
393,185,12054,6,0,L|326:191,2,57.5,6|2|10,1:2|0:0|0:0,0:0:0:0:
441,164,12603,1,2,1:2:0:0:
474,66,12968,2,0,L|403:67,1,57.5,2|10,1:2|0:0,0:0:0:0:
374,35,13334,2,0,P|327:18|272:52,1,115,2|2,1:2|1:2,0:0:0:0:
251,95,13883,1,10,0:0:0:0:
251,95,14066,1,2,1:2:0:0:
149,74,14432,2,0,L|155:133,1,57.5,2|10,1:2|0:0,0:0:0:0:
182,175,14798,6,0,B|211:226|211:226|181:293,1,115,2|2,1:2|1:2,0:0:0:0:
151,314,15346,1,10,0:0:0:0:
151,314,15529,1,2,1:2:0:0:
54,279,15895,2,0,L|48:221,1,57.5,2|10,1:2|0:0,0:0:0:0:
79,180,16261,6,0,B|130:151|130:151|197:181,1,115,6|0,1:2|1:2,0:0:0:0:
222,205,16810,1,8,0:0:0:0:
222,205,16993,2,0,B|273:234|273:234|340:204,1,115,4|0,1:2|1:2,0:0:0:0:
372,190,17542,1,8,0:0:0:0:
429,116,17907,6,0,L|422:32,2,77.6249976310731,2|2|2,0:2|0:0|0:0,0:0:0:0:
465,153,18639,1,10,0:0:0:0:
465,153,18822,1,2,1:2:0:0:
440,290,19371,6,0,P|394:308|344:287,1,103.499996841431,6|2,1:2|1:2,0:0:0:0:
264,243,20103,2,0,P|218:225|168:246,1,103.499996841431,2|0,1:2|1:2,0:0:0:0:
132,271,20651,1,0,0:0:0:0:
132,271,20834,2,0,L|119:159,1,103.499996841431,2|0,1:2|1:2,0:0:0:0:
107,75,21566,2,0,L|101:18,2,51.7499984207154,2|2|2,1:2|0:0|1:2,0:0:0:0:
193,109,22298,6,0,P|239:127|293:103,1,103.499996841431,2|2,1:2|1:2,0:0:0:0:
328,86,22846,2,0,P|374:68|428:92,1,103.499996841431,2|2,0:0|0:0,0:0:0:0:
459,115,23395,1,2,1:2:0:0:
407,192,23761,2,0,B|381:239|381:239|408:299,1,103.499996841431,2|0,1:2|1:2,0:0:0:0:
461,355,24493,1,2,1:2:0:0:
369,372,24859,1,2,1:2:0:0:
291,321,25225,6,0,L|181:317,1,103.499996841431,2|2,1:2|1:2,0:0:0:0:
144,334,25773,2,0,L|34:330,1,103.499996841431,2|2,0:0|0:0,0:0:0:0:
15,290,26322,1,0,1:2:0:0:
73,217,26688,2,0,P|97:168|74:118,1,103.499996841431,2|2,1:2|1:2,0:0:0:0:
71,83,27237,1,2,0:0:0:0:
71,83,27420,2,0,P|121:95|167:69,1,103.499996841431,2|2,1:2|1:2,0:0:0:0:
237,10,28151,5,2,1:2:0:0:
315,59,28517,1,2,1:2:0:0:
405,35,28883,2,0,L|412:90,1,51.7499984207154,0|2,0:0|0:0,0:0:0:0:
444,120,29249,2,0,L|437:175,1,51.7499984207154,2|2,1:2|0:0,0:0:0:0:
431,217,29615,5,0,1:2:0:0:
346,178,29980,1,0,1:2:0:0:
269,231,30346,2,0,L|205:227,1,51.7499984207154,0|8,1:2|0:0,0:0:0:0:
179,200,30712,2,0,L|115:204,1,51.7499984207154,8|0,0:0|1:2,0:0:0:0:
78,208,31078,5,6,0:0:0:0:
24,290,31444,1,10,0:0:0:0:
83,368,31810,2,0,L|149:361,1,54.6249985413552,2|0,1:2|1:2,0:0:0:0:
178,334,32176,2,0,L|244:327,1,54.6249985413552,0|10,0:0|0:0,0:0:0:0:
274,354,32542,2,0,P|334:372|384:337,1,109.24999708271,2|0,1:2|0:0,0:0:0:0:
438,278,33273,2,0,P|416:233|437:172,1,109.24999708271,2|8,1:2|0:0,0:0:0:0:
460,139,33822,1,2,0:0:0:0:
460,139,34005,6,0,L|394:149,2,54.6249985413552,2|2|10,1:2|0:0|0:0,0:0:0:0:
423,47,34737,2,0,L|314:36,1,109.24999708271,2|2,1:2|0:0,0:0:0:0:
267,50,35285,1,8,0:0:0:0:
267,50,35468,2,0,L|212:44,1,54.6249985413552,2|8,1:2|0:0,0:0:0:0:
174,76,35834,1,0,0:0:0:0:
91,129,36200,1,2,1:2:0:0:
13,189,36566,2,0,L|17:257,1,54.6249985413552,10|8,0:0|0:0,0:0:0:0:
16,292,36932,6,0,P|63:272|125:297,1,109.24999708271,6|0,1:2|0:0,0:0:0:0:
160,311,37481,2,0,P|207:331|269:306,1,109.24999708271,10|10,0:0|0:0,0:0:0:0:
305,294,38029,1,0,0:0:0:0:
351,207,38395,2,0,L|361:97,1,109.24999708271,6|2,1:2|1:2,0:0:0:0:
329,66,38944,1,2,1:2:0:0:
329,66,39127,2,0,L|334:11,2,54.6249985413552,14|10|12,0:0|0:0|0:0,0:0:0:0:
284,154,39859,6,0,P|238:176|182:147,1,109.24999708271,6|2,1:2|1:2,0:0:0:0:
151,120,40407,1,2,1:2:0:0:
67,67,40773,1,10,0:0:0:0:
15,152,41139,1,10,0:0:0:0:
15,152,41322,2,0,P|-9:188|14:248,1,109.24999708271,4|8,0:0|0:0,0:0:0:0:
111,246,42054,2,0,P|135:210|112:150,1,109.24999708271,0|0,1:2|1:2,0:0:0:0:
61,74,42786,6,0,L|183:67,1,103.499996841431,6|2,0:0|0:0,0:0:0:0:
205,99,43334,2,0,P|246:83|303:108,1,103.499996841431,2|0,1:2|0:0,0:0:0:0:
342,192,44066,1,2,1:2:0:0:
342,192,44249,2,0,B|331:228|331:228|347:270,2,77.6249976310731,2|2|2,1:2|1:2|1:2,0:0:0:0:
361,150,44981,2,0,L|472:143,1,103.499996841431,10|0,0:0|0:0,0:0:0:0:
500,172,45530,5,2,0:0:0:0:
512,268,45895,1,2,0:0:0:0:
512,268,46078,2,0,P|470:292|415:265,1,103.499996841431,2|10,0:0|0:0,0:0:0:0:
336,234,46810,1,10,0:0:0:0:
285,312,47176,2,0,P|242:294|188:319,1,103.499996841431,2|2,1:2|0:0,0:0:0:0:
121,376,47907,2,0,P|139:333|114:279,1,103.499996841431,10|2,0:0|0:0,0:0:0:0:
58,211,48639,6,0,B|32:166|32:166|63:122,1,103.499996841431,6|2,1:2|0:0,0:0:0:0:
93,89,49187,1,2,1:2:0:0:
181,119,49553,1,2,0:0:0:0:
258,65,49920,1,2,1:2:0:0:
258,65,50103,2,0,P|304:47|356:74,1,103.499996841431,0|2,1:2|0:0,0:0:0:0:
433,109,50834,1,10,0:0:0:0:
350,152,51200,6,0,B|298:235|298:235|359:325,1,206.999993682861,2|8,1:2|0:0,0:0:0:0:
359,375,52115,1,2,0:0:0:0:
359,375,52298,2,0,L|288:381,1,51.7499984207154,10|2,0:0|0:0,0:0:0:0:
260,384,52664,1,2,1:2:0:0:
218,295,53029,5,2,1:2:0:0:
138,352,53396,1,0,1:2:0:0:
81,272,53762,1,0,1:2:0:0:
161,215,54127,1,0,1:2:0:0:
241,158,54493,6,0,L|304:152,1,54.6249985413552,10|8,0:0|0:0,0:0:0:0:
338,128,54859,2,0,L|401:134,1,54.6249985413552,8|8,0:0|0:0,0:0:0:0:
441,141,55225,1,12,0:0:0:0:
502,338,55956,6,0,B|467:338|451:360|451:360|438:337|400:335,1,115,6|10,1:2|0:0,0:0:0:0:
350,330,56505,1,2,1:2:0:0:
248,311,56871,2,0,L|181:319,1,57.5,2|10,1:2|0:0,0:0:0:0:
139,326,57237,2,0,P|116:280|142:224,1,115,2|2,1:2|1:2,0:0:0:0:
178,189,57786,1,10,0:0:0:0:
178,189,57968,1,2,1:2:0:0:
103,117,58334,2,0,L|97:59,1,57.5,2|10,1:2|0:0,0:0:0:0:
136,25,58700,6,0,P|183:5|248:35,1,115,6|2,1:2|1:2,0:0:0:0:
278,69,59249,1,10,0:0:0:0:
278,69,59431,1,6,1:2:0:0:
381,58,59798,2,0,L|378:125,1,57.5,2|10,1:2|0:0,0:0:0:0:
389,166,60164,2,0,B|354:166|338:144|338:144|325:167|287:169,1,115,6|2,1:2|1:2,0:0:0:0:
243,186,60712,1,10,0:0:0:0:
243,186,60895,2,0,B|207:187|194:210|194:210|178:188|143:188,1,115,6|2,1:2|1:2,0:0:0:0:
94,206,61444,1,10,0:0:0:0:
116,307,61810,6,0,L|180:312,1,57.5,6|2,1:2|0:0,0:0:0:0:
224,321,62176,1,10,0:0:0:0:
224,321,62359,1,2,1:2:0:0:
321,286,62725,2,0,L|313:229,1,57.5,2|10,1:2|0:0,0:0:0:0:
306,177,63090,2,0,P|362:153|412:171,1,115,2|2,1:2|1:2,0:0:0:0:
454,207,63639,1,10,0:0:0:0:
454,207,63822,1,2,1:2:0:0:
504,116,64188,2,0,L|500:53,1,57.5,0|10,1:0|0:0,0:0:0:0:
457,28,64554,6,0,B|422:29|405:7|405:7|393:31|355:34,1,115,6|2,1:2|1:2,0:0:0:0:
308,51,65103,1,8,0:0:0:0:
212,12,65468,2,0,L|218:80,1,57.5,8|0,0:0|1:2,0:0:0:0:
222,120,65834,1,10,0:0:0:0:
222,120,66017,2,0,P|175:101|117:129,1,115,6|2,1:2|1:2,0:0:0:0:
95,172,66566,1,10,0:0:0:0:
95,172,66749,2,0,P|116:210|87:277,1,115,6|2,1:2|1:2,0:0:0:0:
57,311,67298,1,10,0:0:0:0:
152,351,67664,6,0,B|187:370|187:370|261:352,1,115,6|10,1:2|0:0,0:0:0:0:
307,332,68212,1,2,1:2:0:0:
365,246,68578,2,0,L|359:179,1,57.5,2|10,1:2|0:0,0:0:0:0:
351,137,68944,2,0,L|231:121,1,115,2|2,1:2|1:2,0:0:0:0:
191,141,69493,1,10,0:0:0:0:
191,141,69676,1,2,1:2:0:0:
94,102,70042,2,0,L|85:173,1,57.5,2|10,1:2|0:0,0:0:0:0:
52,197,70407,6,0,L|60:322,1,115,6|2,1:2|1:2,0:0:0:0:
27,353,70956,1,8,0:0:0:0:
27,353,71139,1,6,1:2:0:0:
130,346,71505,2,0,L|192:342,1,57.5,2|10,1:2|0:0,0:0:0:0:
214,299,71871,2,0,B|249:280|249:280|323:298,1,115,6|0,1:2|1:2,0:0:0:0:
375,317,72420,1,10,0:0:0:0:
375,317,72603,2,0,B|394:282|394:282|376:208,1,115,6|2,1:2|1:2,0:0:0:0:
364,158,73151,1,10,0:0:0:0:
346,55,73517,6,0,L|278:62,1,57.5,6|2,1:2|0:0,0:0:0:0:
236,65,73883,1,10,0:0:0:0:
236,65,74066,1,2,1:2:0:0:
279,158,74432,2,0,L|213:164,1,57.5,2|10,1:2|0:0,0:0:0:0:
170,171,74798,2,0,L|181:299,1,115,2|2,1:2|1:2,0:0:0:0:
204,331,75346,1,10,0:0:0:0:
204,331,75529,1,2,1:2:0:0:
108,370,75895,2,0,L|37:376,1,57.5,0|10,1:2|0:0,0:0:0:0:
19,333,76261,6,0,B|0:298|0:298|18:224,1,115,6|2,1:2|1:2,0:0:0:0:
32,175,76809,1,8,0:0:0:0:
3,75,77176,2,0,L|76:66,1,57.5,8|0,0:0|1:2,0:0:0:0:
106,92,77542,1,10,0:0:0:0:
106,92,77725,2,0,B|141:73|141:73|215:91,1,115,6|2,1:2|1:2,0:0:0:0:
262,109,78273,1,14,0:0:0:0:
350,55,78639,2,0,L|357:125,1,57.5,8|8,0:0|0:0,0:0:0:0:
387,153,79005,2,0,L|380:223,1,57.5,8|10,0:0|0:0,0:0:0:0:
396,259,79371,6,0,B|339:281|339:281|282:254,1,115,6|10,1:2|0:0,0:0:0:0:
244,233,79920,1,2,1:2:0:0:
156,288,80286,2,0,L|146:216,1,57.5,2|10,1:2|0:0,0:0:0:0:
103,204,80651,2,0,P|84:153|113:97,1,115,2|2,1:2|1:2,0:0:0:0:
151,70,81200,1,10,0:0:0:0:
151,70,81383,1,2,1:2:0:0:
243,117,81749,2,0,L|304:112,1,57.5,2|10,1:2|0:0,0:0:0:0:
348,92,82115,6,0,B|401:68|401:68|462:97,1,115,6|2,1:2|1:2,0:0:0:0:
497,117,82664,1,12,0:0:0:0:
418,184,83029,2,0,L|422:254,1,57.5,0|0,1:2|1:2,0:0:0:0:
442,288,83395,1,10,0:0:0:0:
442,288,83578,5,2,1:2:0:0:
353,341,83944,1,2,1:2:0:0:
180,236,84676,1,2,1:2:0:0:
180,236,84858,1,8,0:0:0:0:
89,246,85225,6,0,L|77:142,1,103.499996841431,4|0,0:0|0:0,0:0:0:0:
66,50,85975,2,0,L|168:61,1,103.499996841431,8|0,0:0|0:0,0:0:0:0:
261,73,86725,2,0,L|271:163,2,77.6249976310731,2|2|2,1:2|1:2|1:2,0:0:0:0:
255,31,87475,1,10,0:0:0:0:
255,31,87662,1,2,1:2:0:0:
