osu file format v14

[General]
AudioFilename: audio.mp3
AudioLeadIn: 0
PreviewTime: 55310
Countdown: 0
SampleSet: Soft
StackLeniency: 0.4
Mode: 0
LetterboxInBreaks: 0
WidescreenStoryboard: 1

[Editor]
DistanceSpacing: 1.5
BeatDivisor: 4
GridSize: 16
TimelineZoom: 1.2

[Metadata]
Title:Ashiato (TV Size)
TitleUnicode:足跡 (TV Size)
Artist:the peggies
ArtistUnicode:the peggies
Creator:My Angel Nino
Version:hakashii's Hard
Source:僕のヒーローアカデミア
Tags:hakashii imaginative 1 miss 1_miss boku no my hero academia 5th season 5 ed ending theme song j-pop jpop anime 2021 short jrock japanese alternative pop pop-rock j-rock altrock alt-rock rock poprock footprints
BeatmapID:2939369
BeatmapSetID:1422944

[Difficulty]
HPDrainRate:4.5
CircleSize:3.5
OverallDifficulty:6.8
ApproachRate:8
SliderMultiplier:1.46
SliderTickRate:1

[Events]
//Background and Video events
0,0,"man.jpg",0,0
Video,0,"osump4.mp4"
//Break Periods
//Storyboard Layer 0 (Background)
//Storyboard Layer 1 (Fail)
//Storyboard Layer 2 (Pass)
//Storyboard Layer 3 (Foreground)
//Storyboard Layer 4 (Overlay)
//Storyboard Sound Samples

[TimingPoints]
347,365.853658536585,4,2,1,30,1,0
347,-142.857142857143,4,2,1,30,0,0
6200,-125,4,2,1,45,0,0
8670,-125,4,2,1,5,0,0
8761,-125,4,2,1,45,0,0
9036,-125,4,2,1,5,0,0
9127,-125,4,2,1,45,0,0
11962,-125,4,2,1,5,0,0
12054,-111.111111111111,4,2,1,72,0,0
15621,-111.111111111111,4,2,1,5,0,0
15895,-111.111111111111,4,2,1,72,0,0
15987,-111.111111111111,4,2,1,5,0,0
16078,-111.111111111111,4,2,1,72,0,0
17907,-111.111111111111,4,2,1,45,0,0
18456,-111.111111111111,4,2,1,52,0,0
18639,-111.111111111111,4,2,1,60,0,0
19371,-125,4,2,1,45,0,0
26596,-125,4,2,1,5,0,0
26688,-125,4,2,1,45,0,0
28060,-125,4,2,1,5,0,0
28151,-125,4,2,1,45,0,0
28792,-125,4,2,1,5,0,0
28883,-125,4,2,1,45,0,0
31078,-111.111111111111,4,2,1,54,0,0
31353,-111.111111111111,4,2,1,5,0,0
31444,-111.111111111111,4,2,1,54,0,0
37389,-111.111111111111,4,2,1,5,0,0
37481,-111.111111111111,4,2,1,54,0,0
37755,-111.111111111111,4,2,1,5,0,0
37846,-111.111111111111,4,2,1,54,0,0
38121,-111.111111111111,4,2,1,5,0,0
38212,-111.111111111111,4,2,1,54,0,0
38670,-111.111111111111,4,2,1,5,0,0
38761,-111.111111111111,4,2,1,54,0,0
39127,-111.111111111111,4,2,1,72,0,0
39859,-111.111111111111,4,2,1,54,0,0
40590,-111.111111111111,4,2,1,72,0,0
42786,-125,4,2,1,45,0,0
44432,-125,4,2,1,5,0,0
44523,-125,4,2,1,45,0,0
44706,-125,4,2,1,5,0,0
44798,-125,4,2,1,45,0,0
46718,-125,4,2,1,5,0,0
46810,-125,4,2,1,45,0,0
52938,-125,4,2,1,5,0,0
53029,-125,4,2,1,45,0,0
53304,-125,4,2,1,5,0,0
53395,-125,4,2,1,45,0,0
53761,-125,4,2,1,62,0,0
54493,-125,4,2,1,72,0,0
55956,-99.9999999999999,4,2,1,84,0,0
56779,-99.9999999999999,4,2,1,5,0,0
56871,-99.9999999999999,4,2,1,84,0,0
62633,-99.9999999999999,4,2,1,5,0,0
62725,-99.9999999999999,4,2,1,84,0,0
68487,-99.9999999999999,4,2,1,5,0,0
68578,-99.9999999999999,4,2,1,84,0,0
74340,-99.9999999999999,4,2,1,5,0,0
74432,-99.9999999999999,4,2,1,84,0,0
79371,-111.111111111111,4,2,1,84,0,0
83670,-111.111111111111,4,2,1,5,0,0
83944,-111.111111111111,4,2,1,84,0,0
84036,-111.111111111111,4,2,1,5,0,0
84310,-111.111111111111,4,2,1,84,0,0
84676,-111.111111111111,4,2,1,84,0,0
85131,-111.111111111111,4,2,1,5,0,0
85225,375,4,2,1,72,1,0
85225,-142.857142857143,4,2,1,72,0,0
85693,-142.857142857143,4,2,1,5,0,0
85787,-142.857142857143,4,2,1,72,0,0

[Colours]
Combo1 : 128,0,255
Combo2 : 128,128,192
Combo3 : 255,128,192

[HitObjects]
57,293,347,6,0,L|3:303,2,51.0999984405518,2|2|2,0:0|0:0|0:0,0:0:0:0:
119,240,895,1,2,0:0:0:0:
225,364,1261,2,0,L|282:373,1,51.0999984405518,2|2,0:0|0:0,0:0:0:0:
329,310,1627,2,0,B|394:313|346:342|418:350,1,102.199996881104,2|2,0:0|0:0,0:0:0:0:
503,365,2176,1,2,0:0:0:0:
503,365,2359,1,2,0:0:0:0:
442,213,2725,6,0,L|374:227,1,51.0999984405518,2|2,0:0|0:0,0:0:0:0:
318,187,3090,1,2,0:0:0:0:
223,255,3456,6,0,L|162:245,1,51.0999984405518,2|2,0:0|0:0,0:0:0:0:
93,206,3822,1,2,0:0:0:0:
159,88,4188,6,0,L|228:99,1,51.0999984405518,2|2,0:0|0:0,0:0:0:0:
277,141,4554,2,0,B|344:122|291:98|368:81,1,102.199996881104,2|2,0:0|0:0,0:0:0:0:
435,54,5103,1,2,0:0:0:0:
435,54,5286,1,2,0:0:0:0:
507,205,5651,2,0,B|433:196|483:171|394:162,1,102.199996881104,2|0,0:0|0:0,0:0:0:0:
334,153,6200,6,0,P|294:168|275:170,1,58.4,6|2,1:2|0:0,0:0:0:0:
215,221,6566,2,0,P|159:208|145:204,1,58.4,2|2,1:2|0:0,0:0:0:0:
89,162,6932,2,0,P|50:173|36:190,1,58.4,0|2,1:2|0:0,0:0:0:0:
20,268,7298,1,2,1:2:0:0:
20,268,7481,1,2,0:0:0:0:
75,328,7664,6,0,L|139:316,1,58.4,0|2,1:2|0:0,0:0:0:0:
201,273,8029,2,0,L|256:293,1,58.4,2|2,1:2|0:0,0:0:0:0:
321,342,8395,2,0,L|389:327,1,58.4,0|0,1:2|0:0,0:0:0:0:
454,300,8761,1,2,1:2:0:0:
454,300,9127,6,0,P|456:253|413:221,1,87.6,6|2,1:2|0:0,0:0:0:0:
410,189,9493,2,0,L|425:120,1,58.4,8|8,0:0|0:0,0:0:0:0:
340,141,9859,2,0,L|330:64,1,58.4,8|8,0:0|0:0,0:0:0:0:
320,6,10225,1,10,0:0:0:0:
320,6,10407,1,10,0:0:0:0:
40,88,11505,5,2,1:2:0:0:
40,88,11688,2,0,B|98:81|62:112|139:105,1,87.6,8|0,0:0|0:0,0:0:0:0:
154,135,12054,6,0,P|183:133|209:106,1,65.6999979949952,6|2,1:2|0:0,0:0:0:0:
247,32,12420,1,10,0:0:0:0:
318,79,12603,2,0,B|330:126|330:126|321:156|321:156|338:228,1,131.39999598999,2|2,1:2|1:2,0:0:0:0:
379,277,13151,1,10,0:0:0:0:
341,353,13334,6,0,P|272:368|223:305,1,131.39999598999,2|2,1:2|1:2,0:0:0:0:
173,266,13883,1,10,0:0:0:0:
92,295,14066,2,0,P|74:264|73:222,1,65.6999979949952,2|0,1:2|0:0,0:0:0:0:
102,157,14432,1,2,1:2:0:0:
47,90,14615,1,10,0:0:0:0:
107,29,14798,6,0,B|164:44|164:44|170:54|170:54|250:73,1,131.39999598999,2|2,1:2|1:2,0:0:0:0:
300,114,15346,1,10,0:0:0:0:
353,47,15529,1,2,1:2:0:0:
353,47,15895,1,2,1:2:0:0:
467,173,16261,6,0,P|414:243|375:238,1,131.39999598999,6|0,1:2|1:2,0:0:0:0:
312,186,16810,1,8,0:0:0:0:
242,236,16993,2,0,P|179:189|121:229,1,131.39999598999,4|0,1:2|1:2,0:0:0:0:
83,273,17542,2,0,L|34:272,3,32.8499989974976,8|8|8|8,0:0|0:0|0:0|0:0,0:0:0:0:
102,301,17907,6,0,B|134:310|134:310|176:296|176:296|207:309,1,98.5499969924928,2|2,0:2|0:0,0:0:0:0:
232,325,18273,1,2,1:2:0:0:
325,268,18456,1,2,0:0:0:0:
325,268,18548,1,2,0:0:0:0:
325,268,18639,2,0,B|358:258|358:258|409:284,1,65.6999979949952,10|2,0:0|1:2,0:0:0:0:
385,272,19371,6,0,L|391:204,1,58.4,6|0,1:2|0:0,0:0:0:0:
462,158,19737,2,0,L|444:92,1,58.4,2|0,1:2|0:0,0:0:0:0:
382,32,20103,2,0,B|306:33|346:71|253:78,1,116.8,2|0,1:2|1:2,0:0:0:0:
191,112,20651,1,0,0:0:0:0:
191,112,20834,6,0,P|154:105|110:101,1,58.4,2|8,1:2|0:0,0:0:0:0:
42,78,21200,1,0,1:2:0:0:
42,78,21566,2,0,P|28:120|39:146,1,58.4,2|2,1:2|0:0,0:0:0:0:
12,224,21932,2,0,P|41:257|69:260,1,58.4,2|2,1:2|0:0,0:0:0:0:
128,317,22298,6,0,B|173:302|173:302|194:278|194:278|240:262,1,116.8,2|2,1:2|1:2,0:0:0:0:
290,194,22846,2,0,P|357:211|379:263,1,116.8,2|2,0:0|0:0,0:0:0:0:
437,322,23395,1,2,1:2:0:0:
437,322,23578,1,2,0:0:0:0:
510,263,23761,6,0,P|504:199|503:182,1,58.4,2|0,1:2|0:0,0:0:0:0:
446,130,24127,2,0,P|454:97|461:63,1,58.4,0|0,1:2|0:0,0:0:0:0:
399,0,24493,2,0,L|308:16,1,87.6,2|0,1:2|0:0,0:0:0:0:
273,41,24859,2,0,L|199:34,1,58.4,2|0,1:2|0:0,0:0:0:0:
131,78,25225,6,0,P|107:128|148:183,1,116.8,2|2,1:2|1:2,0:0:0:0:
198,246,25773,2,0,P|259:216|319:243,1,116.8,2|2,0:0|0:0,0:0:0:0:
370,302,26322,1,0,1:2:0:0:
370,302,26505,1,0,0:0:0:0:
303,368,26688,6,0,B|233:354,1,58.4,2|8,1:2|0:0,0:0:0:0:
154,332,27054,2,0,L|82:348,1,58.4,2|2,1:2|0:0,0:0:0:0:
3,354,27420,2,0,B|-4:279|42:313|32:227,1,116.8,2|2,1:2|1:2,0:0:0:0:
33,244,28151,6,0,P|60:202|135:199,1,116.8,2|2,1:2|1:2,0:0:0:0:
191,238,28700,1,0,0:0:0:0:
262,198,28883,2,0,P|291:203|322:212,1,58.4,0|2,0:0|0:0,0:0:0:0:
397,185,29249,2,0,P|407:153|424:106,1,58.4,2|2,1:2|0:0,0:0:0:0:
372,65,29615,5,0,1:2:0:0:
372,65,29798,1,0,1:2:0:0:
298,100,29981,1,0,1:2:0:0:
298,100,30164,1,0,1:2:0:0:
233,51,30346,2,0,P|190:50|169:72,1,58.4,0|8,1:2|0:0,0:0:0:0:
151,89,30621,1,8,0:0:0:0:
151,89,30712,2,0,L|103:86,2,29.2,8|8|0,0:0|0:0|1:2,0:0:0:0:
164,186,31078,6,0,B|152:246|152:246|135:259|135:262|133:263|133:263|123:323,1,131.39999598999,6|10,0:0|0:0,0:0:0:0:
199,383,31627,1,0,0:0:0:0:
266,302,31810,2,0,L|339:325,1,65.6999979949952,2|0,1:2|1:2,0:0:0:0:
416,380,32176,2,0,L|486:351,1,65.6999979949952,0|10,0:0|0:0,0:0:0:0:
502,252,32542,5,2,1:2:0:0:
432,173,32725,1,8,0:0:0:0:
339,223,32907,1,0,0:0:0:0:
339,223,33273,2,0,L|261:214,1,65.6999979949952,2|0,1:2|1:2,0:0:0:0:
174,178,33639,2,0,L|108:202,1,65.6999979949952,8|2,0:0|0:0,0:0:0:0:
36,135,34005,5,2,1:2:0:0:
36,135,34188,1,2,0:0:0:0:
78,38,34371,2,0,L|159:55,1,65.6999979949952,10|2,0:0|1:2,0:0:0:0:
244,77,34737,2,0,L|323:61,1,65.6999979949952,2|0,1:2|1:2,0:0:0:0:
399,10,35103,2,0,P|443:30|452:74,1,65.6999979949952,2|8,0:0|0:0,0:0:0:0:
492,145,35468,1,2,1:2:0:0:
492,145,35651,6,0,L|490:215,2,65.6999979949952,8|0|0,0:0|0:0|0:0,0:0:0:0:
387,128,36200,2,0,B|338:137|338:137|327:149|327:149|280:161,1,98.5499969924928,2|0,1:2|0:0,0:0:0:0:
253,188,36566,2,0,L|182:177,1,65.6999979949952,10|8,0:0|0:0,0:0:0:0:
146,145,36840,1,8,0:0:0:0:
146,145,36932,6,0,B|84:120|84:120|39:176,1,131.39999598999,6|0,1:2|0:0,0:0:0:0:
0,241,37481,1,10,0:0:0:0:
74,358,37846,2,0,L|150:334,1,65.6999979949952,10|0,0:0|0:0,0:0:0:0:
207,284,38212,1,0,1:2:0:0:
207,284,38304,1,0,1:2:0:0:
207,284,38395,6,0,B|277:290|229:326|322:329,1,98.5499969924928,6|0,1:2|0:0,0:0:0:0:
337,353,38761,2,0,L|409:342,1,65.6999979949952,2|2,1:2|1:2,0:0:0:0:
499,301,39127,2,0,B|494:281|494:281|482:269|482:269|474:241,1,65.6999979949952,14|2,0:0|0:0,0:0:0:0:
396,172,39492,1,14,0:0:0:0:
396,172,39675,1,14,0:0:0:0:
291,189,39859,6,0,P|301:149|313:85,1,98.5499969924928,6|0,1:2|0:0,0:0:0:0:
329,42,40225,2,0,P|282:16|250:33,1,65.6999979949952,2|2,1:2|1:2,0:0:0:0:
186,76,40590,2,0,P|139:103|117:95,1,65.6999979949952,8|10,0:0|0:0,0:0:0:0:
31,82,40956,1,8,0:0:0:0:
31,82,41139,1,10,0:0:0:0:
9,186,41322,6,0,L|-6:244,2,43.7999986633301,4|0|0,0:0|0:0|0:0,0:0:0:0:
83,210,41688,2,0,L|72:252,2,43.7999986633301,8|8|8,0:0|0:0|0:0,0:0:0:0:
147,161,42054,2,0,L|131:82,2,43.7999986633301,0|8|8,1:2|0:0|0:0,0:0:0:0:
201,218,42420,2,0,L|217:276,2,43.7999986633301,0|0|0,1:2|1:2|1:2,0:0:0:0:
254,159,42786,6,0,L|284:48,1,77.8666666666667,6|2,0:0|0:0,0:0:0:0:
302,13,43151,1,2,0:0:0:0:
302,13,43334,1,2,1:2:0:0:
441,61,43700,2,0,P|446:38|450:-4,2,58.4,0|2|2,0:0|0:0|1:2,0:0:0:0:
470,150,44249,6,0,B|459:214|492:181|480:243,2,87.6,2|2|2,1:2|1:2|1:2,0:0:0:0:
379,124,44981,2,0,P|327:119|296:189,1,116.8,10|0,0:0|0:0,0:0:0:0:
215,219,45529,1,2,0:0:0:0:
161,142,45712,6,0,L|91:130,1,58.4,2|2,1:2|0:0,0:0:0:0:
14,163,46078,2,0,L|9:228,1,58.4,2|0,0:0|1:2,0:0:0:0:
29,310,46444,2,0,B|72:322|72:322|86:346|86:346|138:360,1,116.8,10|10,0:0|0:0,0:0:0:0:
204,301,46993,1,0,0:0:0:0:
276,360,47176,6,0,P|315:355|357:350,1,58.4,2|10,1:2|0:0,0:0:0:0:
426,371,47542,2,0,P|455:357|469:305,1,87.6,2|0,0:0|0:0,0:0:0:0:
478,261,47907,2,0,P|460:221|458:194,1,58.4,10|0,0:0|0:0,0:0:0:0:
442,115,48273,2,0,B|390:126|420:142|365:152,1,87.6,2|0,0:0|0:0,0:0:0:0:
318,142,48639,6,0,P|325:85|327:69,1,58.4,6|0,1:2|0:0,0:0:0:0:
237,117,49005,2,0,P|226:69|220:48,1,58.4,2|2,0:0|1:2,0:0:0:0:
145,7,49371,1,10,0:0:0:0:
22,148,49737,2,0,L|36:215,1,58.4,0|2,0:0|1:2,0:0:0:0:
114,253,50103,6,0,P|144:243|203:225,2,87.6,0|0|0,1:2|1:2|1:2,0:0:0:0:
81,340,50834,1,10,0:0:0:0:
265,372,51200,6,0,B|362:335|279:293|393:252,1,175.2,2|0,1:2|1:2,0:0:0:0:
489,143,52115,1,2,0:0:0:0:
489,143,52298,2,0,L|473:77,1,58.4,10|2,0:0|0:0,0:0:0:0:
394,38,52664,2,0,L|336:62,1,58.4,2|0,1:2|0:0,0:0:0:0:
261,111,53029,6,0,B|213:99|213:99|197:81|197:81|153:70,1,116.8,2|0,1:2|1:2,0:0:0:0:
65,179,53761,2,0,L|22:173,7,29.2,0|0|0|0|0|0|0|0,1:2|1:2|1:2|1:2|1:2|1:2|1:2|1:2,0:0:0:0:
95,202,54493,2,0,P|121:222|165:220,1,58.4,10|8,0:0|0:0,0:0:0:0:
188,200,54767,1,8,0:0:0:0:
188,200,54859,2,0,P|234:191|256:205,1,58.4,8|8,0:0|0:0,0:0:0:0:
320,227,55225,1,12,0:0:0:0:
320,227,55956,6,0,P|371:222|415:215,1,73,6|2,1:2|0:0,0:0:0:0:
468,277,56322,1,10,0:0:0:0:
411,353,56505,2,0,L|331:324,1,73,2|0,1:2|0:0,0:0:0:0:
250,355,56871,1,2,1:2:0:0:
188,283,57054,1,10,0:0:0:0:
105,329,57237,6,0,P|36:309|23:227,1,146,2|2,1:2|1:2,0:0:0:0:
84,176,57786,1,10,0:0:0:0:
41,91,57968,2,0,P|73:55|98:51,1,73,2|0,1:2|0:0,0:0:0:0:
183,11,58334,1,2,1:2:0:0:
243,84,58517,1,10,0:0:0:0:
336,65,58700,6,0,B|366:105|366:105|321:212,1,146,6|2,1:2|1:2,0:0:0:0:
379,274,59249,1,10,0:0:0:0:
470,249,59432,2,0,B|500:209|500:209|455:102,1,146,6|2,1:2|1:2,0:0:0:0:
424,33,59981,1,10,0:0:0:0:
336,65,60164,6,0,B|251:82|321:126|200:149,1,146,6|2,1:2|1:2,0:0:0:0:
153,77,60712,1,10,0:0:0:0:
94,151,60895,2,0,B|86:189|86:189|117:229,1,73,6|0,1:2|0:0,0:0:0:0:
173,283,61261,1,2,1:2:0:0:
141,372,61444,2,0,P|98:385|49:356,1,73,10|10,0:0|0:0,0:0:0:0:
31,364,61718,1,10,0:0:0:0:
31,364,61810,6,0,L|46:286,1,73,6|2,1:2|0:0,0:0:0:0:
106,216,62176,1,10,0:0:0:0:
173,283,62359,2,0,P|227:284|249:195,1,146,2|2,1:2|1:2,0:0:0:0:
177,153,62907,1,10,0:0:0:0:
106,216,63090,6,0,P|41:200|29:127,1,146,2|2,1:2|1:2,0:0:0:0:
66,42,63639,1,10,0:0:0:0:
157,66,63822,2,0,B|208:59|208:59|235:30|235:30|308:20,1,146,2|0,1:2|1:0,0:0:0:0:
370,73,64371,1,10,0:0:0:0:
459,41,64554,6,0,P|465:118|471:187,1,146,6|2,1:2|1:2,0:0:0:0:
385,235,65103,2,0,B|345:241|345:241|306:217,1,73,8|0,0:0|1:2,0:0:0:0:
250,156,65468,2,0,B|211:146|211:146|179:172,1,73,8|0,0:0|1:2,0:0:0:0:
109,224,65834,1,10,0:0:0:0:
18,196,66017,6,0,P|26:264|36:345,1,146,6|2,1:2|1:2,0:0:0:0:
125,372,66566,1,10,0:0:0:0:
194,307,66749,2,0,P|236:264|326:303,1,146,6|2,1:2|1:2,0:0:0:0:
390,337,67298,2,0,L|399:380,3,36.5,10|8|10|8,0:0|0:0|0:0|0:0,0:0:0:0:
425,306,67664,6,0,L|434:203,1,73,6|2,1:2|0:0,0:0:0:0:
408,141,68029,1,10,0:0:0:0:
332,201,68212,2,0,B|273:183|273:183|261:155|261:155|185:132,1,146,2|2,1:2|1:2,0:0:0:0:
120,105,68761,1,10,0:0:0:0:
167,23,68944,6,0,B|247:10,1,73,2|0,1:2|0:0,0:0:0:0:
311,73,69310,1,2,1:2:0:0:
384,12,69493,1,10,0:0:0:0:
459,70,69676,2,0,P|483:127|466:150,1,73,2|0,1:2|0:0,0:0:0:0:
418,204,70042,1,2,1:2:0:0:
328,171,70225,1,10,0:0:0:0:
258,234,70407,6,0,B|183:262|243:285|154:330,1,146,6|2,1:2|1:2,0:0:0:0:
68,370,70956,1,8,0:0:0:0:
0,303,71139,2,0,P|7:260|18:201,1,73,6|0,1:2|0:0,0:0:0:0:
50,143,71505,1,2,1:2:0:0:
127,198,71688,1,10,0:0:0:0:
194,130,71871,6,0,B|256:114|256:114|279:86|279:86|355:73,1,146,6|0,1:2|1:2,0:0:0:0:
403,24,72420,1,10,0:0:0:0:
469,92,72603,2,0,L|485:166,1,73,6|0,1:2|0:0,0:0:0:0:
425,237,72968,1,2,1:2:0:0:
443,330,73151,2,0,L|343:307,1,73,10|10,0:0|0:0,0:0:0:0:
319,318,73426,1,10,0:0:0:0:
319,318,73517,6,0,P|288:281|291:243,1,73,6|2,1:2|0:0,0:0:0:0:
327,171,73883,1,10,0:0:0:0:
240,130,74066,2,0,B|156:154|220:185|110:209,1,146,2|2,1:2|1:2,0:0:0:0:
37,160,74615,1,10,0:0:0:0:
67,70,74798,6,0,P|100:31|189:54,1,146,2|2,1:2|1:2,0:0:0:0:
240,130,75346,1,10,0:0:0:0:
311,67,75529,2,0,P|374:62|404:60,1,73,2|0,1:2|0:0,0:0:0:0:
458,121,75895,1,0,1:2:0:0:
420,208,76078,1,10,0:0:0:0:
463,292,76261,6,0,B|434:339|434:339|345:321,1,146,6|2,1:2|1:2,0:0:0:0:
255,287,76810,2,0,L|278:211,1,73,8|0,0:0|1:2,0:0:0:0:
330,137,77176,2,0,L|309:62,1,73,8|0,0:0|1:2,0:0:0:0:
236,6,77542,1,10,0:0:0:0:
160,63,77725,6,0,B|103:76|103:76|81:107|81:107|30:123,1,146,6|2,1:2|1:2,0:0:0:0:
1,211,78273,1,14,0:0:0:0:
65,280,78456,1,2,1:2:0:0:
138,219,78639,1,8,0:0:0:0:
206,285,78822,1,8,0:0:0:0:
294,251,79005,2,0,L|290:194,3,36.5,8|8|10|8,0:0|0:0|0:0|0:0,0:0:0:0:
319,276,79371,6,0,P|374:297|425:237,1,131.39999598999,6|10,1:2|0:0,0:0:0:0:
464,155,79920,2,0,B|381:140|452:109|344:85,1,131.39999598999,2|2,1:2|1:2,0:0:0:0:
252,82,80468,1,10,0:0:0:0:
175,154,80651,6,0,P|84:173|57:141,1,131.39999598999,2|2,1:2|1:2,0:0:0:0:
1,71,81200,1,10,0:0:0:0:
92,19,81383,2,0,L|172:35,1,65.6999979949952,2|0,1:2|0:0,0:0:0:0:
252,82,81749,2,0,L|338:67,1,65.6999979949952,2|10,1:2|0:0,0:0:0:0:
410,21,82115,6,0,B|470:43|470:42|448:144,1,131.39999598999,6|2,1:2|1:2,0:0:0:0:
423,223,82664,2,0,P|383:218|334:208,1,65.6999979949952,12|0,0:0|0:0,0:0:0:0:
254,195,83029,2,0,B|221:174|222:173|196:199,1,65.6999979949952,0|0,1:2|1:2,0:0:0:0:
119,267,83395,1,10,0:0:0:0:
51,186,83578,6,0,B|-6:228|-6:227|22:314,1,131.39999598999,2|2,1:2|1:2,0:0:0:0:
220,61,84676,1,2,1:2:0:0:
283,144,84859,1,8,0:0:0:0:
394,64,85225,6,0,B|407:145|452:108|470:208,1,153.299995321655,4|0,0:0|1:2,0:0:0:0:
442,267,85975,2,0,P|374:266|337:338,1,153.299995321655,8|8,0:0|0:0,0:0:0:0:
306,356,86631,1,8,0:0:0:0:
306,356,86725,6,0,P|262:380|219:360,1,76.6499976608277,2|2,1:2|1:2,0:0:0:0:
204,356,87100,1,0,0:0:0:0:
140,313,87287,2,2,L|134:278,2,25.5499992202759,2|2|10,1:2|0:0|0:0,0:0:0:0:
89,370,87662,1,2,1:2:0:0:
